#VERSION:0.83;
#TITLE:S.A.T.E.L.L.I.T.E.;
#SUBTITLE:;
#ARTIST:かめりあ;
#TITLETRANSLIT:;
#SUBTITLETRANSLIT:;
#ARTISTTRANSLIT:Camellia;
#GENRE:;
#ORIGIN:;
#CREDIT:;
#BANNER:S.A.T.E.L.L.I.T.E.png;
#BACKGROUND:S.A.T.E.L.L.I.T.E-bg.png;
#PREVIEWVID:;
#JACKET:S.A.T.E.L.L.I.T.E-jacket.png;
#CDIMAGE:;
#DISCIMAGE:;
#LYRICSPATH:;
#CDTITLE:;
#MUSIC:S.A.T.E.L.L.I.T.E.ogg;
#OFFSET:-1.043000;
#SAMPLESTART:79.443001;
#SAMPLELENGTH:12.799995;
#SELECTABLE:YES;
#BPMS:0.000=150.000;
#STOPS:;
#DELAYS:;
#WARPS:;
#TIMESIGNATURES:0.000=4=4;
#TICKCOUNTS:0.000=4;
#COMBOS:0.000=1;
#SPEEDS:0.000=1.000=0.000=0;
#SCROLLS:0.000=1.000;
#FAKES:;
#LABELS:0.000=Song Start;
#BGCHANGES:;
#KEYSOUNDS:;
#ATTACKS:
;

//---------------dance-single - ----------------
#NOTEDATA:;
#CHARTNAME:;
#STEPSTYPE:dance-single;
#DESCRIPTION:;
#CHARTSTYLE:;
#DIFFICULTY:Hard;
#METER:15;
#RADARVALUES:0.588524,0.767353,0.244074,0.451167,0.373507,557.000000,524.000000,33.000000,61.000000,0.000000,0.000000,0.000000,0.000000,0.000000,0.588524,0.767353,0.244074,0.451167,0.373507,557.000000,524.000000,33.000000,61.000000,0.000000,0.000000,0.000000,0.000000,0.000000;
#CREDIT:;
#NOTES:
// measure 0
0000
0000
0000
0000
,  // measure 1
0000
0000
0000
0000
,  // measure 2
0000
0000
0000
0000
,  // measure 3
0000
0000
0000
0000
,  // measure 4
0000
0000
0000
0000
,  // measure 5
0000
0000
0000
0000
,  // measure 6
0000
0000
0000
0000
,  // measure 7
0000
0000
0000
0000
,  // measure 8
0000
0000
0000
0000
1000
0001
0100
0020
,  // measure 9
0000
2030
0000
3200
0000
0302
0000
0023
,  // measure 10
0000
1030
0000
0000
0001
0100
0010
1000
,  // measure 11
0000
0200
0000
0302
0000
0023
0000
2030
,  // measure 12
0000
3100
0000
0000
0010
0100
0001
2000
,  // measure 13
0000
3020
0000
0032
0000
0203
0000
2300
,  // measure 14
0000
3010
0000
0000
1000
0100
0010
0002
,  // measure 15
0000
0000
0000
0013
0100
0000
0100
0020
,  // measure 16
0000
0000
0000
0000
0000
0000
0030
0000
0001
0000
0000
0001
0000
0000
0002
0000
,  // measure 17
0000
0023
0000
2030
0000
3200
0000
0302
,  // measure 18
0000
0013
0000
0000
0100
0010
0100
0020
,  // measure 19
0000
0032
0000
0203
0000
2300
0000
3020
,  // measure 20
0000
0031
0000
0000
1000
0001
0100
0020
,  // measure 21
0000
2030
0000
3200
0000
0320
0000
0032
,  // measure 22
0000
1003
0100
0020
0000
0031
0100
0010
,  // measure 23
0000
1000
0001
0200
0000
0000
0310
0000
,  // measure 24
1000
0100
0010
0001
0011
0000
1100
0000
,  // measure 25
1000
0000
0100
0000
0010
0001
0010
0000
0100
1000
0100
0000
1000
0000
0002
0000
,  // measure 26
0000
0000
1003
0010
1000
0000
0001
0100
0001
0000
1000
0000
0100
0000
0010
0000
,  // measure 27
0000
0000
0100
0000
1000
0100
0010
0000
0100
0010
0001
0000
1000
0000
0200
0000
,  // measure 28
0000
0000
0300
1000
0000
0000
0010
0000
0100
0000
0000
0100
0000
0000
0100
0000
,  // measure 29
0000
0000
0010
0000
0100
1000
0100
0000
0010
0001
0010
0000
0001
0000
2000
0000
,  // measure 30
0000
0000
3001
0100
0001
0000
1000
0010
1000
0000
0001
0000
0010
0000
0100
0000
,  // measure 31
0000
0000
0010
0000
0001
0010
0100
0000
0010
0100
1000
0000
0001
0000
0020
0000
,  // measure 32
0000
0000
0030
0001
0000
0000
0100
0000
0010
0000
0000
0010
0000
0000
0010
0000
,  // measure 33
0001
0000
1000
0000
0010
0100
0010
0000
1000
0001
1000
0000
0100
0000
0020
0000
,  // measure 34
0000
0000
0130
1000
0100
0000
0010
0001
0010
0000
0100
0000
1000
0000
0001
0000
,  // measure 35
0000
0000
1000
0000
0100
0010
0001
0000
0010
0100
1000
0000
0010
0000
0200
0000
,  // measure 36
0000
0000
0300
0001
0000
0000
0100
0000
0001
0000
0000
0001
0000
0000
0001
0000
,  // measure 37
0000
0000
1000
0000
0001
0010
0100
0000
0010
0100
1000
0000
0001
0000
0200
0000
,  // measure 38
0000
0000
0310
1000
0010
0000
0100
0001
0100
0000
0010
0000
0100
0000
0001
0000
,  // measure 39
0000
0000
1000
0000
0100
0010
0100
0000
0010
0100
0010
0000
0001
0000
0010
0000
,  // measure 40
0002
0000
0000
0003
,  // measure 41
1100
0000
0011
0000
1100
0000
0011
0001
,  // measure 42
0101
0000
1010
0000
0101
0001
1010
1000
,  // measure 43
1010
0000
1100
0000
1001
0000
1100
0100
,  // measure 44
0110
0000
0000
0000
0011
0000
0010
0000
0100
0000
0010
0000
0100
0000
0010
0001
,  // measure 45
0010
0000
0100
0000
1000
0000
0001
0000
0100
0000
0010
0000
1000
0000
0001
0100
,  // measure 46
0010
1000
0100
0010
0001
0010
0100
0010
,  // measure 47
0100
0010
0100
0010
0100
0010
0001
0010
0100
1000
0100
0010
0001
0010
0100
1000
,  // measure 48
0200
0000
0000
0300
,  // measure 49
1100
0000
0100
0000
0010
0001
0010
0000
0100
1000
0100
0000
0010
0000
0001
0000
,  // measure 50
0100
0000
1000
0100
0010
0000
0100
0010
0001
0000
0100
0000
0010
0000
1000
0000
,  // measure 51
0010
0000
0100
0000
0001
0100
0010
0000
1000
0100
0010
0000
0100
0000
2000
0000
,  // measure 52
0000
0000
3000
0100
0000
0000
0010
0000
0011
0000
0000
0011
0000
0000
0011
0000
,  // measure 53
0000
0000
0100
0000
1000
0100
0010
0000
0001
0010
0100
0000
1000
0000
0010
0000
,  // measure 54
0100
0000
0001
1000
0001
0000
1000
0100
1000
0000
0100
0000
0010
0000
0001
0000
,  // measure 55
0010
0000
0100
0000
1000
0010
1000
0000
0010
0100
0010
0000
0100
0000
0002
0000
,  // measure 56
0000
0000
0003
0100
0000
0000
0010
0000
1010
0000
0000
1010
0000
0000
0000
0000
,  // measure 57
1000
0000
1000
0000
1000
0100
0010
0000
0100
0010
0001
0000
0010
0000
0100
0000
,  // measure 58
1000
0000
0100
0010
0100
0000
0010
0001
0010
0000
0100
0000
0020
0000
0032
0000
,  // measure 59
0013
0000
0100
0000
0010
0001
0010
0000
0100
1000
0100
0000
0010
0000
0002
0000
,  // measure 60
0000
0000
0003
1000
0000
0000
0100
0000
0011
0000
0000
0001
0000
0000
0001
0000
,  // measure 61
1100
0000
1000
0100
0000
0100
1000
0000
0100
0000
0010
0000
0002
0000
0023
0000
,  // measure 62
0130
0000
1000
0100
0000
0100
0010
0001
0010
0000
0100
0000
2000
0000
3200
0000
,  // measure 63
0310
0000
0001
0020
0000
0000
0030
0000
0100
0000
1000
0200
0000
0000
0300
0000
,  // measure 64
1000
0100
0001
0010
2000
0000
3000
0000
,  // measure 65
1000
0000
0001
0000
0100
0010
0100
0000
0010
0100
0010
0000
1000
0000
0001
0000
,  // measure 66
1000
0000
0100
0010
0001
0000
0010
0001
0010
0000
0100
0000
1000
0000
0100
0000
,  // measure 67
0010
0000
0001
0000
0010
0100
0010
0000
0100
0010
0100
0000
1000
0000
0002
0000
,  // measure 68
0000
0000
0003
1000
0000
0000
0100
0000
1100
0000
0000
1100
0000
0000
1100
0000
,  // measure 69
0000
0000
0000
0000
1000
0001
1000
0000
0010
0100
0010
0000
1000
0000
0001
0000
,  // measure 70
1000
0000
0100
1000
0100
0000
0010
0001
0010
0000
0100
0000
0000
0100
0000
0000
,  // measure 71
0100
0000
0010
0000
0001
0010
0001
0000
1000
0100
1000
0000
0100
0000
1000
0000
,  // measure 72
0010
0000
0100
0000
0001
0000
1000
0000
1100
0000
0000
1100
0000
0000
0000
0000
,  // measure 73
1000
0100
0000
0100
1000
0000
0100
0000
0110
0000
0000
0000
0011
0000
0001
0000
,  // measure 74
0011
0000
0100
1000
0100
0000
0010
0001
0010
0000
0000
0010
0000
0000
0010
0000
,  // measure 75
0200
0000
0000
0000
0310
0001
0010
0000
0100
1000
0100
0000
1000
0000
0200
0000
,  // measure 76
0000
0000
0300
0010
0000
0000
0001
0000
0010
0000
0000
0010
0000
0000
0010
0000
,  // measure 77
0100
0000
1000
0000
0010
0100
0010
0000
1000
0100
0010
0000
0001
0000
0010
0000
,  // measure 78
0100
0000
1000
0000
0100
0010
0100
0000
0020
0000
0000
0000
0000
0000
0031
0000
,  // measure 79
0100
0000
0010
0000
0100
0000
0001
1000
0001
0000
1000
0000
0100
0000
0010
0000
,  // measure 80
1000
0001
0100
0010
0200
0000
0300
0000
,  // measure 81
2002
0000
0000
0000
,  // measure 82
0000
0000
0000
0000
,  // measure 83
3003
0000
0000
0000
;
