#TITLE:Rush-More;
#SUBTITLE:;
#ARTIST:Litmus*;
#TITLETRANSLIT:;
#SUBTITLETRANSLIT:;
#ARTISTTRANSLIT:;
#GENRE:;
#CREDIT:;
#MUSIC:Rush-More.ogg;
#BANNER:Rush-More.png;
#BACKGROUND:Rush-More-bg.png;
#CDTITLE:cdtitle.png;
#SAMPLESTART:75.445;
#SAMPLELENGTH:12.000;
#SELECTABLE:YES;
#OFFSET:-0.445;
#BPMS:0.000=160.000;
#STOPS:;
#ORIGIN:;
#PREVIEWVID:;
#JACKET:Rush-More-jacket.png;
#CDIMAGE:;
#DISCIMAGE:;
#BGCHANGES:0.000=Rush-More.mp4=1.000=0=0=0=StretchNoLoop====,
99999.000=-nosongbg-=1.000=0=0=0=StretchNoLoop====
;
#FGCHANGES:;

//--------------- dance-single - MEGAtive ----------------
#NOTES:
     dance-single:
     MEGAtive:
     Hard:
     14:
     0.646891,0.706448,0.888231,0.069665,0.017416,520,418,102,8,0,0,0,0,0,0.646891,0.706448,0.888231,0.069665,0.017416,520,418,102,8,0,0,0,0,0:
0000
0000
0000
0000
,
0000
0000
0000
0000
,
0000
0000
0000
0000
,
0000
0000
0000
0000
,
1001
0001
0001
0001
,
1000
0000
1000
1001
0000
0110
0000
0001
,
1001
1000
1000
1000
,
0220
0000
0000
0000
0000
0330
0110
0000
,
1001
0110
1001
0110
,
0101
1010
0101
1010
,
0011
1100
0011
1100
,
1001
0110
1001
0110
,
1000
0100
0010
0001
1000
0010
0100
0001
,
1000
0100
0010
0001
1000
0010
0100
0001
,
1000
1000
0100
0100
0010
0010
0001
0001
,
1001
1001
1001
1001
0000
0000
0000
0000
,
1001
0000
0001
0010
0100
0010
0001
0100
,
0010
0100
0001
0010
0100
0010
0001
1000
,
0001
0000
1000
0010
0100
0010
1000
0100
,
0010
0100
1000
0010
0100
0100
0100
0100
,
1001
0000
0001
0010
1000
0010
0001
0100
,
1000
0100
0001
0010
1000
0010
0001
1000
,
0001
0000
1000
0010
0001
0010
1000
0100
,
0001
0100
0100
0010
0010
0100
0100
0000
,
1001
0000
0000
0000
0010
1000
0100
0001
,
0010
0001
0100
1000
0010
0100
1000
0001
,
0010
0000
0100
0001
0010
1000
0100
1000
,
0010
0001
0100
0010
1000
0000
0000
0000
,
0001
0100
0100
1000
0001
0010
0010
0100
,
0001
0010
0010
1000
0001
0100
0100
0010
,
0001
0100
1000
0001
0010
1000
0100
0010
,
1001
1001
1001
1001
1001
0000
0000
0000
,
1001
0000
0001
0010
1000
0100
0001
0000
,
1001
0000
1000
0010
0001
0100
1000
0000
,
1001
0000
0001
0010
1000
0100
0001
0000
,
1001
0000
1000
0010
0001
0100
1000
0000
,
1001
0000
0001
0010
1000
0100
0001
1000
,
0001
0100
1000
0010
0001
1000
0001
0000
,
1001
0000
1000
0100
0001
0010
1000
0001
,
1000
0010
0001
0100
1000
0001
1000
0000
,
1001
0110
1001
0110
,
0011
1100
0011
1100
,
1010
0101
1010
0101
,
1001
0110
1001
0110
,
0001
0010
0100
1000
0001
0100
0010
1000
,
0001
0010
0100
1000
0001
0100
0010
1000
,
0001
0001
0010
0010
0100
0100
1000
1000
,
0001
0001
0100
0100
0010
0010
1000
1000
,
2002
0000
0000
0000
0000
0000
0000
3003
,
0001
0010
1000
0010
0001
0100
0010
0000
,
1001
0000
0000
0000
0001
0000
0010
0000
0000
0100
0000
0000
0210
0000
0000
0000
0000
0000
1300
0000
0000
0010
0000
0000
,
1000
0001
0100
0010
1000
0100
0001
0000
,
0100
0000
0000
0000
0100
0000
1000
0000
0000
0010
0000
0000
0210
0000
0000
0000
0000
0000
0301
0000
0000
0010
0000
0000
,
0001
1000
0100
0010
0001
0100
1000
0100
,
0001
0000
0000
0000
0001
0000
0100
0000
0000
0010
0000
0000
0120
0000
0000
0000
0000
0000
1030
0000
0000
0100
0000
0000
,
1000
0001
0010
0100
1000
0010
0001
0000
,
0010
0000
0000
0000
0010
0000
1000
0000
0000
0100
0000
0000
0120
0000
0000
0000
0000
0000
0031
0000
0000
0100
0000
0000
,
0001
1000
0010
0100
0001
0010
1000
0000
,
1010
0011
1010
0011
,
1010
0011
1010
0011
,
0101
1100
0101
1100
,
0101
1100
0101
1100
,
1010
0011
1010
0011
,
1010
0011
1010
0011
,
0101
1100
0101
1100
,
1001
0000
0110
0000
1001
0010
0110
0000
,
1001
0000
0001
0100
1000
0010
0001
0000
,
1001
0000
1000
0100
0001
0010
1000
0000
,
1001
0000
0001
0100
1000
0010
0001
0000
,
1001
0000
1000
0100
0001
0010
1000
0000
,
1001
0000
0001
0010
1000
0100
0001
0000
,
1001
0000
1000
0010
0001
0100
1000
0000
,
1001
0000
0001
0010
1000
0100
0001
0000
,
1001
0000
1000
0010
0001
0100
1000
0000
;
