#VERSION:0.83;
#TITLE:Run the Night [hooky];
#SUBTITLE:;
#ARTIST:Gigi Rowe;
#TITLETRANSLIT:;
#SUBTITLETRANSLIT:;
#ARTISTTRANSLIT:;
#GENRE:;
#ORIGIN:;
#CREDIT:;
#BANNER:Run the Night [hooky].png;
#BACKGROUND:Run the Night [hooky]-bg.png;
#PREVIEWVID:;
#JACKET:Run the Night [hooky]-jacket.png;
#CDIMAGE:;
#DISCIMAGE:;
#LYRICSPATH:;
#CDTITLE:;
#MUSIC:Run the Night [hooky].ogg;
#OFFSET:0.000000;
#SAMPLESTART:43.153000;
#SAMPLELENGTH:16.844000;
#SELECTABLE:YES;
#DISPLAYBPM:114.000000;
#BPMS:0.000=114.000;
#STOPS:;
#DELAYS:;
#WARPS:;
#TIMESIGNATURES:0.000=4=4;
#TICKCOUNTS:0.000=4;
#COMBOS:0.000=1;
#SPEEDS:0.000=1.000=0.000=0;
#SCROLLS:0.000=1.000;
#FAKES:;
#LABELS:0.000=Song Start;
#BGCHANGES:0.000=Run the Night [hooky].avi=1.000=0=0=0=StretchNoLoop====,
99999=-nosongbg-=1.000=0=0=0 // don't automatically add -songbackground-
;
#KEYSOUNDS:;
#ATTACKS:
;

//---------------dance-single - ----------------
#NOTEDATA:;
#CHARTNAME:;
#STEPSTYPE:dance-single;
#DESCRIPTION:;
#CHARTSTYLE:;
#DIFFICULTY:Hard;
#METER:11;
#RADARVALUES:0.451982,0.539031,0.205066,0.068355,0.224596,324.000000,303.000000,21.000000,7.000000,0.000000,0.000000,0.000000,0.000000,0.000000,0.451982,0.539031,0.205066,0.068355,0.224596,324.000000,303.000000,21.000000,7.000000,0.000000,0.000000,0.000000,0.000000,0.000000;
#CREDIT:;
#DISPLAYBPM:114.000000;
#NOTES:
0000
0000
0000
0000
,
0000
0000
0000
0000
,
0000
0000
0000
0000
,
0000
0000
0000
0000
,
0000
0000
0000
0000
,
1000
0100
0000
0000
1000
0000
0000
0000
0010
0000
0100
0000
0001
0000
0000
0000
,
0010
0010
0100
0000
0100
0100
0010
0000
,
0001
1000
0000
0000
0001
0000
0000
0000
0010
0000
0100
0000
1000
0000
0000
0000
,
0010
0010
0100
0000
0100
0100
0010
0000
,
1000
0100
0010
0000
0010
0001
0100
0000
,
0001
0010
0100
1000
0001
0001
1000
0000
,
0100
0100
0010
0000
0001
0001
1000
0000
,
0010
0010
0100
0000
0100
0010
1000
0000
,
0100
0100
1100
0000
0010
0010
0011
0000
,
0001
0001
1000
0001
0010
1000
0010
0001
,
0100
0100
0110
0000
0010
0010
1010
0000
,
0010
1000
0100
1000
0001
0001
0010
0001
,
0100
0100
1010
0000
0100
0100
1100
0000
,
0010
0001
0100
0000
0010
0001
0100
0000
,
0100
0010
1000
0001
0010
0100
1000
0001
,
1000
1000
0002
0000
0203
0000
0310
0000
,
0010
0000
1000
0000
0100
0000
1000
0001
0000
0001
1000
0000
1001
0000
0001
0100
,
0001
0000
1000
0010
1000
0000
0010
0100
0010
0000
0100
0000
0101
0000
0000
0000
,
0001
0000
0010
0000
0100
0000
0010
0001
0000
0001
1000
0000
1010
0000
0100
0010
,
1000
0000
1000
0100
0010
0000
0010
0001
0100
0000
0001
0000
0011
0000
0000
0000
,
0100
0000
0100
0000
1000
0000
1000
0010
0000
0010
0100
0000
0001
0000
0010
0100
,
1000
0000
1000
0010
0100
0000
0100
0001
0010
0000
0010
0000
0001
0000
0000
0000
,
2000
0000
0000
0000
3010
0000
0000
0100
0000
0000
0010
0000
0100
0000
0000
0000
,
0002
0010
0100
1003
,
0100
0000
0001
0000
0010
0000
0001
1000
0000
1000
0001
0000
1001
0000
1000
0010
,
1000
0000
0001
0100
0001
0000
0100
0010
0100
0000
0010
0000
1010
0000
0100
0000
,
1000
0000
0100
0000
0010
0000
0100
1000
0000
1000
0001
0000
0101
0000
0001
0100
,
0001
0000
0001
0010
0100
0000
0100
1000
0010
0000
1000
0000
1100
0000
0100
0000
,
0011
0000
0010
0000
0001
0000
0001
0100
0000
0100
0010
0000
1000
0000
0100
0010
,
0001
0000
0001
0100
0010
0000
0010
1000
0100
0000
0100
0000
1000
0000
1000
0000
,
0002
0000
0000
0000
0103
0000
0000
0010
0000
0000
0100
0000
0010
0000
0000
0000
,
1000
1000
0100
0100
0010
0010
0001
0001
,
0100
0000
0010
0000
0100
0000
0001
0010
0000
0010
0001
0000
0101
0000
0000
0000
,
0001
0000
0010
0000
0100
0000
1000
0010
0000
0010
1000
0000
1100
0000
0000
0000
,
0010
0000
0001
0000
1000
0000
0010
1000
0000
1000
0010
0000
0110
0000
0000
0000
,
0100
0001
0010
0001
0010
0010
0100
0000
,
0010
0000
0001
0000
1000
0000
1000
0100
0000
0100
1000
0000
1010
0000
0000
0000
,
1000
0000
0100
0000
0010
0000
0001
0100
0000
0100
0001
0000
0011
0000
0000
0000
,
0100
0000
1000
0000
0001
0000
0100
0001
0000
0001
0100
0000
0110
0000
0000
0000
,
0010
1000
0100
1000
0002
0000
1000
2000
,
0000
0000
0000
0000
,
3003
0000
0000
0000
;

//---------------dance-double - ----------------
#NOTEDATA:;
#CHARTNAME:;
#STEPSTYPE:dance-double;
#DESCRIPTION:;
#CHARTSTYLE:;
#DIFFICULTY:Hard;
#METER:10;
#RADARVALUES:0.345962,0.381814,0.078120,0.126946,0.048825,248.000000,240.000000,8.000000,13.000000,0.000000,0.000000,0.000000,0.000000,0.000000,0.345962,0.381814,0.078120,0.126946,0.048825,248.000000,240.000000,8.000000,13.000000,0.000000,0.000000,0.000000,0.000000,0.000000;
#CREDIT:;
#DISPLAYBPM:114.000000;
#NOTES:
00000000
00000000
00000000
00000000
,
00000000
00000000
00000000
00000000
,
00000000
00000000
00000000
00000000
,
00000000
00000000
00000000
00000000
,
00000000
00000000
00000000
00000000
,
00010000
00000000
01000000
00000000
00010000
00010000
00010000
00000000
,
01000000
00001000
00000010
00000000
00000010
00000001
00000100
00000000
,
00000010
00000000
00000010
00000000
00000100
00000100
00000100
00000000
,
00000001
00000010
00000100
00000000
00000100
00010000
00001000
00000000
,
00010000
00100000
01000000
00000000
00100000
10000000
01000000
00000000
,
00100000
00100000
00100000
00000000
02000000
00000000
13000000
00000000
,
00200000
01300000
02000000
03010000
,
00020000
00000000
00031000
00000000
00000010
00000100
00000001
00000000
,
00000010
00000010
00000011
00000000
00000001
00000001
00000101
00000000
,
00010000
00010000
00011000
00000000
01000000
01000000
11000000
00000000
,
10000000
01000000
10000000
00000000
10000000
00100000
01000000
00000000
,
00010000
00010000
00110000
00000000
00010000
00010000
01010000
00000000
,
00100000
00000000
01100000
00000000
00100000
01000000
00001000
00000000
,
00100000
00001000
00010000
00000000
00000010
00001000
00000100
00000000
,
00001000
00001000
00010000
00010000
00100000
00100000
00010000
00010000
,
00001000
00001000
00000001
00000000
00000020
00000000
00000130
00000000
,
00001000
00001000
00000010
00000000
00001000
00001000
00000010
00000000
,
00000010
00001000
00000100
00010000
00000100
00000100
00010000
00000000
,
00000001
00000001
00010000
00000000
00000010
00000010
00000100
00000000
,
00000010
00010000
00000100
00010000
00001000
00001000
01000000
00100000
,
20000000
00000000
30010000
00000000
10000000
10000000
00010000
00000000
,
00100000
01000000
10000000
00010000
20000000
00000000
30010000
00000000
,
00002000
00000000
00003001
00000000
00000010
00000100
00001000
00000000
,
00000001
00001000
00010000
10000000
,
00010000
00010000
01000000
00000000
00010000
00010000
01000000
00000000
,
01000000
00010000
00100000
00001000
00100000
00100000
00001000
00000000
,
10000000
10000000
00001000
00000000
01000000
01000000
00100000
00000000
,
01000000
00001000
00100000
00001000
00010000
00010000
00000010
00000100
,
00000002
00000000
00001003
00000000
00000001
00000001
00001000
00000000
,
00000100
00000010
00000001
00001000
00000002
00000000
00001003
00000000
,
00020000
00000000
10030000
00000000
01000000
00100000
00010000
00000000
,
10000000
00010000
00001000
00000001
,
00000000
00000000
00000010
00000000
00000001
00000000
00000010
00000001
00000000
00000000
00001000
00000000
00000000
00000000
00000010
00000000
,
00000000
00000000
00000010
00000000
00000100
00000000
00000010
00000100
00000000
00000000
00000010
00000000
00010000
00000000
00001000
00000000
,
00000000
00000000
00100000
00000000
00010000
00000000
00100000
00010000
00000000
00000000
10000000
00000000
00000000
00000000
00100000
00000000
,
00100000
10000000
01000000
00010000
01000000
10000000
00100000
01000000
,
00000000
00000000
00100000
00000000
10000000
00000000
01000000
10000000
00000000
00000000
00010000
00000000
00000000
00000000
01000000
00000000
,
00000000
00000000
00100000
00000000
01000000
00000000
00100000
01000000
00000000
00000000
01000000
00000000
00001000
00000000
00000001
00000000
,
00000000
00000000
00000100
00000000
00001000
00000000
00000100
00001000
00000000
00000000
00000001
00000000
00000000
00000000
00000100
00000000
,
00000000
00000001
00000010
00000001
00000000
00001000
00000010
00010000
00001000
00000000
00000000
00000000
00010000
00000000
00010000
00000000
,
00022000
00000000
00000000
00000000
,
00033000
00000000
00000000
00000000
;

//---------------dance-double - ----------------
#NOTEDATA:;
#CHARTNAME:;
#STEPSTYPE:dance-double;
#DESCRIPTION:;
#CHARTSTYLE:;
#DIFFICULTY:Medium;
#METER:7;
#RADARVALUES:0.272026,0.336894,0.185536,0.078120,0.000000,195.000000,176.000000,19.000000,8.000000,0.000000,0.000000,0.000000,0.000000,0.000000,0.272026,0.336894,0.185536,0.078120,0.000000,195.000000,176.000000,19.000000,8.000000,0.000000,0.000000,0.000000,0.000000,0.000000;
#CREDIT:;
#DISPLAYBPM:114.000000;
#NOTES:
00000000
00000000
00000000
00000000
,
00000000
00000000
00000000
00000000
,
00000000
00000000
00000000
00000000
,
00000000
00000000
00000000
00000000
,
00000000
00000000
00000000
00000000
,
00100000
00010000
01000000
01000000
,
00001000
00010000
00000100
00000100
,
00000010
00000001
00001000
00001000
,
00000010
00000100
00000001
00000010
,
00010000
00010000
00001000
00001000
,
00100000
00010000
01000000
00010000
,
00200000
00010000
00310000
00000000
,
00000020
00000001
00000031
00000000
,
00000100
00001000
00000010
00000010
,
00010000
00000000
00001000
00000000
00100000
00010000
00100000
00000000
,
01000000
10000000
00010000
00010000
,
01000000
01000000
00100000
00000000
10000000
00000000
01000000
00000000
,
00001000
00001000
00010000
00010000
,
00000010
00000000
00000001
00000000
00001000
00000010
00000100
00000000
,
00000001
00000001
00000001
00000000
00001000
00001000
00001000
00000000
,
00010000
00010000
00010000
00000000
10000000
00000000
10100000
00000000
,
00101000
00001000
00010100
00010100
,
00000010
00000000
00000001
00000000
00000100
00000100
00000100
00000000
,
00001010
00001100
00000011
00000011
,
00000001
00000000
00000100
00000000
00000010
00000010
00000010
00000000
,
00010000
00000000
00001000
00000000
01000000
01000000
00100000
00000000
,
01000000
00000000
00010000
00000000
00100000
00010000
00001000
00000000
,
00000010
00000000
00001010
00000000
00000010
00000100
00000001
00000000
,
00000020
00000130
00020000
00031000
,
00011000
00100010
01000100
00011000
,
01000000
00000000
10000000
00000000
00100000
00100000
00100000
00000000
,
01010000
00110000
11000000
11000000
,
10000000
00000000
00100000
00000000
01000000
01000000
01000000
00000000
,
00001000
00000000
00010000
00000000
00000010
00000010
00000100
00000000
,
00000010
00000000
00001000
00000000
00000100
00001000
00010000
00000000
,
01000000
00000000
01010000
00000000
01000000
00100000
10000000
00000000
,
02000000
03100000
00002000
00013000
,
00001000
00000100
00000001
00000000
,
00000001
00000000
00000100
00000000
00001000
00000010
00000100
00000000
,
00000100
00001000
00010000
00000000
,
00010000
00000000
01000000
00000000
00100000
10000000
01000000
00000000
,
00010000
00100000
10000000
00000000
,
10000000
00000000
00100000
00000000
00010000
01000000
00100000
00000000
,
00100000
00010000
00001000
00000000
,
00001000
00000000
00000010
00000000
00000100
00000001
00000010
00000001
,
00000022
00000000
00000000
00000000
,
00000033
00000000
00000000
00000000
;

//---------------dance-double - ----------------
#NOTEDATA:;
#CHARTNAME:;
#STEPSTYPE:dance-double;
#DESCRIPTION:;
#CHARTSTYLE:;
#DIFFICULTY:Easy;
#METER:4;
#RADARVALUES:0.196696,0.224596,0.068355,0.097651,0.000000,141.000000,134.000000,7.000000,10.000000,0.000000,0.000000,0.000000,0.000000,0.000000,0.196696,0.224596,0.068355,0.097651,0.000000,141.000000,134.000000,7.000000,10.000000,0.000000,0.000000,0.000000,0.000000,0.000000;
#CREDIT:;
#DISPLAYBPM:114.000000;
#NOTES:
00000000
00000000
00000000
00000000
,
00000000
00000000
00000000
00000000
,
00000000
00000000
00000000
00000000
,
00000000
00000000
00000000
00000000
,
00000000
00000000
00000000
00000000
,
00100000
00010000
00100000
00000000
,
00001000
00010000
00001000
00000000
,
00000010
00000001
00000100
00000000
,
00000100
00000001
00001000
00000000
,
00000010
00010000
00001000
00000000
,
00001000
00100000
01000000
00000000
,
00100000
00010000
01000000
00000000
,
00010000
10000000
00010000
01000000
,
00100000
00100000
00100000
00000000
,
00001000
00001000
00001000
00000000
,
00000010
00000010
00000010
00000000
,
00000100
00000100
00000100
00000000
,
00000001
00000001
00000001
00000000
,
00001000
00001000
00001000
00000000
,
00010000
00100000
01000000
10000000
,
00010000
00001000
00000001
00000100
,
00000110
00000010
00000010
00000000
,
00000010
00010000
00000100
00010000
,
00001000
00001000
00011000
00000000
,
00001000
00100000
01000000
00100000
,
00010000
00010000
00110000
00000000
,
00010000
00100000
01000000
10000000
,
00010000
00010000
10000000
10000000
,
00010000
00010000
01000000
00100000
,
01100000
01000000
01000000
00000000
,
01000000
00001000
00100000
00001000
,
00010000
00010000
00011000
00000000
,
00010000
00000100
00000010
00000100
,
00001000
00001000
00001100
00000000
,
00001000
00000100
00000010
00000001
,
00001000
00001000
00000001
00000001
,
00001000
00001000
00000010
00010000
,
00002000
00000000
00010000
00013000
,
00020000
00000000
00000010
00030010
,
00000200
00000000
00000001
00000301
,
00002000
00000000
01000000
01003000
,
00200000
00000000
00010000
00310000
,
20000000
00000000
00100000
31000000
,
00200000
00000000
00001000
00310000
,
00002000
00000000
00000010
00003100
,
00022000
00000000
00000000
00000000
,
00033000
00000000
00000000
00000000
;

//---------------dance-single - ----------------
#NOTEDATA:;
#CHARTNAME:;
#STEPSTYPE:dance-single;
#DESCRIPTION:;
#CHARTSTYLE:;
#DIFFICULTY:Medium;
#METER:8;
#RADARVALUES:0.276212,0.314435,0.107416,0.156241,0.000000,198.000000,187.000000,11.000000,16.000000,0.000000,0.000000,0.000000,0.000000,0.000000,0.276212,0.314435,0.107416,0.156241,0.000000,198.000000,187.000000,11.000000,16.000000,0.000000,0.000000,0.000000,0.000000,0.000000;
#CREDIT:;
#DISPLAYBPM:114.000000;
#NOTES:
0000
0000
0000
0000
,
0000
0000
0000
0000
,
0000
0000
0000
0000
,
0000
0000
0000
0000
,
0000
0000
0000
0000
,
0010
0000
1000
0000
0100
0100
0100
0000
,
1000
0000
0001
0000
0100
0100
0100
0000
,
0010
0000
0100
0000
0001
0001
0001
0000
,
0010
0000
0100
0000
1000
1000
1000
0000
,
0010
0100
0100
0001
,
0010
0100
0010
0001
,
1000
1000
1000
0000
0001
0001
0001
0000
,
0200
0001
0010
1300
,
0001
0101
0001
0011
,
0100
1100
1000
1010
,
0010
0010
0010
0000
0100
0100
0100
0000
,
0010
1000
0001
0100
,
0110
0000
1001
0000
0001
0010
0100
0000
,
0100
0100
0100
0000
1000
0000
0001
0000
,
0001
0010
0100
1000
,
1000
0010
0100
0001
,
0012
0010
0100
0013
,
0001
0001
0001
0000
1000
1000
1000
0000
,
0020
0000
0100
0000
1000
0000
0001
0030
,
1000
0010
0001
0010
,
2000
0010
0100
3001
,
0010
0010
0010
0000
0100
0100
0100
0000
,
0020
0000
0031
0000
0010
0100
0010
0000
,
0020
0001
1000
0031
,
0001
0000
0110
0000
0010
0100
0001
0000
,
0020
0001
0100
0031
,
0001
0000
0011
0000
0010
0100
1000
0000
,
2000
0010
0001
3100
,
0202
0000
0003
0000
0010
0010
0310
0000
,
0010
0000
1000
0000
0100
0100
0100
0000
,
2000
0000
0001
3001
,
0002
0000
1000
1003
,
0010
0100
0001
0000
0010
0000
0010
0000
,
0001
1000
0001
0000
0100
0000
0100
0000
,
0010
1000
0100
0000
1000
0000
1000
0000
,
0002
0000
1003
0000
0001
1000
0100
0000
,
0010
0001
0100
0000
0010
0000
0010
0000
,
1000
0001
0100
0000
0010
0000
0100
0000
,
0010
1000
0100
0000
1000
0000
1000
0000
,
0002
1000
0003
1000
0001
1000
0100
1000
,
2002
0000
0000
0000
,
3003
0000
0000
0000
;

//---------------dance-single - ----------------
#NOTEDATA:;
#CHARTNAME:;
#STEPSTYPE:dance-single;
#DESCRIPTION:;
#CHARTSTYLE:;
#DIFFICULTY:Easy;
#METER:5;
#RADARVALUES:0.210646,0.269515,0.097651,0.107416,0.000000,151.000000,141.000000,10.000000,11.000000,0.000000,0.000000,0.000000,0.000000,0.000000,0.210646,0.269515,0.097651,0.107416,0.000000,151.000000,141.000000,10.000000,11.000000,0.000000,0.000000,0.000000,0.000000,0.000000;
#CREDIT:;
#DISPLAYBPM:114.000000;
#NOTES:
0000
0000
0000
0000
,
0000
0000
0000
0000
,
0000
0000
0000
0000
,
0000
0000
0000
0000
,
0000
0000
0000
0000
,
1000
0001
1000
0000
,
0010
0100
0001
0000
,
0010
0100
1000
0000
,
1000
0010
0100
0001
,
0010
0010
0010
0000
,
0100
0100
0100
0010
,
0002
0000
1003
0000
,
2000
0000
3010
0000
,
0010
0010
0110
0000
,
0010
0010
1010
0000
,
1000
1000
1100
0000
,
0001
0001
0101
0000
,
0001
0001
0011
0000
,
0100
0100
0110
0000
,
1000
0100
0010
0001
,
0100
0010
0020
0030
,
0010
1000
0100
0100
,
1000
0001
1000
0001
,
0100
0010
0100
0001
,
0010
0100
1000
0001
,
0100
0100
0010
0010
,
1000
1000
0010
0100
,
0001
0001
0010
0100
,
1000
1000
0001
0011
,
0101
0110
0010
1000
,
0100
0100
1000
0001
,
0100
0100
0010
0010
,
1000
0100
1000
0001
,
0010
0010
0001
0001
,
0100
0100
0010
0010
,
1000
0100
0001
0100
,
1000
0010
0001
0010
,
1000
1000
0002
0003
,
1000
1000
0002
0003
,
0100
0100
0020
0030
,
1000
0100
0010
0001
,
0010
0010
0200
0300
,
0010
0001
0020
0030
,
0001
1000
0020
0130
,
0001
0010
0100
1000
,
2002
0000
0000
0000
,
3003
0000
0000
0000
;

//---------------dance-single - ----------------
#NOTEDATA:;
#CHARTNAME:;
#STEPSTYPE:dance-single;
#DESCRIPTION:;
#CHARTSTYLE:;
#DIFFICULTY:Beginner;
#METER:2;
#RADARVALUES:0.099046,0.175771,0.078120,0.019530,0.000000,71.000000,63.000000,8.000000,2.000000,0.000000,0.000000,0.000000,0.000000,0.000000,0.099046,0.175771,0.078120,0.019530,0.000000,71.000000,63.000000,8.000000,2.000000,0.000000,0.000000,0.000000,0.000000,0.000000;
#CREDIT:;
#DISPLAYBPM:114.000000;
#NOTES:
0000
0000
0000
0000
,
0000
0000
0000
0000
,
0000
0000
0000
0000
,
0000
0000
0000
0000
,
0000
0000
0000
0000
,
1000
0000
0000
0000
,
0001
0000
0000
0000
,
1000
0000
0000
0000
,
0001
0000
0000
0000
,
0100
0000
0000
0000
,
0001
0000
0000
0000
,
0010
0000
0000
0000
,
0001
0000
0000
0000
,
1000
1000
1000
0000
,
0001
0000
0000
0000
,
0010
0010
0010
0000
,
0100
0000
0000
0000
,
0010
0000
0001
0000
,
1000
0000
0001
0000
,
0200
0000
0300
0000
,
0002
0000
0003
0000
,
1001
0000
0000
0000
,
0100
0100
0100
0000
,
0010
0000
0000
0000
,
0001
0001
0001
0000
,
1000
0000
0000
0000
,
0100
0100
0100
0000
,
0010
0010
0010
0000
,
0001
0001
0001
0000
,
0110
0000
0000
0000
,
1000
1000
1000
0000
,
1010
0000
0000
0000
,
0100
0100
0100
0000
,
1100
0000
0000
0000
,
0010
0010
0010
0000
,
0011
0000
0000
0000
,
0110
0000
0000
0000
,
1001
0000
0000
0000
,
0100
0000
0000
0000
,
0001
0000
0000
0000
,
0010
0000
0000
0000
,
0100
0000
0000
0000
,
1000
0000
0000
0000
,
0010
0000
0000
0000
,
0100
0000
0000
0000
,
1001
0000
0000
0000
;

//---------------dance-single - Choreography----------------
#NOTEDATA:;
#CHARTNAME:;
#STEPSTYPE:dance-single;
#DESCRIPTION:Choreography;
#CHARTSTYLE:;
#DIFFICULTY:Edit;
#METER:6;
#RADARVALUES:0.094861,0.157217,0.019530,0.263656,0.000000,68.000000,66.000000,2.000000,27.000000,90.000000,0.000000,0.000000,0.000000,0.000000,0.094861,0.157217,0.019530,0.263656,0.000000,68.000000,66.000000,2.000000,27.000000,90.000000,0.000000,0.000000,0.000000,0.000000;
#CREDIT:;
#DISPLAYBPM:114.000000;
#NOTES:
// measure 0
0000
0000
0000
0000
,  // measure 1
0000
0000
0000
0000
0000
0000
0000
0100
,  // measure 2
1000
0000
0000
0000
,  // measure 3
1000
0000
0000
0000
0000
0000
0000
0001
,  // measure 4
0000
0000
0000
0000
,  // measure 5
0020
0000
0000
0030
,  // measure 6
0200
0000
0000
0300
,  // measure 7
0020
0000
0000
0030
,  // measure 8
0200
0000
0000
0300
,  // measure 9
0001
0000
1000
0000
,  // measure 10
0001
0000
1000
0000
,  // measure 11
0001
0000
1000
0000
,  // measure 12
0001
0000
1000
0000
,  // measure 13
0020
0000
0000
0030
,  // measure 14
0200
0000
0000
0300
,  // measure 15
0020
0000
0000
0030
,  // measure 16
0200
0000
0000
0300
,  // measure 17
0001
0000
1000
0000
,  // measure 18
0001
0000
1000
0000
,  // measure 19
0001
0000
MM00
MM00
,  // measure 20
MMMM
MMMM
MMMM
MMMM
,  // measure 21
2002
0000
0000
3003
,  // measure 22
0001
1000
00MM
MMMM
,  // measure 23
2000
0000
0000
3000
,  // measure 24
0001
1000
00MM
MMMM
,  // measure 25
2000
0000
0000
3000
,  // measure 26
0001
1000
00MM
MMMM
,  // measure 27
2000
0000
0000
3000
,  // measure 28
MMMM
MMMM
MMMM
MMMM
,  // measure 29
2002
0000
0000
3003
,  // measure 30
0001
1000
00MM
MMMM
,  // measure 31
2000
0000
0000
3000
,  // measure 32
0001
1000
00MM
MMMM
,  // measure 33
2000
0000
0000
3000
,  // measure 34
0001
1000
00MM
MMMM
,  // measure 35
2000
0000
0000
3000
,  // measure 36
MMMM
0000
MMMM
0000
MMMM
0000
0000
2000
,  // measure 37
0000
0001
0000
0001
0000
000M
3000
0002
,  // measure 38
0000
1000
0000
1000
0000
M000
0003
2000
,  // measure 39
0000
0001
0000
0001
0000
000M
3000
0000
,  // measure 40
0002
2000
0000
0003
,  // measure 41
0000
0001
0000
0001
0000
000M
3000
0002
,  // measure 42
0000
1000
0000
1000
0000
M000
0003
2000
,  // measure 43
0000
0001
0000
0001
0000
000M
3000
0000
,  // measure 44
0002
2000
0000
0000
,  // measure 45
0000
0000
0000
0000
,  // measure 46
3003
0000
0000
0000
;
