#TITLE:Rise Up;
#SUBTITLE:;
#ARTIST:Dubscribe;
#TITLETRANSLIT:;
#SUBTITLETRANSLIT:;
#ARTISTTRANSLIT:;
#GENRE:;
#CREDIT:;
#BANNER:;
#BACKGROUND:;
#LYRICSPATH:;
#CDTITLE:;
#MUSIC:Rise Up.ogg;
#OFFSET:-0.614000;
#SAMPLESTART:38.969475;
#SAMPLELENGTH:12.000000;
#SELECTABLE:YES;
#BPMS:0.000000=150.016998
;
#STOPS:
;
#BGCHANGES:;
#KEYSOUNDS:;
#ATTACKS:;

//---------------dance-single - ----------------
#NOTES:
     dance-single:
     :
     Easy:
     6:
     0.241214,0.305917,0.198647,0.268174,0.000000,170.000000,150.000000,20.000000,27.000000,0.000000,0.000000,0.241214,0.305917,0.198647,0.268174,0.000000,170.000000,150.000000,20.000000,27.000000,0.000000,0.000000:
0000
0000
0000
0000
,
0000
0000
0000
0000
,
0000
0000
0000
0000
,
0000
0000
0000
0000
,
2000
0000
0002
3003
,
0200
0000
0020
0330
,
2002
0000
0000
3003
,
0110
0010
0020
0030
,
0000
1000
1000
1000
,
0000
0010
0010
0010
,
0000
0100
0100
0100
,
0000
0001
0001
0001
,
0000
0100
1000
0100
,
0000
0001
0010
0001
,
0000
0001
1000
0001
,
0000
0010
0100
0010
,
2002
0000
0000
0000
,
0000
0000
0000
0000
,
0000
0000
0000
0000
,
3003
0000
0000
0000
,
0100
0010
0100
0010
,
1000
0001
1000
0001
,
1000
0100
0010
0001
,
2000
0000
0001
3001
,
1001
0000
1000
0100
,
0001
0100
1000
0100
,
1001
0000
0010
0100
,
1000
0100
0010
0011
,
1001
0000
0010
1000
,
0001
0100
0010
0100
,
0110
1001
1000
0001
,
2000
3002
2003
3000
,
1100
0000
0100
0010
,
1000
0100
0010
0001
,
0110
0000
1000
0001
,
0100
0010
1000
0001
,
0110
0000
0001
1000
,
0100
0010
0001
1000
,
0200
0300
0010
0100
,
2000
0000
0002
3003
,
0110
0000
1000
0100
,
0020
0030
0001
1000
,
1001
0000
0200
0000
,
0302
0000
0103
0100
,
0110
0000
1000
0001
,
0200
0300
1000
0001
,
0110
0000
2000
0000
,
3002
0000
1003
0001
,
1001
0000
0001
0010
,
0200
0300
1000
0001
,
0011
0000
0200
0000
,
2300
0000
3001
0001
,
1001
0100
0010
0001
,
1000
0001
0010
0100
,
1000
0001
0100
0010
,
2000
0000
0002
3003
,
0110
0000
0000
0000
;

//---------------dance-single - ----------------
#NOTES:
     dance-single:
     :
     Medium:
     9:
     0.395876,0.472780,0.099324,0.238377,0.029797,279.000000,269.000000,10.000000,24.000000,0.000000,0.000000,0.395876,0.472780,0.099324,0.238377,0.029797,279.000000,269.000000,10.000000,24.000000,0.000000,0.000000:
0000
0000
0000
0000
,
0000
0000
0000
0000
,
0000
0000
0000
0000
,
0000
0000
0000
0000
,
0002
0000
2000
3003
,
0020
0000
0200
0330
,
2002
0000
0000
3003
,
1000
0001
1000
0000
0200
0000
0300
0000
,
0000
0100
1000
0100
0000
0010
0001
0010
,
0000
0001
0010
0001
0000
1000
0100
1000
,
0000
1000
0001
1000
0000
0001
1000
0001
,
0000
0010
0100
0010
0000
0100
0010
0100
,
0000
1000
0100
0010
0000
0001
0010
0100
,
0000
1000
0001
0100
0000
0001
1000
0100
,
0000
0010
1000
0100
0000
0010
0001
0100
,
0000
0100
0001
0010
0000
0001
1000
0001
,
2000
0000
0000
0000
,
0000
0000
0000
0000
,
0000
0000
0000
0000
,
3000
0000
0000
0000
,
0100
0010
0100
0010
,
1000
0001
1000
0001
,
1000
0100
0010
0001
1000
0100
0010
0001
,
2000
0000
0000
0000
0001
0001
3001
0000
,
2001
0000
3100
0000
1000
0100
0010
0001
,
1000
0100
0010
0001
1000
0100
0010
0001
,
2000
0000
3001
0000
1000
0001
0100
0010
,
1000
0001
0100
0010
1000
0000
0101
0000
,
1001
0000
0010
0000
0010
0100
1000
0001
,
0010
0100
1000
0001
0010
0100
1000
0001
,
0020
0000
0130
0000
0100
0010
1000
0001
,
2000
0000
0000
0000
3002
0000
0000
0000
0103
0000
0000
0100
0000
0000
0100
0000
,
0101
0000
0001
0000
0100
0010
0100
0001
,
0100
0010
0100
0001
0100
0010
0100
0001
,
0200
0000
0310
0000
0010
0100
0010
1000
,
0010
0100
0010
1000
0200
0000
0320
0000
,
0031
0000
1000
0000
1000
0100
1000
0010
,
1000
0100
1000
0010
1000
0100
1000
0010
,
1000
0000
1001
0000
0001
0010
0001
0100
,
0001
0000
0000
0001
0000
0000
0001
0000
1000
0000
0000
1000
0000
0000
1000
0000
,
1001
0000
1000
0000
0001
0100
0010
1000
,
0100
0000
1000
0010
0100
0001
1000
0100
,
0010
0100
0002
0000
,
2003
0000
3200
0310
,
1001
0000
0100
0000
0001
0010
0100
1000
,
0100
0000
1000
0100
0010
0001
0010
0000
,
0100
0010
2000
0000
,
3002
0000
0000
0000
0000
0000
0000
0000
0103
0000
0000
0100
0000
0000
0100
0000
,
0110
0000
0100
0000
0010
0001
0100
0010
,
1000
0000
0100
0010
0001
1000
0100
0010
,
0100
0001
0200
0000
,
0320
0000
1030
0100
,
1000
0100
1000
0100
0010
0100
0010
0100
,
0010
0001
0010
0001
0010
0100
0010
0100
,
1000
0001
1000
0001
1000
0001
1000
0100
,
0010
0000
0000
0010
0000
0000
0010
0000
0100
0000
0000
0100
0000
0000
0100
0000
,
0110
0000
0000
0000
;

//---------------dance-single - ----------------
#NOTES:
     dance-single:
     :
     Beginner:
     4:
     0.147567,0.222485,0.069527,0.000000,0.000000,104.000000,97.000000,7.000000,0.000000,0.000000,0.000000,0.147567,0.222485,0.069527,0.000000,0.000000,104.000000,97.000000,7.000000,0.000000,0.000000,0.000000:
0000
0000
0000
0000
,
0000
0000
0000
0000
,
0000
0000
0000
0000
,
0000
0000
0000
0000
,
0001
0000
1000
0000
,
0001
0000
1000
0000
,
1001
0000
0000
0000
,
0110
0000
0100
0000
,
0001
0000
0000
0000
,
0100
0000
0000
0000
,
0010
0000
0000
0000
,
1000
0000
0000
0000
,
0010
0000
0000
0000
,
1000
0000
0000
0000
,
0001
0000
0000
0000
,
0100
0000
0000
0000
,
1001
0000
0000
0000
,
0000
0000
0000
0000
,
0000
0000
0000
0000
,
0000
0000
0000
0000
,
0010
0000
0010
0000
,
0100
0000
0100
0000
,
0001
0000
0001
0000
,
0001
0000
1000
1000
,
1000
0000
0001
0000
,
1000
0000
0001
0000
,
1000
0000
0100
0000
,
0010
0000
0100
0000
,
0010
0000
0100
0000
,
1000
0000
0001
0000
,
1000
0000
0001
0000
,
0001
0001
0001
0000
,
1001
0000
0010
0000
,
0100
0000
0010
0000
,
0100
0000
0010
0000
,
0100
0000
0010
0000
,
1000
0000
0001
0000
,
1000
0000
0001
0000
,
1000
0000
0001
0000
,
0010
0010
0010
0000
,
0110
0000
0001
0000
,
0100
0000
0010
0000
,
1000
0000
0010
0000
,
1000
0000
0010
0000
,
0110
0000
0001
0000
,
0010
0000
0001
0000
,
0010
0000
0001
0000
,
1000
0000
1000
1000
,
1000
0000
1000
0000
,
0100
0000
1000
0000
,
0100
0000
0010
0000
,
0001
0000
0010
0000
,
0010
0010
0010
0000
,
1000
1000
1000
0000
,
0001
0001
0001
0000
,
0100
0100
0100
0000
,
0110
0000
0000
0000
;

//---------------dance-single - ----------------
#NOTES:
     dance-single:
     :
     Hard:
     14:
     0.543442,0.695265,0.228444,0.198647,0.392328,383.000000,360.000000,23.000000,20.000000,0.000000,0.000000,0.543442,0.695265,0.228444,0.198647,0.392328,383.000000,360.000000,23.000000,20.000000,0.000000,0.000000:
// measure 0
0000
0000
0000
0000
,  // measure 1
0000
0000
0000
0000
,  // measure 2
0000
0000
0000
0000
,  // measure 3
0000
0000
0000
0000
,  // measure 4
2000
0000
3200
0000
,  // measure 5
0320
0000
0032
0000
,  // measure 6
1003
0000
0000
0000
1000
0100
1000
0000
0010
0000
0100
0000
0001
0000
0100
0000
,  // measure 7
0001
0001
0001
0001
0002
0000
0000
0000
,  // measure 8
0003
1000
0100
1000
0100
1000
0100
1000
,  // measure 9
0000
0001
0010
0001
0010
0001
0010
0001
,  // measure 10
0000
1000
0001
1000
0001
1000
0001
1000
,  // measure 11
0000
0010
0100
0010
0100
0010
0100
0010
,  // measure 12
0000
1000
0100
1000
0010
0100
0010
0100
,  // measure 13
0000
1000
0001
0100
0001
0010
0001
0100
,  // measure 14
0000
0010
1000
0100
1000
0010
1000
0100
,  // measure 15
0000
1000
0010
0100
0010
0100
0010
0100
,  // measure 16
0020
0000
0000
0000
,  // measure 17
0000
0000
0000
0000
,  // measure 18
0000
0000
0000
0000
,  // measure 19
0030
0000
0000
0000
,  // measure 20
1100
1100
1100
1100
,  // measure 21
0011
0011
0011
0011
,  // measure 22
1000
0000
0100
0000
1000
0000
0100
0000
1000
0100
1000
0100
1000
0100
1000
0100
,  // measure 23
1000
0000
0100
0000
0010
0010
0010
0000
,  // measure 24
1001
0000
0000
0000
0100
0000
0000
0000
1000
0100
1000
0000
0100
0010
0100
0000
,  // measure 25
1000
0100
1000
0000
0100
0010
0100
0000
1000
0100
1000
0000
0100
0010
0100
0000
,  // measure 26
1000
0000
0000
0000
0001
0000
0000
0000
0001
0010
0001
0000
0010
0100
0010
0000
,  // measure 27
0001
0010
0001
0000
0010
0100
0010
0000
0001
0010
0001
0000
0011
0000
0000
0000
,  // measure 28
1100
0000
0000
0000
0100
0000
0000
0000
0100
1000
0100
0000
1000
0010
1000
0000
,  // measure 29
0100
1000
0100
0000
1000
0010
1000
0000
0100
1000
0100
0000
1000
0010
1000
0000
,  // measure 30
0020
0000
0000
0000
0130
0000
0000
0000
0010
0100
0010
0000
1000
0001
1000
0000
,  // measure 31
0020
0000
0000
0000
0230
0000
0000
0000
0310
0000
0000
0010
0000
0000
0010
0000
,  // measure 32
0101
0000
0000
0000
0001
0000
0000
0000
0001
0010
0100
0010
0001
0000
0100
0000
,  // measure 33
0010
1000
0100
1000
0010
0000
0010
0000
0100
0010
1000
0010
0100
0000
0100
0000
,  // measure 34
0200
0000
0000
0000
0310
0000
0000
0000
0010
1000
0100
1000
0010
0000
1000
0000
,  // measure 35
0010
0100
0010
0100
0010
0000
0001
0000
0200
0000
0000
0000
0320
0000
0000
0000
,  // measure 36
1030
0000
0000
0000
0001
0000
0000
0000
1000
0100
1000
0100
1000
0000
0100
0000
,  // measure 37
0010
0001
0010
0001
0010
0000
0100
0000
0010
0100
0010
0100
0010
0000
1000
0000
,  // measure 38
0001
0000
0000
0000
1001
0000
0000
0000
0001
0010
0100
0010
0001
0000
0010
0000
,  // measure 39
0001
0000
0000
0001
0000
0000
0001
0000
1000
0000
0000
1000
0000
0000
1000
0000
,  // measure 40
1001
0000
0000
0000
1000
0000
0000
0000
1000
0001
1000
0100
1000
0100
0010
0001
,  // measure 41
2000
0000
0000
0000
3001
0000
0010
0100
0010
0100
0010
0100
0010
0100
0010
0000
,  // measure 42
1000
0100
0012
0003
,  // measure 43
2100
0000
3200
0310
,  // measure 44
1001
0000
0000
0000
0010
0000
0000
0000
0100
0010
0100
0001
0100
0010
0100
0001
,  // measure 45
0100
0000
0000
0000
0010
0000
1000
0001
1000
0100
1000
0001
1000
0100
1000
0000
,  // measure 46
0100
1000
2001
3000
,  // measure 47
0102
0000
0000
0000
0000
0000
0000
0000
0103
0000
0000
0100
0000
0000
0100
0000
,  // measure 48
0110
0000
0000
0000
0100
0000
0000
0000
0010
0001
0100
0010
1000
0100
1000
0100
,  // measure 49
1000
0000
0000
0000
0100
0000
0010
0100
0001
1000
0100
0010
0100
0000
0010
0000
,  // measure 50
0100
1000
1200
0300
,  // measure 51
0120
0000
1030
0100
,  // measure 52
0100
1000
0100
1000
0001
1000
0001
1000
,  // measure 53
0001
0010
0001
0010
0001
1000
0001
1000
,  // measure 54
0100
0010
0100
0010
0100
0010
0100
0010
0100
0001
0100
0001
0100
0001
0100
0001
,  // measure 55
0100
0000
0000
0100
0000
0000
0100
0000
0010
0000
0000
0010
0000
0000
0010
0000
,  // measure 56
1001
0000
0000
0000
;
