#VERSION:0.83;
#TITLE:Rings of Rainbow;
#SUBTITLE:;
#ARTIST:Hommarju;
#TITLETRANSLIT:;
#SUBTITLETRANSLIT:;
#ARTISTTRANSLIT:;
#GENRE:HAPPY HARDCORE;
#ORIGIN:;
#CREDIT:;
#BANNER:ringsofrainbow-bn.png;
#BACKGROUND:ringsofrainbow-bg.png;
#PREVIEWVID:;
#JACKET:ringsofrainbow-jacket.png;
#CDIMAGE:;
#DISCIMAGE:;
#LYRICSPATH:;
#CDTITLE:cdtitle.png;
#MUSIC:ringsofrainbow.ogg;
#OFFSET:-1.167567;
#SAMPLESTART:21.271744;
#SAMPLELENGTH:13.396000;
#SELECTABLE:YES;
#BPMS:0.000=215.001;
#STOPS:28.000=0.837,
229.000=0.837,
261.500=0.837;
#DELAYS:;
#WARPS:;
#TIMESIGNATURES:0.000=4=4;
#TICKCOUNTS:0.000=4;
#COMBOS:0.000=1;
#SPEEDS:0.000=0.500=0.000=0,
28.000=1.000=0.500=0,
61.000=2.000=3.000=0,
64.000=0.500=1.000=0,
65.000=1.000=0.750=0,
65.750=0.500=0.250=0,
66.000=1.000=0.750=0,
66.750=0.500=0.250=0,
67.000=1.000=0.750=0,
149.000=2.000=3.000=0,
152.000=0.500=1.000=0,
153.000=1.000=0.750=0,
153.750=0.500=0.250=0,
154.000=1.000=0.750=0,
154.750=0.500=0.250=0,
155.000=1.000=0.750=0,
221.000=0.500=8.000=0,
261.500=1.000=1.000=0,
295.000=2.000=3.000=0,
298.000=0.500=1.000=0,
299.000=1.000=0.750=0,
299.750=0.500=0.250=0,
300.000=1.000=0.750=0,
300.750=0.500=0.250=0,
301.000=1.000=0.750=0,
383.000=2.000=3.000=0,
386.000=0.500=1.000=0,
387.000=1.000=0.750=0,
387.750=0.500=0.250=0,
388.000=1.000=0.750=0,
388.750=0.500=0.250=0,
389.000=1.000=0.750=0,
391.000=2.000=0.000=0,
392.000=0.250=8.000=0;
#SCROLLS:0.000=1.000;
#FAKES:;
#LABELS:0.000=Song Start;
#BGCHANGES:;
#KEYSOUNDS:;
#ATTACKS:
;

//---------------dance-single - ----------------
#NOTEDATA:;
#CHARTNAME:;
#STEPSTYPE:dance-single;
#DESCRIPTION:;
#CHARTSTYLE:;
#DIFFICULTY:Hard;
#METER:12;
#RADARVALUES:0.686948,0.769254,0.375142,0.409246,0.000000,564.000000,520.000000,44.000000,48.000000,0.000000,0.000000,0.000000,0.000000,0.000000,0.686948,0.769254,0.375142,0.409246,0.000000,564.000000,520.000000,44.000000,48.000000,0.000000,0.000000,0.000000,0.000000,0.000000;
#CREDIT:TonyAkita;
#NOTES:
// measure 0
0000
0000
0000
0000
,  // measure 1
0000
0000
0000
0000
,  // measure 2
0000
0000
0000
0000
,  // measure 3
0000
0000
0000
0000
,  // measure 4
2000
0001
3010
1001
,  // measure 5
0002
1000
0013
1001
,  // measure 6
1000
0001
1000
1001
,  // measure 7
0220
0330
1000
0100
1000
0100
0010
0001
,  // measure 8
0010
0001
0010
0100
1000
0100
0010
0000
,  // measure 9
0001
0100
0010
1000
0001
1000
0010
0100
,  // measure 10
0001
2000
3200
0320
,  // measure 11
0032
0000
0013
0100
0010
0001
0010
0100
,  // measure 12
1000
0000
0010
0100
0010
1000
0010
0100
,  // measure 13
0001
0000
0010
0100
0010
0100
0010
0100
,  // measure 14
0000
0110
0000
1000
0001
0100
0010
0000
,  // measure 15
0110
2002
0000
0000
,  // measure 16
3003
1000
1000
1000
,  // measure 17
2000
0000
3010
0100
1000
0100
0001
0000
,  // measure 18
0010
0100
0000
1000
0000
0001
0100
0000
,  // measure 19
0010
1000
0010
0100
0010
1000
0010
0100
,  // measure 20
0001
1000
0100
0000
0020
0000
0032
0000
,  // measure 21
0203
0000
1300
0100
0001
0100
0010
1000
,  // measure 22
0010
0000
1000
0100
0001
0100
0010
0001
,  // measure 23
0010
0000
0001
0000
1000
0001
0000
0001
,  // measure 24
1000
0000
0000
0100
0010
0100
0010
0000
,  // measure 25
1002
0000
0013
0100
0001
0100
1000
0000
,  // measure 26
0010
0100
0000
0001
0000
1000
0100
0000
,  // measure 27
0010
0001
0010
0100
0010
0001
0010
0100
,  // measure 28
1000
0001
0100
0000
0020
0000
2030
0000
,  // measure 29
3200
0000
0301
0100
1000
0100
0001
0100
,  // measure 30
0010
0000
0001
0100
1000
0100
0001
0100
,  // measure 31
0010
0000
1001
0000
1000
0001
0000
0001
,  // measure 32
1000
0000
0010
1000
0010
1000
0010
0000
,  // measure 33
0110
0000
0100
0001
0100
0001
0100
0000
,  // measure 34
0110
0000
1000
0001
1000
0001
1000
0000
,  // measure 35
1001
0000
0000
0001
0100
0001
0000
1000
,  // measure 36
0100
1000
0100
0010
0100
0010
0001
1000
,  // measure 37
0001
1000
2002
0000
0000
0000
0000
0000
,  // measure 38
3003
1000
1000
1000
,  // measure 39
2000
3010
0011
1010
,  // measure 40
0010
0100
0001
0100
1000
0100
0001
1000
,  // measure 41
0100
0010
0001
0001
1000
1000
0010
0010
,  // measure 42
0100
0100
0001
0100
1000
0100
0001
0100
,  // measure 43
0010
1000
0011
0000
1010
0000
0011
0000
,  // measure 44
0010
0100
1000
0100
0001
0100
1000
0001
,  // measure 45
0100
0010
1000
1000
0001
0001
0010
0010
,  // measure 46
0100
0100
1000
0100
0001
0100
1000
0100
,  // measure 47
0110
0000
0001
0010
0000
0011
0000
1001
,  // measure 48
0000
0001
1000
0010
0000
1010
0000
0110
,  // measure 49
0000
0100
0001
0100
0000
0001
1000
0001
,  // measure 50
0000
1000
0100
0010
0100
0001
0100
0010
,  // measure 51
0100
1000
0001
0100
0000
0101
0000
1001
,  // measure 52
0000
0001
1000
0100
0000
1100
0000
0110
,  // measure 53
0000
0010
0001
0010
0000
0001
1000
0001
,  // measure 54
0000
1000
0010
0100
0010
0001
0010
0100
,  // measure 55
0010
2002
0000
0000
,  // measure 56
0000
0000
0000
0000
,  // measure 57
0000
3003
1000
0001
,  // measure 58
1000
1001
2000
0010
,  // measure 59
3020
0100
0230
0001
,  // measure 60
0301
0000
1000
0100
0020
0000
0001
0000
,  // measure 61
0032
1000
2003
0010
,  // measure 62
3010
0100
0001
1000
,  // measure 63
0001
0000
0100
0020
0000
0000
1000
0000
,  // measure 64
0001
1030
0001
1000
,  // measure 65
0001
0000
0010
0200
0000
0300
1100
0000
,  // measure 66
0101
0000
1100
0000
0100
0010
0001
0000
,  // measure 67
1010
0000
0011
0000
1000
0001
0010
0100
,  // measure 68
0010
0001
0010
0100
1000
0000
0002
0000
,  // measure 69
0203
0000
0320
0000
2030
0000
3010
1000
,  // measure 70
0010
0100
0010
1000
0001
0000
0010
0001
,  // measure 71
0010
0100
0010
0001
1000
0000
0010
0100
,  // measure 72
0010
0100
0010
0100
0000
0110
0000
0001
,  // measure 73
1000
0100
0010
0000
0110
0000
2002
0000
,  // measure 74
0000
0000
3003
1000
,  // measure 75
1000
0000
1000
0000
2000
0000
3001
1000
,  // measure 76
0001
0010
0100
0000
1000
0100
0000
0001
,  // measure 77
0000
0100
1000
0000
0100
0010
0001
0100
,  // measure 78
1000
0100
0010
1000
0001
0010
0100
0000
,  // measure 79
2000
0000
3002
0000
0203
0000
0310
1000
,  // measure 80
0010
0100
0010
1000
0001
0000
0010
0001
,  // measure 81
0010
0100
0010
0001
1000
0000
1001
0000
,  // measure 82
1000
0001
0000
0001
1000
0000
0000
0010
,  // measure 83
0100
0010
0100
0000
0120
0000
1030
0001
,  // measure 84
1000
0010
0100
0000
0001
0100
0000
1000
,  // measure 85
0000
0100
0001
0000
0100
0010
1000
0100
,  // measure 86
0001
0100
0010
0001
1000
0010
0100
0000
,  // measure 87
0002
0000
2003
0000
3200
0000
0310
0001
,  // measure 88
0100
0001
0010
0001
0100
0000
0010
1000
,  // measure 89
0100
1000
0010
1000
0100
0000
0010
0000
,  // measure 90
0001
1000
0000
1000
0001
0000
1000
0100
,  // measure 91
0010
0100
1000
0000
0110
0000
0001
0100
,  // measure 92
0010
0100
0001
0000
0110
0000
1000
0001
,  // measure 93
0100
0010
1000
0000
1010
0000
1000
0010
,  // measure 94
1000
0010
0100
0001
0100
0001
0100
0010
,  // measure 95
0100
0010
1000
0001
1000
0001
2002
0000
,  // measure 96
0000
0000
3003
1000
,  // measure 97
1000
1000
1001
0020
,  // measure 98
0000
0000
0000
0000
,  // measure 99
0000
0000
0000
0000
,  // measure 100
0000
0030
0000
0000
;

//---------------dance-single - ----------------
#NOTEDATA:;
#CHARTNAME:;
#STEPSTYPE:dance-single;
#DESCRIPTION:;
#CHARTSTYLE:;
#DIFFICULTY:Medium;
#METER:10;
#RADARVALUES:0.568803,0.769254,0.741758,0.358090,0.000000,467.000000,380.000000,87.000000,42.000000,0.000000,0.000000,0.000000,0.000000,0.000000,0.568803,0.769254,0.741758,0.358090,0.000000,467.000000,380.000000,87.000000,42.000000,0.000000,0.000000,0.000000,0.000000,0.000000;
#CREDIT:TonyAkita;
#NOTES:
0000
0000
0000
0000
,
0000
0000
0000
0000
,
0000
0000
0000
0000
,
0000
0000
0000
0000
,
0000
2000
0000
3001
,
0000
0020
0000
0130
,
0000
1000
0001
1000
,
2002
3003
1010
0000
1010
0000
0011
0000
,
0011
1000
0010
0001
,
0010
1000
0100
0000
0010
0000
0001
0000
,
1000
0002
0203
2300
,
3020
0000
0031
1000
0001
1000
0001
0000
,
1001
0000
1000
0010
1000
0010
1000
0000
,
1001
0000
0001
0100
0001
0100
0001
0000
,
1001
0000
0110
0000
1000
0001
0100
0000
,
0010
2002
0000
0000
,
3003
1000
1000
1000
,
2000
3010
1000
0010
,
0100
1000
0100
0001
,
1000
0100
0010
0000
0001
0000
1000
0000
,
0010
0100
0110
1001
,
0110
0002
1000
0103
,
0110
2000
0001
3100
,
0110
0000
0011
0000
0000
1001
0000
0000
,
1010
0000
0000
1000
0001
1000
0001
0000
,
1002
0013
0001
0010
,
0100
0001
0100
1000
,
0001
0100
0010
0000
1000
0000
0001
0000
,
0010
0100
0110
1001
,
0110
2000
0001
3010
,
0110
0002
1000
0013
,
0110
0000
1100
0000
0000
1001
0000
0000
,
0101
0000
0000
1000
0100
1000
0100
0000
,
0110
0000
0000
0001
0010
0001
0010
0000
,
0110
0000
0000
1000
0001
1000
0001
0000
,
1001
0000
0000
0001
0000
1000
0000
0001
,
0000
1000
0100
0000
0010
0000
0100
0000
,
0010
2002
0000
0000
,
3003
1000
1000
1000
,
2000
3010
0011
1010
,
0110
0000
0001
1000
0001
0000
1000
0001
,
1000
0000
0000
0011
0000
0101
0000
0011
,
0000
0010
0100
0000
1000
0000
0001
0000
,
0100
0101
1100
0101
,
0110
0000
1000
0001
1000
0000
0001
1000
,
0001
0000
0000
1010
0000
1100
0000
1010
,
0000
0010
0100
0000
0001
0000
1000
0001
,
1000
0000
0000
0100
0000
0010
0000
0100
,
0000
1000
0001
0100
0000
0010
0000
0100
,
0000
0001
1000
0000
0010
0000
0001
0000
,
0010
0000
1000
0001
1000
0001
0100
0000
,
0010
0000
0000
0100
0000
0001
0000
0100
,
0000
0001
1000
0100
0000
1000
0000
0100
,
0000
1000
0001
0000
0010
0000
1000
0000
,
0010
0000
0100
0010
0100
0010
0100
0000
,
0110
2002
0000
0000
,
0000
0000
0000
0000
,
0000
3003
1000
0001
,
1000
1001
2000
0010
,
0000
3020
0000
0100
,
0000
0130
0002
0010
,
0000
0023
0000
0100
,
0000
0130
1000
0002
,
0000
0103
0001
2000
,
0000
3100
0010
0002
,
0000
2003
3000
1100
,
1100
0101
0101
1000
,
0100
0000
0001
0000
0100
1000
0010
0000
,
0100
0001
1000
0002
,
0023
0000
2030
0000
3200
0000
0301
1000
,
0001
1000
0001
0000
1001
0000
1000
0010
,
1000
0010
1000
0000
0110
0000
0001
0100
,
0001
0100
0001
0000
1001
0000
0110
0000
,
1000
0001
0010
0000
0110
0000
2002
0000
,
0000
0000
3003
1000
,
1000
1000
2000
3001
,
1000
0100
0001
0100
,
1000
0000
0001
0000
0100
0010
1000
0000
,
0010
0100
0001
1000
,
0110
1001
0110
0002
,
0100
0013
0110
2000
,
0100
3010
0110
0101
,
0000
0011
0000
0000
0101
0000
0000
0100
,
0010
0100
0010
0000
0120
0000
1030
0000
,
0001
0100
1000
0100
,
0001
0000
1000
0000
0100
0010
0001
0000
,
0010
0100
1000
0001
,
0110
0000
1001
0000
0110
0000
1000
0010
,
1000
0010
1000
0000
0110
0000
0001
0010
,
0001
0010
0001
0000
0110
0000
1100
0000
,
0000
0110
0000
0000
1100
0000
0000
1000
,
0001
1000
0001
0000
1001
0000
0000
0001
,
0100
0001
0100
0000
0110
0000
0000
1000
,
0010
1000
0010
0000
0110
0000
0101
0000
,
0101
1100
1100
0110
,
0110
1001
1001
2002
,
0000
0000
3003
1000
,
1000
1000
1001
0020
,
0000
0000
0000
0000
,
0000
0000
0000
0000
,
0000
0030
0000
0000
;

//---------------dance-single - ----------------
#NOTEDATA:;
#CHARTNAME:;
#STEPSTYPE:dance-single;
#DESCRIPTION:;
#CHARTSTYLE:;
#DIFFICULTY:Easy;
#METER:7;
#RADARVALUES:0.408028,0.470100,0.323986,0.221675,0.000000,335.000000,297.000000,38.000000,26.000000,0.000000,0.000000,0.000000,0.000000,0.000000,0.408028,0.470100,0.323986,0.221675,0.000000,335.000000,297.000000,38.000000,26.000000,0.000000,0.000000,0.000000,0.000000,0.000000;
#CREDIT:TonyAkita;
#NOTES:
0000
0000
0000
0000
,
0000
0000
0000
0000
,
0000
0000
0000
0000
,
0000
0000
0000
0000
,
0000
2000
3000
0001
,
0000
0002
0003
1000
,
0000
0020
0030
0100
,
1001
1000
1000
0001
,
0001
0100
0010
1000
,
0010
0100
0001
0100
,
1000
0200
0000
0300
,
0000
0001
1000
0001
,
0010
0020
0000
0030
,
0001
1000
0010
0100
,
0001
0010
0100
1000
,
0001
2002
0000
0000
,
3003
1000
1000
1000
,
2000
3010
1000
0010
,
0100
0001
0010
0001
,
1000
0100
0001
0100
,
1000
1001
0000
0001
,
0001
0011
0000
0001
,
0001
0101
0000
0001
,
1000
0000
1001
0000
0000
0110
0000
0000
,
1001
0000
0001
0001
,
0002
0013
0001
0010
,
0100
1000
0010
1000
,
0001
0100
1000
0100
,
0001
1001
0000
1000
,
1000
1010
0000
1000
,
1000
1100
0000
1000
,
0001
0000
1001
0000
0000
0110
0000
0000
,
1001
0000
0001
0001
,
0011
0000
1000
1000
,
1010
0000
0010
0010
,
0110
0000
0100
0000
,
0010
1000
0001
1000
,
0001
2002
0000
0000
,
3003
1000
1000
1000
,
2000
3010
0100
0010
,
1000
0001
0001
1000
,
1000
0000
0100
0010
,
0100
1000
0001
1000
,
0001
0100
0010
0100
,
0001
1000
1000
0001
,
0001
0000
0010
0100
,
0010
0001
1000
0001
,
1001
1000
0100
0001
,
0100
1000
0010
0001
,
0010
1000
1000
0001
,
0001
0100
0010
0100
,
0110
0001
0100
1000
,
0100
0001
0010
1000
,
0010
0001
0001
1000
,
1000
0010
0100
0001
,
1000
2002
0000
0000
,
0000
0000
0000
0000
,
0000
3003
1000
0001
,
1000
1001
0000
1000
,
0000
1000
0000
0001
,
0000
0001
0000
1000
,
0000
0010
0000
0001
,
0000
0010
0000
2000
,
3000
0001
0000
0002
,
0003
1000
0000
0020
,
0030
0100
0000
0001
,
0001
1000
1000
0100
,
0010
0001
0010
0100
,
1000
0100
0001
0200
,
0000
0300
0000
1000
,
0001
1000
0010
0020
,
0000
0030
1000
0001
,
0010
0100
1000
0010
,
0100
0001
1000
2002
,
0000
0000
3003
1000
,
1000
1000
2000
3010
,
0001
0010
1000
0001
,
0010
0100
1000
0100
,
0010
0100
1000
0001
,
0000
1000
1000
1010
,
0000
1000
1000
1100
,
0000
0100
0100
0110
,
0000
1001
0000
0000
0110
0000
0000
0000
,
0001
0001
0002
0013
,
1000
0010
0001
1000
,
0010
0100
0001
0100
,
0010
0100
0001
1000
,
0000
0001
0001
0011
,
0000
0001
0001
0101
,
0000
0100
0100
0110
,
0000
1001
0000
0000
0110
0000
0000
0000
,
1000
1000
1010
0000
,
0001
0001
0011
0000
,
0010
0010
0110
1000
,
1000
0001
0001
0100
,
0100
0010
0010
2002
,
0000
0000
3003
1000
,
1000
1000
1001
0020
,
0000
0000
0000
0000
,
0000
0000
0000
0000
,
0000
0030
0000
0000
;

//---------------dance-single - ----------------
#NOTEDATA:;
#CHARTNAME:;
#STEPSTYPE:dance-single;
#DESCRIPTION:;
#CHARTSTYLE:;
#DIFFICULTY:Beginner;
#METER:5;
#RADARVALUES:0.271612,0.384627,0.127889,0.051156,0.000000,223.000000,208.000000,15.000000,6.000000,0.000000,0.000000,0.000000,0.000000,0.000000,0.271612,0.384627,0.127889,0.051156,0.000000,223.000000,208.000000,15.000000,6.000000,0.000000,0.000000,0.000000,0.000000,0.000000;
#CREDIT:TonyAkita;
#NOTES:
0000
0000
0000
0000
,
0000
0000
0000
0000
,
0000
0000
0000
0000
,
0000
0000
0000
0000
,
0000
1000
0000
1000
,
0000
0001
0000
0001
,
0000
0100
0000
0010
,
0000
1000
1000
1000
,
1000
1000
0000
0001
,
0000
0010
0010
0010
,
0010
0010
0000
0000
,
0000
1001
0000
0000
,
0000
0110
0000
0000
,
0000
1000
0000
0001
,
0000
0100
0100
0100
,
0000
1001
0000
0000
,
0000
1000
1000
1000
,
0000
0001
0000
0010
,
0000
0001
0000
0100
,
0000
0010
0000
1000
,
0000
0001
0000
1000
,
1000
1000
0000
0000
,
0001
0001
0000
0000
,
0100
0100
0000
0010
,
0000
0000
1000
1000
,
1000
1000
0000
0010
,
0000
1000
0000
0100
,
0000
0010
0000
0001
,
0000
1000
0000
0001
,
0001
0001
0000
0000
,
1000
1000
0000
0000
,
0010
0010
0000
0100
,
0000
0000
0001
0001
,
0001
0000
1000
1000
,
1000
0000
0001
0001
,
0001
0000
1000
0000
,
0001
0002
0000
0003
,
0000
1001
0000
0000
,
0000
1000
1000
1000
,
0000
0001
0000
1000
,
0000
0100
0100
0100
,
0100
0000
0010
0000
,
0100
0000
1000
1000
,
1000
1000
0000
0001
,
0000
0100
0100
0100
,
0100
0000
0010
0000
,
0100
0000
0001
0001
,
0001
0001
0000
0010
,
0000
0001
0000
0100
,
0000
0110
0000
1001
,
0000
1000
1000
1000
,
1000
1000
0000
0010
,
0000
1000
0000
0100
,
0000
0110
0000
1001
,
0000
0001
0001
0001
,
0000
2002
0000
0000
,
0000
0000
0000
0000
,
0000
3003
1000
1000
,
1000
1000
0000
0001
,
0000
0100
0000
1000
,
0000
0100
0000
0001
,
0000
0010
0000
1000
,
0000
0010
0000
0001
,
0000
0001
0000
1000
,
0000
1000
0000
0110
,
0000
1001
0000
0001
,
0001
0001
0001
0001
,
0000
1000
0000
0010
,
0010
0010
0010
0010
,
0000
0000
0000
1001
,
0000
0000
0000
0110
,
0000
0000
0000
1000
,
0000
0001
0000
0100
,
0100
0100
0000
1001
,
0000
0000
0000
1000
,
1000
1000
0000
0001
,
0000
0010
0000
1000
,
0000
0010
0000
0001
,
0000
1000
0000
0100
,
0000
0010
0010
0010
,
0000
0000
0100
0100
,
0000
0000
1000
1000
,
0000
0010
0000
0000
,
1000
1000
1000
1000
,
0000
0100
0000
0001
,
0000
0100
0000
1000
,
0000
0001
0000
0100
,
0000
0010
0010
0010
,
0000
0000
0100
0100
,
0000
0000
0001
0001
,
0000
1000
0000
0000
,
0100
0100
0100
0000
,
0010
0010
0010
0000
,
0100
0100
0100
0200
,
0000
0300
0000
0020
,
0000
0030
0000
1001
,
0000
0000
0000
1000
,
1000
1000
0000
0020
,
0000
0000
0000
0000
,
0000
0000
0000
0000
,
0000
0030
0000
0000
;
