#VERSION:0.83;
#TITLE:Right on Time;
#SUBTITLE:;
#ARTIST:HyeNRG;
#TITLETRANSLIT:;
#SUBTITLETRANSLIT:;
#ARTISTTRANSLIT:;
#GENRE:HAPPY HARDCORE;
#ORIGIN:;
#CREDIT:;
#BANNER:rightontime-bn.png;
#BACKGROUND:rightontime-bg.png;
#PREVIEWVID:;
#JACKET:rightontime-jacket.png;
#CDIMAGE:;
#DISCIMAGE:;
#LYRICSPATH:;
#CDTITLE:cdtitle.png;
#MUSIC:rightontime.ogg;
#OFFSET:-0.223243;
#SAMPLESTART:66.051003;
#SAMPLELENGTH:10.971000;
#SELECTABLE:YES;
#BPMS:0.000=175.002;
#STOPS:;
#DELAYS:;
#WARPS:;
#TIMESIGNATURES:0.000=4=4;
#TICKCOUNTS:0.000=4;
#COMBOS:0.000=1;
#SPEEDS:0.000=1.000=0.000=0;
#SCROLLS:0.000=1.000;
#FAKES:;
#LABELS:0.000=Song Start;
#BGCHANGES:;
#KEYSOUNDS:;
#ATTACKS:
;

//---------------dance-single - ----------------
#NOTEDATA:;
#CHARTNAME:;
#STEPSTYPE:dance-single;
#DESCRIPTION:;
#CHARTSTYLE:;
#DIFFICULTY:Hard;
#METER:13;
#RADARVALUES:0.656442,0.713591,0.339805,0.231685,0.359112,595.000000,551.000000,44.000000,30.000000,0.000000,0.000000,0.000000,0.000000,0.000000,0.656442,0.713591,0.339805,0.231685,0.359112,595.000000,551.000000,44.000000,30.000000,0.000000,0.000000,0.000000,0.000000,0.000000;
#CREDIT:TonyAkita;
#NOTES:
// measure 0
0000
0000
0000
0000
,  // measure 1
0000
0000
0000
0000
,  // measure 2
0000
0000
0000
0000
,  // measure 3
0000
0000
0000
0000
,  // measure 4
1000
0100
0010
0001
0100
0010
1000
0010
,  // measure 5
0100
0001
0100
1000
0100
0010
0100
0010
,  // measure 6
0110
0000
1010
0000
1000
0001
0000
0000
,  // measure 7
0010
0010
0011
0000
0010
0010
0110
0000
,  // measure 8
1000
0000
0100
0000
0010
0000
0001
0010
0001
0000
0010
0000
0100
0000
0010
0000
,  // measure 9
0001
0100
0001
0010
0011
0000
1010
0000
,  // measure 10
0001
0000
0100
0000
0010
0000
1000
0010
1000
0000
0010
0000
0100
0000
0010
0000
,  // measure 11
1000
0100
1000
0010
1010
0000
0011
0000
,  // measure 12
1000
0000
0001
0000
1000
0000
0100
0010
0100
0000
0010
0000
0001
0000
0010
0000
,  // measure 13
0100
1000
0100
0010
0110
0000
0011
0000
,  // measure 14
0001
0000
1000
0000
0001
0000
0100
0010
0100
0000
0010
0000
1000
0000
0010
0000
,  // measure 15
0200
0000
0301
0000
0100
0100
0110
0000
,  // measure 16
0010
0000
1000
0000
0010
0000
0000
0100
0001
0000
1000
0000
0100
0000
0010
0000
,  // measure 17
0001
0010
0100
0010
0001
0001
0011
0000
,  // measure 18
0010
0000
0001
0000
0010
0000
0000
0100
1000
0000
0001
0000
0100
0000
0010
0000
,  // measure 19
1000
0010
0100
0010
1000
1000
1010
0000
,  // measure 20
0001
0000
1000
0000
0001
0000
0000
0010
0100
0000
1000
0000
0100
0000
0010
0000
,  // measure 21
0001
0010
0100
0010
0001
0001
0011
0000
,  // measure 22
1000
0000
0001
0000
1000
0000
0000
0010
0100
0000
0001
0000
0100
0000
0010
0000
,  // measure 23
2000
0000
3100
0000
0010
0010
0011
0000
,  // measure 24
1002
0000
0000
0000
,  // measure 25
0200
0000
0000
0003
,  // measure 26
0020
0000
0000
0300
,  // measure 27
2000
0000
0000
0030
,  // measure 28
0002
0000
0000
3000
,  // measure 29
0020
0000
0000
0003
,  // measure 30
0200
0000
0000
0330
,  // measure 31
0110
0001
0011
0000
1001
1000
1010
0000
,  // measure 32
2000
0000
3020
0000
1000
1000
0130
0000
,  // measure 33
0002
0000
0023
0000
0001
0001
0130
0000
,  // measure 34
2000
0000
3002
0000
1000
1000
0103
0000
,  // measure 35
0002
0000
2003
0000
0001
0001
3010
0000
,  // measure 36
0200
0000
0302
0000
0100
0100
1003
0000
,  // measure 37
0200
0000
2300
0000
0100
0100
3001
0000
,  // measure 38
1001
0000
0101
0000
0100
0100
0010
0000
,  // measure 39
2010
0000
3001
0000
0010
0010
0011
0000
,  // measure 40
1001
0000
0000
0001
0000
0000
1000
0000
0000
1000
0000
0000
0100
0000
0010
0000
,  // measure 41
0001
0000
0000
0001
0000
0000
0001
0000
0010
0000
0010
0000
0110
0000
0000
0000
,  // measure 42
1001
1000
0100
0010
0100
1000
0001
0100
,  // measure 43
0010
0000
0000
0010
0000
0000
0010
0000
1000
0000
0000
1000
0000
0000
1000
0000
,  // measure 44
1001
0001
0100
0010
0100
0001
1000
0100
,  // measure 45
0010
0000
0000
0010
0000
0000
0010
0000
0001
0000
0000
0001
0000
0000
0001
0000
,  // measure 46
1001
1000
0100
0010
0001
1000
0010
0100
,  // measure 47
0002
0010
0013
0000
0200
1000
1300
0000
,  // measure 48
0100
0000
0000
0100
0000
0000
1000
0000
0000
0100
0000
0000
0001
0000
0100
0000
,  // measure 49
1000
0000
0010
1000
0000
0010
1000
0000
0010
0000
0100
0010
0000
0100
0010
0000
,  // measure 50
0100
0000
0000
0100
0000
0000
0001
0000
0000
0100
0000
0000
1000
0000
0100
0000
,  // measure 51
0001
0000
0010
0001
0000
0010
0001
0000
0010
0000
0100
0010
0000
0100
0010
0000
,  // measure 52
0100
0000
0000
0100
0000
0000
1000
0000
0000
0001
0000
0000
0100
0000
0010
0000
,  // measure 53
1000
0000
0010
0001
0000
0010
0001
0000
0010
0000
1000
0010
0000
1000
0010
0000
,  // measure 54
0200
0000
0000
0001
0000
0000
0302
0000
0000
1000
0000
0000
1003
0000
0100
0000
,  // measure 55
0010
0011
0001
1001
,  // measure 56
1000
0010
0100
0001
0100
1000
0100
0010
,  // measure 57
1000
0000
0000
1000
0000
0000
1000
0000
0001
0000
0000
0001
0000
0000
0001
0000
,  // measure 58
0010
0100
1000
0100
0001
0100
0010
0001
,  // measure 59
0100
0000
0000
0100
0000
0000
0100
0000
0010
0000
0000
0010
0000
0000
0010
0000
,  // measure 60
1000
0010
0100
0010
1000
0001
0010
0100
,  // measure 61
1000
0000
0000
1000
0000
0000
1000
0000
0001
0000
0000
0001
0000
0000
0001
0000
,  // measure 62
0100
0010
0100
0001
1000
0100
0010
0001
,  // measure 63
0010
0010
0110
0000
0100
0100
1100
0000
,  // measure 64
1000
0000
0000
1000
0000
0100
0010
0000
0001
0000
0000
0001
0000
0100
0010
0000
,  // measure 65
1000
0000
0000
1000
0000
0010
0100
0000
0001
1000
0001
0000
0010
0000
0001
0000
,  // measure 66
0010
0000
0000
0010
0000
0100
1000
0000
0010
0000
0000
0010
0000
0100
0001
0000
,  // measure 67
0010
0000
0000
0010
0000
0001
1000
0000
0010
0100
0010
0000
0100
0000
0001
0000
,  // measure 68
0100
0000
0000
1000
0000
0100
0001
0000
1000
0000
0000
0100
0000
0010
0001
0000
,  // measure 69
0010
0000
0000
1000
0000
0010
0001
0000
1000
0001
1000
0000
0010
0000
0100
0000
,  // measure 70
0001
0000
0100
0010
0000
0100
0001
0000
1000
0000
0100
0010
0000
0100
1000
0000
,  // measure 71
0100
0100
0110
0000
0001
0001
1001
0000
,  // measure 72
2000
0000
0000
0000
0010
0000
3000
0010
0100
0000
0001
0000
1000
0000
0000
0000
,  // measure 73
0002
0000
0000
0000
0010
0000
0003
0010
0100
0000
1000
0000
0001
0000
0000
0000
,  // measure 74
0200
0000
0000
0000
0010
0000
0300
0010
0100
0000
0001
0000
1000
0000
0000
0000
,  // measure 75
0200
0000
0000
0000
0010
0000
0300
0010
0100
0000
1000
0000
0001
0000
0000
0000
,  // measure 76
0101
0000
0000
0000
1100
0000
0000
0100
0010
0000
1000
0000
0001
0000
0000
0000
,  // measure 77
1100
0000
0000
0000
0101
0000
0000
0100
0010
0000
0001
0000
1000
0000
0000
0000
,  // measure 78
0110
0000
0000
0000
1010
0000
0000
0010
0100
0000
0001
0000
1000
0000
0000
0000
,  // measure 79
0100
0010
0100
0010
0001
1000
1001
0000
,  // measure 80
1000
0000
0100
0000
0001
0100
0000
0010
0001
0000
1000
0000
0010
0000
0000
0000
,  // measure 81
0100
0000
0001
0000
1000
0100
0000
0010
0001
0000
0100
0000
0010
0000
0000
0000
,  // measure 82
1000
0000
0100
0000
0001
0100
0000
0010
0001
0000
1000
0000
0010
0000
0100
0000
,  // measure 83
0001
0000
1000
0000
0001
0010
0000
0100
1000
0000
0010
0000
0100
0000
0000
0000
,  // measure 84
0001
0000
1000
0000
0100
0001
0000
0100
0010
0000
0001
0000
0100
0010
0000
1000
,  // measure 85
0001
0000
0100
0000
1000
0100
0000
0010
1000
0000
0001
0000
0010
0100
0000
1000
,  // measure 86
0001
0000
0100
0000
0010
1000
0000
0010
0100
0000
0001
0000
1000
0100
0000
0010
,  // measure 87
0001
0010
0100
1000
0010
0100
0110
0000
,  // measure 88
1001
0000
0000
0000
;

//---------------dance-single - ----------------
#NOTEDATA:;
#CHARTNAME:;
#STEPSTYPE:dance-single;
#DESCRIPTION:;
#CHARTSTYLE:;
#DIFFICULTY:Medium;
#METER:10;
#RADARVALUES:0.461164,0.509708,0.123565,0.139011,0.119704,418.000000,402.000000,16.000000,18.000000,0.000000,0.000000,0.000000,0.000000,0.000000,0.461164,0.509708,0.123565,0.139011,0.119704,418.000000,402.000000,16.000000,18.000000,0.000000,0.000000,0.000000,0.000000,0.000000;
#CREDIT:TonyAkita;
#NOTES:
0000
0000
0000
0000
,
0000
0000
0000
0000
,
0000
0000
0000
0000
,
0000
0000
0000
0000
,
1000
0010
0100
0001
,
0100
1000
0100
0010
,
2000
0000
0000
3001
,
0001
0010
0001
0000
0001
1000
0001
0000
,
0100
0000
1000
0000
0100
0001
0100
0000
,
0010
1000
0001
0010
,
0100
0000
0001
0000
0100
1000
0100
0000
,
0010
0001
1000
0010
,
0100
0000
0001
0000
1000
0100
1000
0000
,
0100
0001
0100
1000
,
0001
0100
0010
1000
,
2002
0000
3003
0000
0001
1000
0001
0000
,
0011
0000
1010
0000
0001
0010
0001
0000
,
0010
0100
1000
0000
0001
1000
0001
0000
,
1010
0000
0011
0000
1000
0010
1000
0000
,
0010
0100
0001
0000
1000
0001
1000
0000
,
1100
0000
0101
0000
1000
0100
1000
0000
,
0100
0010
0001
0000
1000
0001
1000
0000
,
0101
0000
1100
0000
0001
0100
0010
0000
,
2020
0000
3030
0000
1000
0001
1000
0000
,
0002
0000
0000
0000
,
0010
0000
0000
0000
,
0023
0000
0000
0000
,
0100
0000
0000
0000
,
0230
0000
0000
0000
,
1000
0000
0000
0000
,
2300
0000
0000
3000
,
0001
0001
0001
0000
1000
1000
1000
0000
,
0001
0100
0010
0000
0100
0001
0000
0000
,
1000
0100
0010
0000
0100
1000
0000
0000
,
0010
0100
0001
0000
0010
0100
0000
0000
,
0010
0100
1000
0000
0010
0100
0000
0000
,
0001
0100
1000
0000
0100
0001
0000
0000
,
1000
0100
0001
0000
0100
1000
0000
0000
,
0100
0010
0001
0000
0100
0010
0000
0000
,
2002
0000
3003
0000
1000
0001
1000
0000
,
0020
0000
1000
0000
,
0230
0000
0301
1001
,
1000
0000
0000
1000
0000
0000
1000
0000
0000
1000
0000
0000
0100
0000
0010
0000
,
0001
0000
0000
0001
0000
0000
0001
0000
0010
0000
0000
0010
0000
0000
0010
0000
,
0001
0000
0000
1000
0000
0000
0001
0000
0000
0010
0000
0000
0100
0000
1000
0000
,
0010
0000
0000
0010
0000
0000
0010
0000
0100
0000
0000
0100
0000
0000
0100
0000
,
0001
0000
0000
1000
0000
0000
0001
0000
0000
0100
0000
0000
0010
0000
1000
0000
,
0100
0100
0100
0000
0010
0010
0010
0000
,
0001
0000
1000
0000
0001
0100
0010
1000
,
0010
0010
0100
0100
,
0001
0000
1000
0000
0100
0010
0001
0010
,
0100
0100
1000
1000
,
0010
0000
0100
0000
0001
0100
1000
0100
,
0001
0001
1000
1000
,
0020
0000
0000
0000
0000
0000
0030
1000
,
0001
0000
1001
0000
,
1000
0000
0100
0000
0010
0001
0010
0000
,
0100
1000
0100
0000
1000
0001
0100
0000
,
0010
0000
1000
0000
0010
0100
0010
0000
,
0100
0001
1000
0000
0001
1000
0001
0000
,
0010
0000
0100
0000
1000
0100
1000
0000
,
0100
0010
0001
0000
0010
0100
0010
0000
,
0100
0000
1000
0000
0001
1000
0001
0000
,
2002
0000
3003
0000
1000
0100
0010
0000
,
0001
0000
0000
0001
0000
0000
0001
0000
0010
0000
0000
0010
0000
0000
0010
0000
,
0100
0000
0000
0100
0000
0000
0100
0000
1000
0000
0000
1000
0000
0000
1000
0000
,
0010
0000
0000
0010
0000
0000
0010
0000
0100
0000
0000
0100
0000
0000
0100
0000
,
0001
0000
0000
0001
0000
0000
0001
0000
1000
0000
0000
1000
0000
0000
1000
0000
,
0001
0000
0000
0001
0000
0000
0001
0000
0100
0000
0000
0100
0000
0000
0100
0000
,
0010
0000
0000
0010
0000
0000
0010
0000
1000
0000
0000
1000
0000
0000
1000
0000
,
0100
0000
0000
0100
0000
0000
0100
0000
0010
0000
0000
0010
0000
0000
0010
0000
,
0001
1000
0001
0000
1000
0001
1000
0000
,
0010
0000
1000
0000
0010
0100
0001
0000
,
0010
0000
0001
0000
0010
0100
1000
0000
,
0001
0000
0100
0000
0010
1000
0001
0000
,
1000
0000
0100
0000
0010
0001
1000
0000
,
0010
0000
0100
0000
1000
0100
0001
0000
,
0010
0000
0100
0000
0001
0100
1000
0000
,
0100
0000
0010
0000
0001
1000
0001
0000
,
2002
0000
0000
3003
,
1000
0000
0100
0000
0010
0000
0000
0100
1000
0000
0001
0000
1000
0000
0000
0000
,
0001
0000
0100
0000
0010
0000
0000
0100
0001
0000
1000
0000
0001
0000
0000
0000
,
0010
0000
0100
0000
1000
0000
0000
0100
0010
0000
0001
0000
1000
0000
0000
0000
,
0010
0000
0100
0000
0001
0000
0000
0100
0010
0000
1000
0000
0001
0000
0000
0000
,
1000
0000
0100
0000
0001
0000
0000
0100
1000
0000
0100
0000
0010
0000
0000
0000
,
0001
0000
0100
0000
1000
0000
0000
0100
0001
0000
0100
0000
0010
0000
0000
0000
,
1000
0000
0001
0000
1000
0000
0000
0100
0010
0000
0001
0000
0010
0000
0000
0000
,
0100
1000
0100
0000
0010
0100
0010
0000
,
0110
0000
0000
0000
;

//---------------dance-single - ----------------
#NOTEDATA:;
#CHARTNAME:;
#STEPSTYPE:dance-single;
#DESCRIPTION:;
#CHARTSTYLE:;
#DIFFICULTY:Easy;
#METER:7;
#RADARVALUES:0.374006,0.475727,0.293468,0.162180,0.000000,339.000000,301.000000,38.000000,21.000000,0.000000,0.000000,0.000000,0.000000,0.000000,0.374006,0.475727,0.293468,0.162180,0.000000,339.000000,301.000000,38.000000,21.000000,0.000000,0.000000,0.000000,0.000000,0.000000;
#CREDIT:TonyAkita;
#NOTES:
0000
0000
0000
0000
,
0000
0000
0000
0000
,
0000
0000
0000
0000
,
0000
0000
0000
0000
,
1000
0100
0010
0001
,
0100
1000
0100
0001
,
0200
0000
0310
0000
,
1010
0000
0011
0000
,
1100
1100
0100
0001
,
0100
0010
0001
1000
,
0101
0101
0100
1000
,
0100
0010
1000
0001
,
0011
0011
0010
0100
,
1000
0001
0100
0010
,
1010
1010
0010
0100
,
0110
0000
0000
0000
0001
1000
0001
0000
,
1000
0100
0010
0001
,
0100
0000
0001
0000
0010
0100
1000
0000
,
0001
0100
0010
1000
,
0100
0000
1000
0000
0010
0100
0001
0000
,
0100
0010
1000
0010
,
0001
0000
0010
0000
0100
0001
1000
0000
,
0100
0010
0001
1000
,
1001
0000
0000
0000
0001
1000
0001
0000
,
1002
0000
0000
0000
,
0013
0000
0000
0000
,
2001
0000
0000
0000
,
3010
0000
0000
0000
,
0102
0000
0000
0000
,
0013
0000
0000
0000
,
2100
0000
0000
0000
,
3010
0000
1001
0000
,
0001
0000
0010
0000
0001
1000
0000
0000
,
1000
0000
0010
0000
1000
0001
0000
0000
,
0100
0000
0010
0000
1000
0100
0000
0000
,
0100
0000
0010
0000
0001
0100
0000
0000
,
0010
0000
1000
0000
0001
0010
0000
0000
,
0010
0000
0001
0000
1000
0010
0000
0000
,
0110
0000
0001
0000
1000
0001
0000
0000
,
0110
0000
0000
0000
1000
0001
1000
0000
,
0020
0000
0000
0000
,
1030
0000
0001
0000
,
0010
0100
1000
0100
,
0010
0010
0001
0001
,
0100
0010
1000
0010
,
0100
0100
0001
0001
,
1000
0100
0010
0001
,
1001
0000
0000
0000
0001
1000
0001
0000
,
0100
0000
0010
0000
1000
0000
0001
0010
,
0100
1000
0100
0001
,
0100
0000
0010
0000
0001
0000
1000
0010
,
0100
0001
0100
1000
,
0100
0000
0001
0000
0010
0000
0100
1000
,
0001
0100
0010
1000
,
0100
0000
1000
0000
0010
0000
0100
0001
,
1000
0000
1001
0000
,
0001
1000
0100
0010
,
0011
0001
1001
0000
,
1000
0001
0100
0010
,
1010
1000
1001
0000
,
0001
0100
1000
0100
,
0101
0001
0011
0000
,
1000
0100
0001
0100
,
1000
0001
1000
0000
0010
0100
0001
0000
,
0002
0000
0023
0000
,
0230
0000
1300
0001
,
0200
0000
2300
0000
,
3200
0000
0310
1000
,
2000
0000
3200
0000
,
0320
0000
0031
1000
,
0002
0000
0203
0000
,
0310
0000
1001
0000
,
2000
0100
3100
0010
,
0002
0100
0103
0010
,
2000
0001
3001
0010
,
0200
1000
1300
0001
,
0100
0010
1010
1010
,
0010
0100
0101
0101
,
0001
1000
1001
1001
,
0110
0000
0000
0101
,
0100
0000
1000
0000
0100
0001
1000
0000
,
0100
0000
0001
0000
0100
1000
0001
0000
,
0100
0000
0010
0000
1000
0100
0001
0000
,
0100
0000
0010
0000
0001
0100
1000
0000
,
0100
0000
0001
0000
1000
0100
0010
0000
,
0001
0000
1000
0000
0010
0100
0001
0000
,
1000
0000
0100
0000
0010
0100
0010
0000
,
0110
0000
0000
0000
0001
1000
0001
0000
,
1001
0000
0000
0000
;

//---------------dance-single - ----------------
#NOTEDATA:;
#CHARTNAME:;
#STEPSTYPE:dance-single;
#DESCRIPTION:;
#CHARTSTYLE:;
#DIFFICULTY:Beginner;
#METER:4;
#RADARVALUES:0.200794,0.305825,0.123565,0.100397,0.000000,182.000000,166.000000,16.000000,13.000000,0.000000,0.000000,0.000000,0.000000,0.000000,0.200794,0.305825,0.123565,0.100397,0.000000,182.000000,166.000000,16.000000,13.000000,0.000000,0.000000,0.000000,0.000000,0.000000;
#CREDIT:TonyAkita;
#NOTES:
0000
0000
0000
0000
,
0000
0000
0000
0000
,
0000
0000
0000
0000
,
0000
0000
0000
0000
,
1000
0000
0001
0000
,
0100
0000
0010
0000
,
1001
0000
0000
0000
,
0110
0000
1001
0000
,
0001
0001
0001
0000
,
0100
0000
0010
0000
,
1000
1000
1000
0000
,
0100
0000
0010
0000
,
0100
0100
0100
0000
,
1000
0000
0001
0000
,
0100
0100
0100
0000
,
0020
0000
0030
0000
,
1000
0000
0100
0000
,
1000
0000
0010
0010
,
0010
0000
0100
0000
,
0001
0000
1000
0000
,
0001
0000
0010
0000
,
0001
0000
0100
0100
,
0100
0000
0010
0000
,
1001
0000
0000
0000
,
0002
0000
0000
0000
,
0003
0000
0000
0000
,
2000
0000
0000
0000
,
3000
0000
0000
0000
,
0200
0000
0000
0000
,
0300
0000
0000
0000
,
0020
0000
0000
0000
,
0030
0000
0010
0000
,
0001
0000
0001
0000
,
1000
0000
1000
0000
,
0010
0000
0100
0000
,
0100
0000
0010
0000
,
0001
0000
0001
0000
,
1000
0000
1000
0000
,
1001
0000
0000
0000
,
0110
0000
0000
0000
,
0002
0000
0000
0000
,
0003
0000
0001
0000
,
1000
0000
0100
0000
,
0010
0000
0010
0000
,
0001
0000
0100
0000
,
0010
0000
0010
0000
,
1000
0000
0001
0000
,
1001
0000
0110
0000
,
0001
0001
0001
0001
,
0001
0000
1000
0000
,
1000
1000
1000
1000
,
1000
0000
0001
0000
,
0100
0100
0100
0100
,
0100
0000
0010
0000
,
0020
0000
0000
0000
,
0030
0000
1001
0000
,
1000
0000
0001
0000
,
0100
0100
0100
0000
,
0001
0000
1000
0000
,
0010
0010
0010
0000
,
1000
0000
0001
0000
,
1000
1000
1000
0000
,
0100
0000
0010
0000
,
1001
0000
0110
0000
,
0001
0000
0010
0000
,
1000
0000
0010
0000
,
0001
0000
0100
0000
,
1000
0000
0100
0000
,
0001
0000
0010
0000
,
1000
0000
0100
0000
,
0001
0000
1000
0000
,
1001
0000
0110
0000
,
0002
0000
0003
0000
,
2000
0000
3000
0000
,
0200
0000
0300
0000
,
0020
0000
0030
0000
,
0001
0000
1000
0000
,
0010
0000
0100
0000
,
0001
0000
1000
0000
,
2002
0000
3003
0000
,
0001
0001
0001
0000
,
1000
1000
1000
0000
,
0010
0010
0010
0000
,
0100
0100
0100
0000
,
0001
0001
0001
0000
,
1000
1000
1000
0000
,
0100
0100
0100
0000
,
0010
0000
1001
0000
,
0110
0000
0000
0000
;
