#TITLE:Red Sun;
#SUBTITLE:;
#ARTIST:Dreamcatcher;
#TITLETRANSLIT:;
#SUBTITLETRANSLIT:;
#ARTISTTRANSLIT:;
#GENRE:;
#CREDIT:;
#BANNER:Red Sun.png;
#BACKGROUND:Red Sun-bg.png;
#LYRICSPATH:;
#CDTITLE:;
#MUSIC:Red Sun.ogg;
#OFFSET:0.790580;
#SAMPLESTART:49.398098;
#SAMPLELENGTH:13.000000;
#LASTBEATHINT:167.951187;
#SELECTABLE:YES;
#BPMS:0.000000=79.500000
;
#STOPS:77.000000=-12.075471
;
#BGCHANGES:0.125=Red Sun.mp4=1.000=0=0=1=====,
99999=-nosongbg-=1.000=0=0=0 // don't automatically add -songbackground-
;
#KEYSOUNDS:;
#ATTACKS:;

//---------------dance-single - ----------------
#NOTES:
     dance-single:
     :
     Challenge:
     12:
     0.382769,0.640819,0.160763,0.375114,0.500152,300.000000,282.000000,18.000000,42.000000,0.000000,0.000000,0.382769,0.640819,0.160763,0.375114,0.500152,300.000000,282.000000,18.000000,42.000000,0.000000,0.000000:
// measure 0
0000
0000
0000
0000
,  // measure 1
0000
0000
0000
0000
,  // measure 2
0000
0000
0000
0000
,  // measure 3
0000
0000
0000
0000
,  // measure 4
0000
0000
0000
0000
,  // measure 5
1000
0100
0010
0100
1000
0000
0010
0000
0200
0000
0300
0000
0002
0000
0003
0000
,  // measure 6
1000
0010
0100
0010
1000
0001
0010
0100
2000
0000
0000
0000
3001
0000
0010
0000
,  // measure 7
0001
0100
0010
0100
0001
0000
0010
0000
0200
0000
0300
0000
2000
0000
0000
0000
,  // measure 8
3001
0100
0010
0100
0001
0010
0100
1000
0002
0000
0003
0000
0100
0000
0010
1000
,  // measure 9
0001
0000
0010
1000
0001
0000
0010
0001
1000
0000
0010
0001
1000
0000
0010
1000
,  // measure 10
0001
0000
0100
0000
0010
0000
1000
0000
0001
0000
0010
0000
0100
0000
1000
0000
0001
0000
0000
0000
1000
0100
0000
0000
0010
0001
0000
0000
0010
0000
0000
0000
,  // measure 11
0001
1000
0001
0100
0000
0000
0001
1000
0001
0100
0000
0000
0001
0100
0010
1000
0001
0010
0100
0000
0000
0110
0000
0000
,  // measure 12
1000
0001
1000
0100
0000
0000
1000
0001
1000
0100
0000
0000
0010
0001
1000
0010
0100
0001
1000
0000
0000
0000
0000
0000
,  // measure 13
0102
0000
0000
0100
0000
0000
0013
0000
0100
0000
0000
0010
0000
0000
0001
0000
2001
0000
0000
0001
0000
0000
3010
0000
0200
0000
0000
0000
0000
0000
0300
0000
,  // measure 14
0120
0000
0000
0100
0000
0000
0130
0000
0001
0000
0000
1000
0000
0000
0001
0000
0021
0000
0000
0000
0000
0000
0130
1000
0200
0000
0000
0000
0000
0000
0300
0000
,  // measure 15
0210
0000
0000
0010
0000
0000
0310
0000
0001
0000
0000
1000
0000
0000
0010
0000
0120
0000
0000
0100
0000
0000
1030
0000
0002
0000
0000
0000
0000
0000
0003
0000
,  // measure 16
0010
0000
0100
0000
1000
0000
0010
0000
0100
0000
0001
0000
0010
0000
0100
0000
0000
0000
0000
0000
0010
0000
0000
0000
0001
0100
0000
0000
0010
0000
0000
0000
,  // measure 17
0210
0000
0000
0000
0000
0000
0000
0000
0302
0000
0000
0000
0003
0000
0000
0000
1000
0000
0000
1000
0000
0000
1000
0000
0200
0000
0000
0000
0000
0000
0300
0000
,  // measure 18
0010
0000
0100
1000
0001
0100
0010
1000
0200
0000
0001
0000
0010
0000
1300
0000
,  // measure 19
2100
0000
0000
0000
0000
0000
0000
0000
3002
0000
0000
0000
0000
0000
0013
0000
0100
0000
0000
0100
0000
0000
0100
0000
2000
0000
0000
0000
0000
0000
0000
3000
,  // measure 20
0100
0000
0000
0000
0100
0000
0001
0000
1000
0000
0100
0000
0010
0000
0001
0000
0200
0000
0000
0000
0000
0000
0301
0010
0200
0000
0000
0000
0000
0000
0000
0000
,  // measure 21
0300
0000
0000
0000
,  // measure 22
0000
0000
0000
0000
,  // measure 23
0000
0000
0000
0000
0000
0000
0000
0000
0001
0000
0000
0000
0000
0000
0100
0000
0010
0000
0000
0010
0000
0000
0010
0000
2000
0000
0000
0000
3000
0000
0000
0000
,  // measure 24
0100
0000
0000
0000
0100
0000
0010
0000
0001
0000
0100
0000
0010
0000
1000
0000
0002
0000
0000
0000
0000
0000
0013
0100
2000
0000
0000
0000
0000
0000
0000
0000
,  // measure 25
3020
0000
0000
0000
,  // measure 26
0230
0000
0000
0000
,  // measure 27
0302
0000
0000
0000
,  // measure 28
2003
0000
0000
0000
0000
0000
0000
0000
0000
0000
0000
0000
3100
0100
0010
0000
,  // measure 29
0100
0000
0000
0110
0000
0000
0010
0001
1000
0000
0000
1010
0000
0100
0001
0000
,  // measure 30
0010
0000
0000
0011
0000
0000
0001
0100
0010
0000
0000
0110
0000
1000
0001
0000
,  // measure 31
0010
0000
0000
0110
0000
0000
0100
1000
0010
0000
0000
0110
0000
0000
0100
0001
,  // measure 32
1000
0100
0010
0001
0100
0010
1000
0100
0020
0000
0000
0000
0130
0000
1000
0000
,  // measure 33
2001
0000
3010
0100
0002
0000
0013
0100
,  // measure 34
2000
0000
0000
0000
3010
0000
0100
0001
0010
1000
0010
0001
0100
0000
0010
0000
,  // measure 35
0210
0000
0301
0010
0200
0000
1300
0010
,  // measure 36
0200
0000
0000
0000
0000
0000
0000
0000
0302
0000
0000
0000
0000
0000
0000
0000
1003
0000
0100
0000
0010
0000
0000
0000
0100
1000
0000
0000
0010
0000
0000
0000
,  // measure 37
0210
0000
0000
0000
0301
0000
0010
0100
2000
0000
0010
0000
3001
0000
0100
0000
,  // measure 38
0010
1000
0100
0010
0001
0000
0100
0000
0020
0000
0001
0000
0100
0000
1030
0000
,  // measure 39
0002
0000
0000
0000
0103
0000
0010
1000
0200
0000
0010
0310
0001
0000
1000
0000
,  // measure 40
0001
0100
1000
0100
0001
0000
0010
0000
0020
0000
1000
0000
0100
0000
0002
0000
,  // measure 41
0033
0000
0000
0000
;
