#VERSION:0.83;
#TITLE:Rave In The Grave;
#SUBTITLE:;
#ARTIST:AronChupa ft. Little Sis Nora;
#TITLETRANSLIT:;
#SUBTITLETRANSLIT:;
#ARTISTTRANSLIT:;
#GENRE:;
#ORIGIN:;
#CREDIT:Pilgrimsito;
#BANNER:Rave In The Grave.png;
#BACKGROUND:Rave In The Grave - bg.png;
#PREVIEWVID:;
#JACKET:Rave In The Grave-jacket.png;
#CDIMAGE:;
#DISCIMAGE:;
#LYRICSPATH:;
#CDTITLE:cdtitle.png;
#MUSIC:Rave In The Grave.ogg;
#OFFSET:-0.260000;
#SAMPLESTART:21.655001;
#SAMPLELENGTH:14.219999;
#SELECTABLE:YES;
#DISPLAYBPM:66.000:132.000;
#BPMS:0.000=132.000,
47.000=66.000,
49.000=99.000,
49.500=198.000,
50.000=132.000,
122.000=66.000,
124.000=99.000,
124.500=198.000,
125.000=132.000,
149.000=66.000,
163.000=132.000,
200.000=49.500,
201.000=198.000,
203.000=132.000,
207.000=99.000,
207.500=198.000,
208.000=132.000,
228.000=66.000,
228.500=132.000,
237.000=99.000,
237.500=198.000,
238.000=132.000,
246.000=198.000,
247.000=132.000;
#STOPS:47.000=1.360,
122.000=1.360,
163.000=1.360,
203.000=1.360,
228.500=0.120,
228.750=0.120,
229.000=0.120,
229.250=0.120,
229.500=0.120,
229.750=0.120,
246.000=0.070,
246.500=0.070;
#DELAYS:;
#WARPS:;
#TIMESIGNATURES:0.000=4=4;
#TICKCOUNTS:0.000=4;
#COMBOS:0.000=1;
#SPEEDS:0.000=1.000=0.000=0;
#SCROLLS:0.000=1.000;
#FAKES:;
#LABELS:0.000=Song Start;
#BGCHANGES:;
#KEYSOUNDS:;
#ATTACKS:
;

//---------------dance-single - ----------------
#NOTEDATA:;
#CHARTNAME:;
#STEPSTYPE:dance-single;
#DESCRIPTION:;
#CHARTSTYLE:;
#DIFFICULTY:Hard;
#METER:13;
#RADARVALUES:0.457765,0.489732,0.291952,0.356039,0.523378,450.000000,409.000000,41.000000,50.000000,47.000000,0.000000,0.000000,0.000000,0.000000,0.457765,0.489732,0.291952,0.356039,0.523378,450.000000,409.000000,41.000000,50.000000,47.000000,0.000000,0.000000,0.000000,0.000000;
#CREDIT:Pilgrimsito;
#NOTES:
// measure 0
0000
0000
0000
0000
,  // measure 1
0000
0000
0000
0000
,  // measure 2
0000
0000
0000
0000
,  // measure 3
0000
0000
0000
1000
,  // measure 4
0001
0000
1000
0010
0000
0000
0200
0000
0000
0302
0000
0000
,  // measure 5
2003
0000
0000
3200
0000
0000
0300
0000
1000
0020
0000
0000
,  // measure 6
0030
0000
1000
0100
0000
0010
0001
0000
0100
0020
0000
0000
,  // measure 7
0000
0030
1000
0110
,  // measure 8
1001
1100
1001
0101
,  // measure 9
1001
1010
1001
0011
,  // measure 10
1001
0110
1001
2000
,  // measure 11
3001
0000
0000
0000
1000
0000
0200
0000
0000
0000
0000
0000
1300
0000
0010
0000
0100
0000
M101
0000
0000
1000
0000
0000
,  // measure 12
1000
0000
0000
1000
0000
0000
0001
0000
0000
0000
0000
0000
1010
0000
0000
0000
0000
0000
1100
0000
0000
0000
1000
0000
,  // measure 13
0010
0000
0100
0001
0000
0010
0002
0000
0000
0103
0000
0001
,  // measure 14
2000
0000
0000
3001
0010
0100
1000
0000
0001
0100
0000
0001
,  // measure 15
0010
0000
0100
1000
0000
0001
0200
0000
1300
0100
0000
0001
,  // measure 16
1000
0000
0010
0100
0000
0001
0020
0000
1030
0010
0000
0001
,  // measure 17
0100
0000
0010
1000
0000
0100
0020
0000
0000
0130
0000
1000
,  // measure 18
0020
0000
0000
1030
0001
0100
0110
0000
0000
1000
0000
0001
,  // measure 19
0100
0000
0010
1000
0000
0100
0020
0000
0000
0032
0000
0000
,  // measure 20
2003
0000
0000
3001
0010
0001
0200
0000
0000
0300
0000
0001
,  // measure 21
0010
0000
0100
1000
0000
0010
0200
0000
0000
0000
0000
0000
,  // measure 22
0300
0000
0000
0010
1000
0100
1000
0000
0100
0001
0000
0100
,  // measure 23
1000
0000
0100
0001
0000
0100
1000
0000
0010
0100
0000
0010
,  // measure 24
1000
0000
0010
0100
0000
0001
1000
0000
0010
0001
0000
0010
,  // measure 25
1000
0000
0010
0001
0000
0010
1000
0100
1000
0010
0100
0001
,  // measure 26
1000
0100
0010
1000
0010
0100
2000
0000
0000
0100
0000
3001
,  // measure 27
2000
0000
0000
3010
0000
0100
0002
0000
0000
0100
0000
1003
,  // measure 28
0002
0000
0000
0013
0000
0100
2000
0000
0000
0100
0000
3001
,  // measure 29
2000
0000
0000
3010
0000
0100
0002
0000
0000
0100
0000
1003
,  // measure 30
0002
0000
0000
0000
0000
0000
0013
0000
0100
0000
1000
0000
10M1
0000
0000
0100
0000
0000
0100
0000
0000
0100
0000
0000
,  // measure 31
1000
0000
0000
0011
0000
0000
0101
0000
0001
0010
0000
0100
,  // measure 32
1000
0000
0010
2000
0000
0000
3100
0000
1000
0002
0000
0000
,  // measure 33
1003
0010
0100
0001
0000
1000
0100
0000
1000
0010
0000
0100
,  // measure 34
0001
0000
1000
0200
0000
0301
0100
0000
1000
0001
0000
0010
,  // measure 35
0100
0000
1000
0020
0000
0031
0010
0000
1000
0100
0000
0010
,  // measure 36
0001
0000
0100
0020
0000
0000
0130
0000
0001
0020
0000
0000
,  // measure 37
0032
0000
0000
0000
0003
0000
0101
0000
0000
1000
0000
1000
0001
0000
0001
0100
0000
0100
0020
0000
0000
2000
0000
0000
,  // measure 38
3M3M
0000
0000
0M0M
0000
0000
0000
0000
0000
1000
0000
0020
0000
0000
0130
0020
0000
1030
0002
0000
0000
0MM3
0000
M00M
,  // measure 39
0000
0000
0000
0000
0000
0000
0000
0000
0000
0000
0000
1000
0100
0000
0100
0010
0000
0010
0002
0000
0000
2000
0000
0000
,  // measure 40
3003
0000
0000
MMMM
0000
0000
0000
0000
0000
0000
0000
0010
1000
0000
1000
0100
0000
0100
M001
0000
0000
0000
0000
0000
,  // measure 41
1100
0000
0000
0101
0000
0000
1100
0000
0000
1010
0000
1000
,  // measure 42
0100
0000
0000
0011
0000
0000
1001
0000
0000
0110
0000
0001
,  // measure 43
0100
0000
0000
1001
0000
0000
1100
0000
0000
1010
0000
1000
,  // measure 44
0100
0000
0000
0110
0000
0000
1001
0000
0000
1100
0000
1000
,  // measure 45
0010
0000
0100
0010
0000
0001
0010
0000
0100
0010
0000
1000
,  // measure 46
0010
0000
1000
0100
0000
0001
0100
0000
0010
0100
0000
1000
,  // measure 47
0001
0100
0010
0100
0001
0010
0100
1000
0010
1000
0100
1000
,  // measure 48
0002
0000
0003
0000
0000
0000
M00M
0MM0
,  // measure 49
M00M
0MM0
M00M
0MM0
M00M
0MM0
M00M
0MM0
,  // measure 50
2002
0000
0000
0000
0000
3003
M11M
0000
,  // measure 51
1000
0010
0100
0001
0010
1000
0010
0001
0100
0010
0000
0000
,  // measure 52
1001
0000
0000
1010
0000
1000
0100
0000
0001
0100
0000
1000
,  // measure 53
0002
0000
0000
0010
0000
1003
0002
0000
0000
0013
0100
1000
,  // measure 54
0010
0000
1000
0100
0000
0100
0010
0000
0010
0001
0000
0001
,  // measure 55
2000
0000
3001
0010
0000
0010
0100
0000
0100
1000
0000
1000
,  // measure 56
0002
0000
1003
0010
0000
0010
0001
0000
0001
0010
0000
0010
,  // measure 57
2000
0000
0M00
0M00
0M00
0M00
0M00
3M00
1001
0000
1000
0000
0001
0000
0100
0000
,  // measure 58
0010
1000
0100
0010
0001
1000
0010
1000
,  // measure 59
0001
1000
0020
0030
1001
0001
0010
0100
,  // measure 60
0010
0001
1000
0100
0001
0100
1000
0010
,  // measure 61
0100
0001
0010
0001
0100
0110
1001
1000
,  // measure 62
0010
1000
0100
1000
0001
1000
0010
0100
,  // measure 63
0001
0100
1000
0100
0010
0100
0001
0010
,  // measure 64
0100
0001
0100
1000
0010
0001
0010
0100
,  // measure 65
0001
0010
0100
1000
MMMM
0000
0000
0000
;

//---------------dance-single - ----------------
#NOTEDATA:;
#CHARTNAME:;
#STEPSTYPE:dance-single;
#DESCRIPTION:;
#CHARTSTYLE:;
#DIFFICULTY:Medium;
#METER:11;
#RADARVALUES:0.342815,0.419770,0.370281,0.548300,0.309754,337.000000,285.000000,52.000000,77.000000,40.000000,0.000000,0.000000,0.000000,0.000000,0.342815,0.419770,0.370281,0.548300,0.309754,337.000000,285.000000,52.000000,77.000000,40.000000,0.000000,0.000000,0.000000,0.000000;
#CREDIT:Pilgrimsito;
#NOTES:
// measure 0
0000
0000
0000
0000
,  // measure 1
0000
0000
0000
0000
,  // measure 2
0000
0000
0000
0000
,  // measure 3
0000
0000
0000
0001
,  // measure 4
0100
1000
0100
0002
,  // measure 5
2003
3200
0300
0001
,  // measure 6
0010
1000
0020
0230
,  // measure 7
0300
0000
0001
2020
,  // measure 8
3030
0000
0001
0100
0000
0001
0100
0000
0001
0020
0000
0000
,  // measure 9
0030
0000
0001
1000
0000
0001
1000
0000
0001
0020
0000
0000
,  // measure 10
0030
0000
0001
0100
0000
0001
0100
0000
0001
0020
0000
0000
,  // measure 11
0130
0000
0000
0000
0010
0000
0200
0000
0000
0000
0000
0000
0300
0000
0000
0000
0000
0000
110M
0000
0000
1000
0000
0000
,  // measure 12
1000
0000
0000
1000
0000
0000
0000
0000
0000
0000
0000
0000
2002
0000
0000
3003
0000
0000
0000
0000
0000
0000
1000
0000
,  // measure 13
0010
0000
0010
1000
0000
1000
0002
0000
0000
1003
0000
1000
,  // measure 14
0020
0000
0000
0030
0000
0000
0100
0000
0000
1001
0000
0001
,  // measure 15
0010
0000
0001
0100
0000
0001
0020
0000
0000
0030
0000
0100
,  // measure 16
1000
0000
0010
1000
0000
0100
2000
0000
0000
3000
0000
0001
,  // measure 17
0010
0000
0100
0010
0000
0001
2000
0000
0000
3010
0000
1000
,  // measure 18
0020
0030
1000
0010
,  // measure 19
0001
0010
2000
3002
,  // measure 20
0023
0030
1000
0100
,  // measure 21
0001
0200
0320
0030
,  // measure 22
0000
0000
0000
1000
0000
0000
0202
0000
0000
0303
0000
1000
,  // measure 23
0010
0000
1000
0010
0000
1000
0200
0000
0000
0300
0000
1000
,  // measure 24
0001
0000
1000
0001
0000
1000
0200
0000
0000
0300
0000
1000
,  // measure 25
0010
0000
1000
0010
0000
1000
0200
0000
0000
0310
0000
0100
,  // measure 26
0020
0000
0000
0030
0000
0000
1002
0000
0000
1003
0000
1000
,  // measure 27
0200
0000
0000
0300
0000
0000
2001
0000
0000
3001
0000
0001
,  // measure 28
0200
0000
0000
0300
0000
0000
1002
0000
0000
1003
0000
1000
,  // measure 29
0020
0000
0000
0030
0000
0000
2001
0000
0000
3001
0000
0001
,  // measure 30
0020
0000
0030
0000
M011
0001
0001
0001
,  // measure 31
0000
0000
0000
0000
0000
0000
2002
0000
0000
3003
0000
0000
0000
0000
0000
0000
0001
0000
0100
0000
0000
0000
0100
0000
,  // measure 32
0001
0000
0001
2000
0000
0000
3001
0000
0001
0200
0000
0000
,  // measure 33
0300
0000
0000
0010
0000
0000
1001
0000
1000
0100
0000
1000
,  // measure 34
0010
0000
1000
0200
0000
0000
0300
0000
0010
0001
0000
0100
,  // measure 35
0001
0000
0010
0002
0000
0000
0003
0000
1000
0100
0000
0010
,  // measure 36
0100
0000
1000
0002
0000
0000
0103
0000
0001
0200
0000
0000
,  // measure 37
0310
0000
0000
0000
0000
0000
01M1
0000
0000
M000
0000
M000
000M
0000
000M
0M00
0000
0M00
00M0
0000
0000
M000
0000
0000
,  // measure 38
0202
0303
0000
0202
0303
0000
0000
0000
0000
M000
0000
00M0
0000
0000
0M00
00M0
0000
M000
000M
0000
0000
0110
0000
2002
,  // measure 39
3003
0000
0000
0000
0000
0000
0000
0000
0000
0000
0000
M000
0M00
0000
0M00
00M0
0000
00M0
000M
0000
0000
M000
0000
0000
,  // measure 40
0000
0000
0000
0220
0330
0000
0000
0000
0000
0000
0000
00M0
M000
0000
M000
0M00
0000
0M00
0001
0000
0000
0000
0000
0000
,  // measure 41
0101
0101
1100
1100
,  // measure 42
0101
1100
0101
1001
,  // measure 43
0011
0011
1010
1010
,  // measure 44
0011
1010
0011
1001
,  // measure 45
0101
0011
0101
0011
,  // measure 46
1100
1010
1100
1001
,  // measure 47
0101
0011
1010
1100
,  // measure 48
0220
0000
0330
0000
,  // measure 49
0000
0000
0000
0000
,  // measure 50
20M1
0000
0000
301M
,  // measure 51
0100
0010
0100
0010
0100
0010
0100
0010
0100
0010
0000
0000
,  // measure 52
2002
0000
0000
3003
0000
0000
0000
0000
0000
0000
0001
0000
0010
0000
0000
0000
0010
0000
0100
0000
0000
0000
0100
0000
,  // measure 53
2000
0000
0000
3001
0000
1000
0002
0000
0000
0003
0000
0000
,  // measure 54
0100
0000
0000
1001
0000
1000
0100
0000
0100
0010
0000
0010
,  // measure 55
0002
0000
0000
0003
0000
1000
0010
0000
0010
0100
0000
0100
,  // measure 56
0002
0000
0000
0003
0000
1000
0100
0000
0100
0010
0000
0010
,  // measure 57
0002
0000
0M03
00M0
0M00
00M0
0M00
00M0
2002
0000
3003
0000
0000
0000
0001
0000
,  // measure 58
0100
1000
0100
0001
2000
3000
2000
3000
,  // measure 59
2000
3000
0000
0000
2002
3003
0000
1000
,  // measure 60
0100
0010
0100
1000
0002
0000
1003
0100
,  // measure 61
0020
0000
0130
1000
00M1
00M0
00M0
1000
,  // measure 62
0100
0010
0100
1000
0002
0000
0003
0001
,  // measure 63
0010
0100
0010
0001
2000
0000
3000
0001
,  // measure 64
0100
0010
1000
0100
0020
0000
0031
0100
,  // measure 65
0020
0000
1030
0001
0010
0000
0000
0000
;

//---------------dance-single - ----------------
#NOTEDATA:;
#CHARTNAME:;
#STEPSTYPE:dance-single;
#DESCRIPTION:;
#CHARTSTYLE:;
#DIFFICULTY:Easy;
#METER:7;
#RADARVALUES:0.237020,0.326488,0.170899,0.356039,0.003560,233.000000,209.000000,24.000000,50.000000,11.000000,0.000000,0.000000,0.000000,0.000000,0.237020,0.326488,0.170899,0.356039,0.003560,233.000000,209.000000,24.000000,50.000000,11.000000,0.000000,0.000000,0.000000,0.000000;
#CREDIT:Pilgrimsito;
#NOTES:
// measure 0
0000
0000
0000
0000
,  // measure 1
0000
0000
0000
0000
,  // measure 2
0000
0000
0000
0000
,  // measure 3
0000
0000
0000
1000
,  // measure 4
1000
0001
0001
1000
,  // measure 5
1000
0001
0001
0010
,  // measure 6
0010
0100
0100
0010
,  // measure 7
0010
0100
0100
2002
,  // measure 8
3003
1000
0010
2020
,  // measure 9
3030
0001
0010
0022
,  // measure 10
0033
1000
0100
2000
,  // measure 11
3002
0000
0203
0000
0300
0000
0101
M000
,  // measure 12
M000
M000
0000
0000
1001
0000
1000
0000
,  // measure 13
0100
0010
0002
2003
,  // measure 14
3020
0030
0000
0001
,  // measure 15
0100
1000
0100
0001
,  // measure 16
0010
1000
0010
0001
,  // measure 17
0010
0100
2000
3002
,  // measure 18
0003
0200
0000
0000
0000
0000
0000
0000
0000
0000
0000
0000
0000
0000
0000
0000
0000
0000
0000
0000
0000
0000
0000
0000
0000
0000
0000
0000
0000
0000
0000
0000
0000
0000
0000
0000
0000
0000
0000
0000
0000
0000
0000
0000
0000
0000
0000
0000
0300
0000
0000
0000
0000
0000
0000
0000
0000
0000
0000
0000
0000
0000
0000
0000
0000
0000
0000
0000
0000
0000
0000
0000
0000
0000
0000
0000
0000
0000
0000
0000
0000
0000
0000
0000
0000
0000
0000
0000
0000
0000
0000
0000
0000
0000
0000
0000
0001
0000
0000
0000
0000
0000
0000
0000
0000
0000
0000
0000
0000
0000
0000
0000
0000
0000
0000
0000
0000
0000
0000
0000
0000
0000
0000
0000
0000
0000
0000
0000
0000
0000
0000
0000
0000
0000
0000
0000
0000
0000
0000
0000
0000
0000
0000
0000
0001
0000
0000
0000
0000
0000
0000
0000
0000
0000
0000
0000
0000
0000
0000
0000
0000
0000
0000
0000
0000
0000
0000
0000
0000
0000
0000
0000
0000
0000
0000
0000
0000
0000
0000
0000
0000
0000
0000
0000
0000
0000
0000
0000
0000
0000
0000
0000
,  // measure 19
1000
1000
0001
0001
,  // measure 20
1000
1000
0100
0100
,  // measure 21
0010
0010
0100
0100
,  // measure 22
0010
0010
0100
1100
,  // measure 23
1000
1100
0010
0011
,  // measure 24
0001
0011
1000
1001
,  // measure 25
0001
1001
0002
2003
,  // measure 26
3200
0300
2000
0001
,  // measure 27
0100
0001
3200
0010
,  // measure 28
1000
0010
2300
0001
,  // measure 29
0010
0001
3020
0100
,  // measure 30
1000
0000
0130
0000
1010
000M
000M
000M
,  // measure 31
0000
1001
0001
0100
,  // measure 32
0010
2000
3002
0023
,  // measure 33
0030
0000
1000
0100
,  // measure 34
0001
0100
1000
0010
,  // measure 35
0001
0010
1000
0010
,  // measure 36
0100
0002
2003
3200
,  // measure 37
0300
200M
0000
3020
,  // measure 38
0000
0230
0000
0302
,  // measure 39
0000
2003
0000
3200
,  // measure 40
0000
0320
0000
0031
,  // measure 41
1000
0100
0010
0100
,  // measure 42
1000
1000
0010
0010
,  // measure 43
0100
0001
0010
0001
,  // measure 44
0100
0100
0010
0010
,  // measure 45
0100
0010
1000
0100
,  // measure 46
1000
1000
0001
0001
,  // measure 47
0010
0100
0010
0001
,  // measure 48
2000
0000
3000
0000
,  // measure 49
0000
0000
0000
0000
,  // measure 50
M22M
0000
0000
M33M
,  // measure 51
0010
0100
0010
0000
,  // measure 52
1001
1000
0100
0010
,  // measure 53
0002
2003
3020
0030
,  // measure 54
0000
0001
0100
1000
,  // measure 55
0100
0001
0010
1000
,  // measure 56
0010
0001
0010
0100
,  // measure 57
2000
3000
0000
0000
1001
0000
1000
0000
,  // measure 58
0001
1000
1010
1100
,  // measure 59
2020
3030
1001
0001
,  // measure 60
1000
0001
0011
0101
,  // measure 61
0022
0033
1000
1001
,  // measure 62
0001
0010
0100
0010
,  // measure 63
0001
1000
0100
0010
,  // measure 64
0100
1000
0002
2003
,  // measure 65
3020
0230
0300
0000
;
