#TITLE:Rave 'til the Earth's End;
#SUBTITLE:;
#ARTIST:5argon;
#TITLETRANSLIT:;
#SUBTITLETRANSLIT:;
#ARTISTTRANSLIT:;
#GENRE:;
#CREDIT:;
#MUSIC:5argon - Rave 'til the Earth's End.ogg;
#BANNER:Rave Banner.png;
#BACKGROUND:;
#CDTITLE:;
#SAMPLESTART:0.000;
#SAMPLELENGTH:0.000;
#SELECTABLE:YES;
#OFFSET:-0.330;
#BPMS:0.000=160.000;
#STOPS:;
#BGCHANGES:;
#FGCHANGES:;

//--------------- dance-single - DancingMaractus ----------------
#NOTES:
     dance-single:
     DancingMaractus:
     Hard:
     14:
     0,0,0,0,0:
0000
0000
0000
0000
,
0000
0000
0000
0000
,
0000
0000
0000
0000
,
0000
0000
0000
0000
,
1000
0000
0000
0010
0000
0000
0100
0000
0000
0001
0000
0000
1000
0000
0000
0000
,
0001
0000
0000
0010
0000
0000
0100
0000
0000
1000
0000
0000
0001
0000
0000
0000
,
1000
0000
0010
0000
0100
0000
0001
0000
0010
0000
0100
0000
1000
0001
1000
0001
,
2000
3002
0013
0100
,
1000
0100
1000
0100
2000
0000
3000
0000
0010
1000
0000
0001
0000
1000
0010
0000
,
0100
0001
0100
0001
0200
0000
0300
0000
0001
0010
0000
0001
0000
1000
0001
0000
,
1000
0010
1000
0010
2000
0000
3000
0000
0100
1000
0000
0001
0000
1000
0010
0000
,
0100
0000
0010
0000
1000
0000
0100
0000
0010
0000
0000
0001
0000
0000
1000
0000
,
0001
0100
0001
0100
0002
0000
0003
0000
0010
0001
0000
0100
0000
0001
1000
0000
,
0010
1000
0010
1000
0020
0000
0030
0000
1000
0001
0000
1000
0000
0001
0010
0000
,
0100
1000
0100
1000
0200
0000
0300
0000
0010
0001
0000
1000
0000
0001
0100
0000
,
0001
1000
0001
1000
0010
0100
0010
0100
0002
0000
0000
0000
0000
0000
0000
0000
,
1003
0000
0000
0000
0001
0000
0000
0000
0100
0000
0010
1000
0000
0000
0001
0000
,
0010
0000
0100
0000
1000
0000
0000
0000
0010
0000
0100
0010
0000
0000
1000
0000
,
0001
0000
0010
0100
0000
0000
0010
0000
0001
0000
0100
0001
0000
0000
1000
0000
,
0100
1000
0000
0010
0000
0100
0001
0000
0010
0001
0010
0001
0000
1000
0100
1000
,
0100
0000
0000
0000
1000
0000
0000
0000
0100
0000
0010
0001
0000
0000
1000
0000
,
0010
0000
0100
0000
0001
0000
0000
0000
0010
0000
0100
0010
0000
0000
0001
0000
,
1000
0000
0010
0100
0000
0000
0010
0000
1000
0000
0100
1000
0000
0000
0001
0000
,
1000
0100
1000
0100
0010
0001
0010
0001
2000
0000
0000
0000
0000
0000
0000
0000
,
3001
0000
0000
0000
1000
0000
0000
0000
0100
0000
0010
0001
0000
0000
1000
0000
,
0010
0000
0100
0000
0001
0000
0000
0000
0010
0000
0100
0010
0000
0000
0001
0000
,
1000
0000
0010
0100
0000
0000
0010
0000
1000
0000
0100
1000
0000
0000
0001
0000
,
0010
0001
0000
0100
0000
0010
1000
0000
0100
1000
0100
1000
0000
0001
0010
0001
,
0010
0000
0000
0000
0001
0000
0000
0000
0010
0000
0100
1000
0000
0000
0001
0000
,
0100
0000
0010
0000
1000
0000
0000
0000
0100
0000
0010
0100
0000
0000
1000
0000
,
0001
0100
0010
1000
0100
0010
0001
1000
,
0001
0100
0001
0100
0010
1000
0010
1000
0001
0000
1000
0000
0002
0000
0000
0000
,
1003
0000
0000
0001
0000
0000
1000
0000
0001
0000
0000
0000
1000
0000
0000
0000
,
0100
0000
0000
0010
0000
0000
0100
0000
0010
0000
0000
0000
0100
0000
0000
0000
,
1000
0000
0000
0100
0000
0000
1000
0000
0100
0000
0000
0000
1000
0000
0000
0000
,
0001
0000
0000
0100
0000
0000
0001
0000
0100
0000
0000
0000
0001
0000
0000
0000
,
1000
0000
0000
0010
0000
0000
1000
0000
0010
0000
0000
0000
1000
0000
0000
0000
,
0001
0000
0000
0010
0000
0000
0001
0000
0010
0000
0000
0000
0001
0000
0000
0000
,
1000
0000
0000
0100
0000
0000
0010
0000
0002
0000
0000
0000
2003
0000
0000
0000
,
3001
0000
0000
0100
0000
0000
0010
0000
1000
0001
1000
0001
0100
0010
0100
0010
,
1000
0000
0000
0100
0000
0000
0010
0000
0000
0001
0000
0000
1000
0000
0000
0000
,
0001
0000
0000
0100
0000
0000
0010
0000
0000
1000
0000
0000
0001
0000
0000
0000
,
1000
0000
0000
0100
0000
0000
0010
0000
0000
0100
0000
0000
1000
0000
0000
0000
,
0001
0000
0000
0100
0000
0000
0010
0000
0000
0100
0000
0000
0001
0000
0000
0000
,
1000
0000
0000
0100
0000
0000
0010
0000
0000
0001
0000
0000
1000
0000
0001
1000
,
0001
0000
0000
0100
0000
0000
0010
0000
0000
1000
0000
0000
0001
0000
0000
0000
,
1000
0000
0100
0000
0010
0000
0001
0000
0100
0000
0010
0000
1000
0001
1000
0001
,
2000
0000
0000
0000
0000
0000
0000
0000
0000
0000
0000
3000
0001
1000
0001
1000
,
0001
0100
0001
1000
0020
0000
2030
0000
,
3001
0000
0010
0000
0002
0000
0000
0000
0003
0000
0000
0000
1000
0100
0010
0001
,
1000
0001
1000
0100
2000
0000
3002
0000
,
0023
0000
0000
0000
0032
0000
0000
0000
2003
0000
0000
0000
3001
0100
0010
1000
,
0001
0010
0001
1000
0002
0000
0203
0000
,
0301
0000
1000
0000
0020
0000
0000
0000
0030
0000
0000
0000
1000
0100
0010
0001
,
1000
0001
0100
0001
2000
0000
3002
0000
,
0023
0000
0000
0000
0032
0000
0000
0000
2003
0000
0000
0000
3001
0100
0010
1000
,
0001
1000
0100
0010
0002
0000
0203
0000
,
0301
0000
1000
0000
0002
0000
0000
0000
0003
0000
0000
0000
1000
0010
0100
0001
,
1000
0001
0010
0100
2000
0000
3200
0000
,
2300
0000
0000
0000
3002
0000
0000
0000
2003
0000
0000
0000
3001
0100
0010
1000
,
0001
1000
0100
0010
0002
0000
0023
0000
,
0031
0000
1000
0000
0002
0000
0000
0000
0003
0000
0000
0000
1000
0010
0100
0001
,
1000
0001
0010
0100
2000
0000
3020
0000
,
2030
0000
0000
0000
3002
0000
0000
0000
2003
0000
0000
0000
3001
1000
0001
1000
,
0001
0010
0001
0010
0002
0000
0003
0000
0100
0001
0000
1000
0000
0001
0100
0000
,
0010
1000
0010
1000
0020
0000
0030
0000
1000
0100
0000
1000
0000
0001
1000
0000
,
0001
0100
0001
0100
0002
0000
0003
0000
0010
0001
0000
1000
0000
0001
0100
0000
,
0010
0000
0100
0000
0001
0000
0010
0000
0100
0000
0000
1000
0000
0000
0001
0000
,
1000
0010
1000
0010
2000
0000
3000
0000
0100
1000
0000
0010
0000
1000
0001
0000
,
0100
0001
0100
0001
0200
0000
0300
0000
0001
1000
0000
0001
0000
1000
0100
0000
,
0010
0001
0010
0001
0020
0000
0030
0000
0100
1000
0000
0001
0000
1000
0010
0000
,
1000
0001
1000
0001
0100
0010
0100
0010
2000
0000
0000
0000
0000
0000
0000
0000
,
3001
0000
0000
0000
;

//--------------- dance-single - DancingMaractus (ITG Tech) ----------------
#NOTES:
     dance-single:
     DancingMaractus (ITG Tech):
     Challenge:
     15:
     0,0,0,0,0:
0000
0000
0000
0000
,
0000
0000
0000
0000
,
0000
0000
0000
0000
,
0000
0000
0000
0000
,
1000
0000
0000
0010
0000
0000
M010
0000
0000
0001
0000
0000
1000
0000
0000
0000
,
0001
0000
0000
0100
0000
0000
010M
0000
0000
1000
0000
0000
0001
0000
0000
0000
,
1000
0000
0100
0000
0010
0000
0001
0000
0100
0000
0010
0000
1000
0001
1000
0001
,
2000
3002
1103
0011
,
1000
0100
1000
0001
2000
0000
3000
0000
0010
1000
0000
0001
0000
1000
0010
0000
,
0100
0001
0010
0001
0200
0000
0300
0000
0001
0010
0000
0001
0000
1000
0001
0000
,
1000
0010
1000
0001
2000
0000
3000
0000
0100
1000
0000
0001
0000
1000
0010
0000
,
0100
0000
0001
0000
0100
0000
010M
0000
1000
0000
0000
0001
0000
0000
1000
0000
,
0001
0100
0001
1000
0002
0000
0003
0000
0010
0001
0000
0100
0000
0001
1000
0000
,
0010
0100
0010
1000
0020
0000
0030
0000
1000
0100
0000
0010
0000
0001
0100
0000
,
0010
1000
0001
1000
0020
0000
0030
0000
0100
0001
0000
0100
0000
0010
1000
0000
,
0001
0010
0100
1000
0001
1000
0010
0100
0002
0000
0000
0000
0000
0000
0000
0000
,
1103
0000
0000
0000
0011
0000
0000
0000
0100
0000
0010
1000
0000
0000
0001
0000
,
0010
0000
0100
0000
1000
0000
0000
0000
0010
0000
0100
0010
0000
0000
1000
0000
,
0001
0000
0010
0100
0000
0000
0010
0000
0001
0000
0100
0001
0000
0000
1000
0000
,
0100
1000
0000
0010
0000
0100
0001
0000
0010
0001
0100
0001
0000
1000
0010
1000
,
0101
0000
0000
0000
1010
0000
0000
0000
0100
0000
0010
0001
0000
0000
1000
0000
,
0010
0000
0100
0000
0001
0000
0000
0000
0010
0000
0100
0010
0000
0000
0001
0000
,
1000
0000
0010
0100
0000
0000
0010
0000
1000
0000
0100
1000
0000
0000
0001
0000
,
1000
0100
0010
0001
1000
0001
0100
0010
2000
0000
0000
0000
0000
0000
0000
0000
,
3101
0000
0000
0000
1010
0000
0000
0000
0100
0000
0010
0001
0000
0000
1000
0000
,
0010
0000
0100
0000
0001
0000
0000
0000
0010
0000
0100
0010
0000
0000
0001
0000
,
1000
0000
0010
0100
0000
0000
0010
0000
1000
0000
0100
1000
0000
0000
0001
0000
,
0010
0001
0000
0100
0000
0010
1000
0000
0100
0010
0100
1000
0000
0001
0100
0001
,
1100
0000
0000
0000
0011
0000
0000
0000
0100
0000
0010
1000
0000
0000
0001
0000
,
0010
0000
0100
0000
1000
0000
0000
0000
0100
0000
0010
0100
0000
0000
1000
0000
,
0101
0010
0101
1000
0011
0100
0011
1000
,
0001
0100
0010
1000
0001
1000
0100
0010
0001
0000
1000
0000
0002
0000
0000
0000
,
1003
0000
0000
0010
0000
0000
M010
0000
0001
0000
0000
0000
1000
0000
0000
0000
,
0001
0000
0000
0010
0000
0000
001M
0000
1000
0000
0000
0000
0001
0000
0000
0000
,
1000
0000
0000
0100
0000
0000
M100
0000
0001
0000
0000
0000
1000
0000
0000
0000
,
0001
0000
0000
0100
0000
0000
010M
0000
1000
0000
0000
0000
0001
0000
0000
0000
,
1000
0000
0000
0010
0000
0000
1000
0000
0001
0000
0000
0000
1000
0000
0000
0000
,
0001
0000
0000
0100
0000
0000
0001
0000
1000
0000
0000
0000
0001
0000
0000
0000
,
1000
0000
0000
0100
0000
0000
1000
0000
0002
0000
0000
0000
2003
0000
0000
0000
,
3001
0000
0000
0010
0000
0000
0001
0000
1000
0010
0100
0001
1000
0001
0010
0100
,
1000
0000
0000
0100
0000
0000
0010
0000
0000
0001
0000
0000
1000
0000
0000
0000
,
0001
0000
0000
0100
0000
0000
0010
0000
0000
1000
0000
0000
0001
0000
0000
0000
,
1000
0000
0000
0100
0000
0000
0010
0000
0000
0100
0000
0000
1000
0000
0000
0000
,
0001
0000
0000
0100
0000
0000
0010
0000
0000
0100
0000
0000
0001
0000
0000
0000
,
1000
0000
0000
0100
0000
0000
M100
0000
0000
0001
0000
0000
1000
0000
0001
1000
,
0001
0000
0000
0100
0000
0000
010M
0000
0000
1000
0000
0000
0001
0000
0000
0000
,
1000
0000
0100
0000
0010
0000
0001
0000
0100
0000
0010
0000
1000
0001
1000
0001
,
2000
0000
0000
0000
0000
0000
0000
0000
0000
0000
0000
3000
0001
1000
0001
1000
,
0001
0100
0001
1000
0020
0000
2030
0000
,
3001
0000
0010
0000
0002
0000
0000
0000
0003
0000
0000
0000
1000
0100
0010
0001
,
1000
0001
1000
0100
2000
0000
3002
0000
,
0023
0000
0000
0000
0032
0000
0000
0000
2003
0000
0000
0000
3001
0010
0100
1000
,
0001
0010
0001
1000
0002
0000
0203
0000
,
0301
0000
1000
0000
0020
0000
0000
0000
0030
0000
0000
0000
1000
0010
0100
0001
,
1000
0001
0100
0001
2000
0000
3002
0000
,
1003
0100
0010
0001
0100
0010
0100
0001
1000
0100
0010
0100
1000
0010
0100
0001
,
1000
0001
0010
0100
2000
0000
3020
0000
,
1030
0000
0001
0000
2000
0000
0000
0000
3000
0000
0000
0000
0001
0100
0010
1000
,
0001
1000
0100
0010
0002
0000
0023
0000
,
0032
0000
0000
0000
2003
0000
0000
0000
3002
0000
0000
0000
1003
0010
0100
0001
,
1000
0001
0010
0100
2000
0000
3200
0000
,
1300
0000
0001
0000
2000
0000
0000
0000
3000
0000
0000
0000
0001
0010
0100
1000
,
0001
1000
0010
0100
0002
0000
0203
0000
,
0301
0100
0010
1000
0100
0010
0100
1000
0001
0100
0010
0100
0001
0010
0100
1000
,
0001
0010
0001
1000
0002
0000
0003
0000
0100
0001
0000
1000
0000
0001
0100
0000
,
0010
1000
0100
1000
0020
0000
0030
0000
1000
0100
0000
1000
0000
0001
1000
0000
,
0001
0100
0001
1000
0002
0000
0003
0000
0010
0001
0000
1000
0000
0001
0100
0000
,
0010
0000
1000
0000
0010
0000
M010
0000
0001
0000
0000
1000
0000
0000
0001
0000
,
1000
0010
1000
0001
2000
0000
3000
0000
0100
1000
0000
0010
0000
1000
0001
0000
,
0100
0010
0100
0001
0200
0000
0300
0000
0001
0010
0000
0100
0000
1000
0010
0000
,
0100
0001
1000
0001
0200
0000
0300
0000
0010
1000
0000
0010
0000
0100
0001
0000
,
1000
0010
0100
0001
1000
0001
0010
0100
2000
0000
0000
0000
0000
0000
0000
0000
,
3101
0000
0000
0000
;
