#TITLE:Rain on Me;
#SUBTITLE:;
#ARTIST:Lady Gaga & Ariana Grande;
#TITLETRANSLIT:;
#SUBTITLETRANSLIT:;
#ARTISTTRANSLIT:;
#GENRE:;
#CREDIT:hooky;
#BANNER:Rain On Me.png;
#BACKGROUND:Rain On Me-bg.png;
#LYRICSPATH:;
#CDTITLE:;
#MUSIC:Rain On Me.ogg;
#OFFSET:0.000000;
#SAMPLESTART:93.660110;
#SAMPLELENGTH:15.499962;
#SELECTABLE:YES;
#DISPLAYBPM:123.000000;
#BPMS:0.000000=123.000000
;
#STOPS:192.000000=0.488000,
193.000000=0.488000
;
#BGCHANGES:0.000=Rain On Me.avi=1.000=0=0=0=StretchNoLoop====,
99999=-nosongbg-=1.000=0=0=0 // don't automatically add -songbackground-
;
#KEYSOUNDS:;
#ATTACKS:;

//---------------dance-single - ----------------
#NOTES:
     dance-single:
     :
     Hard:
     11:
     0.334816,0.453509,0.101561,0.140623,0.113279,300.000000,287.000000,13.000000,18.000000,0.000000,0.000000,0.334816,0.453509,0.101561,0.140623,0.113279,300.000000,287.000000,13.000000,18.000000,0.000000,0.000000:
0000
0000
0000
0000
,
0000
0000
0000
0000
,
0000
0000
0000
0000
,
0000
0000
0000
0000
,
0000
0000
0000
0000
,
1000
0000
0000
1000
0000
0000
0002
0000
0000
0000
0000
0000
0000
0000
0000
0000
,
0000
0000
0000
0003
,
0001
0000
0000
0001
0000
0000
2000
0000
0000
0000
0000
0000
0000
0000
0000
0000
,
0000
0000
0000
3000
,
0010
0000
0000
1000
0000
0000
0100
0000
0000
0001
0000
0000
0010
0000
0000
0000
,
0000
1000
0000
1000
,
1000
0000
0000
0010
0000
0000
0001
0000
0000
0100
0000
0000
1000
0000
0000
0000
,
0000
0001
0000
0001
,
0001
0000
0000
0010
0000
0000
1000
0000
0000
0010
0000
0000
0001
0000
0000
0000
,
0000
0100
0000
0010
,
1000
0000
0000
0100
0000
0000
0001
0000
0000
0100
0000
0000
1000
0000
0000
0000
,
0000
0001
0001
1000
,
0001
0010
0001
0000
0100
0000
0100
0000
,
0010
1000
0100
0000
1000
0000
0001
0001
,
0100
1000
0000
1000
0000
1000
0000
0001
,
0100
1000
0000
1000
0000
1000
0000
0100
,
0001
0010
0001
0000
0001
0100
0001
0000
,
1000
0010
0100
0000
0100
1000
0100
0001
,
1000
0001
0000
1000
0000
1000
0000
0000
,
0002
0000
2000
3003
,
1000
0000
0001
1000
0000
1000
0001
0000
0000
0000
0001
0000
0011
0000
0000
0000
,
0001
0000
0001
1000
0000
1000
0010
0000
0000
0000
0010
0000
1010
0000
0000
0000
,
1000
0000
0100
1000
0000
1000
0010
0000
0000
0000
0100
0000
0101
0000
0000
0000
,
0001
0000
0010
0001
0000
0100
0001
0000
0000
0000
0100
0000
0110
0000
0000
0000
,
0010
0000
0010
1000
0000
1000
0010
0000
0000
0000
0010
0000
1100
0000
0000
0000
,
1000
0000
0001
1000
0000
1000
0010
0000
0000
0000
0001
0000
0011
0000
0000
0000
,
0001
0010
0100
1000
0001
0000
1000
0000
,
0001
0000
0100
0000
0010
0000
1000
1000
,
0001
0000
0000
1000
0001
0000
0100
0000
0010
0000
1000
0000
0010
0000
0000
0000
,
0100
0000
0000
0001
0010
0000
0001
0000
1000
0000
0001
0000
0010
0000
0000
0000
,
0100
0000
0000
1000
0010
0000
0100
0000
0010
0000
0010
0000
1000
0000
0000
0000
,
0200
1000
0010
0301
,
0100
0010
0001
0000
1000
1000
0001
0000
,
0010
0100
1000
0010
0200
0000
0310
0000
,
0100
0100
0001
0000
0100
0000
0001
0000
,
0001
0010
0100
1000
0000
0001
0001
0000
,
0002
0100
0010
2000
,
0000
0000
0000
3003
,
0020
0100
1000
0001
,
0000
0000
0200
0330
,
0002
0010
0100
0020
,
0000
0000
0000
0033
,
1000
0100
0001
0100
,
1001
0000
0110
0000
0010
1000
0100
1000
,
0001
0000
1000
0000
0001
0100
0001
0010
,
0001
0000
0010
0000
0001
1000
0001
0000
,
0001
1000
0001
0000
1000
0001
1000
0000
,
1000
0001
1000
0000
0001
0010
0100
0000
,
0001
0000
0100
0000
1000
0010
0100
0001
,
1000
0000
0001
0000
0010
0100
0010
0000
,
0010
0100
0010
0000
0002
0000
0000
0000
,
2000
0000
3003
0000
0010
0100
1000
0000
,
1000
0100
0001
0000
0001
0100
0010
1000
,
0100
0000
0100
0000
1000
0000
0000
0000
0001
0000
0001
1000
0000
1000
0001
0000
,
0000
0000
0001
0000
0101
0000
0000
0000
0100
0000
0100
0010
0000
0010
1000
0000
,
0000
1000
1100
0000
0100
1000
0010
0000
,
0100
1000
0010
0000
0010
0100
0001
0010
,
0001
0001
1000
0000
0001
0000
0010
0000
,
0100
0100
0010
0001
0202
0000
0303
0000
,
2020
3030
1001
0000
;

//---------------dance-double - ----------------
#NOTES:
     dance-double:
     :
     Hard:
     11:
     0.331468,0.453509,0.093749,0.124998,0.050780,297.000000,285.000000,12.000000,16.000000,0.000000,0.000000,0.331468,0.453509,0.093749,0.124998,0.050780,297.000000,285.000000,12.000000,16.000000,0.000000,0.000000:
00000000
00000000
00000000
00000000
,
00000000
00000000
00000000
00000000
,
00000000
00000000
00000000
00000000
,
00000000
00000000
00000000
00000000
,
00000000
00000000
00000000
00000000
,
00100000
00000000
00000000
00100000
00000000
00000000
00002000
00000000
00000000
00000000
00000000
00000000
00000000
00000000
00000000
00000000
,
00000000
00000000
00000000
00003000
,
00000010
00000000
00000000
00000010
00000000
00000000
00020000
00000000
00000000
00000000
00000000
00000000
00000000
00000000
00000000
00000000
,
00000000
00000000
00000000
00030000
,
00000100
00000001
00000010
00000000
00000001
00000000
00001000
00000000
,
00000000
00001000
00000000
00001000
,
00000100
00010000
00001000
00000000
00010000
00000000
00100000
00000000
,
00000000
00100000
00000000
00100000
,
00100000
10000000
01000000
00000000
00010000
00000000
01000000
00000000
,
10000000
10000000
00000000
10000000
,
01000000
00010000
00001000
00000000
00000010
00000000
00000001
00000000
,
00000000
00000001
00000000
00000001
,
00000010
00000001
00000100
00000000
00000010
00000000
00000010
00000000
,
00000100
00001000
00010000
00000000
00001000
00000000
00000010
00000000
,
00000001
00001000
00000001
00000000
00001000
00000000
00010000
00000000
,
00100000
01000000
00100000
00000000
01000000
00000000
01000000
00000000
,
00100000
00010000
01000000
00000000
01000000
00010000
00100000
00000000
,
00100000
00001000
00010000
00000000
00010000
00000010
00000100
00000000
,
00000100
00000001
00000010
00000001
00001000
00000010
00000100
00000000
,
00000020
00000000
00200000
00300030
,
00011000
00000000
00010000
00000000
00001000
01000000
00010000
00000000
,
00010000
00000000
01000000
00000000
00100000
10000000
01000000
00000000
,
10000000
00010000
10000000
00100000
01000000
00000000
00100000
00000000
,
01000000
00100000
00010000
00000010
00000100
00000001
00000010
00000000
,
00000001
00000000
00001000
00000000
00000010
00010000
00001000
00000000
,
00001000
00000000
00000010
00000000
00000100
00000001
00000100
00000000
,
00001000
00000001
00001000
00000000
00000010
00000010
00000100
00000000
,
00000010
00001000
00100000
01000000
,
00100000
10000000
01000000
00000000
01000000
00000000
00100000
00000000
,
00100000
00001000
00010000
00000100
00000010
00000001
00001000
00000000
,
00000010
00000010
00000010
00000000
00000010
00000010
00000010
00000000
,
00001000
00000100
01000000
00010000
00100000
01000000
10000000
00000000
,
00010000
10000000
00010000
00000000
00010000
10000000
00010000
00000000
,
00010000
10000000
01000000
00100000
00010000
00001000
01000000
00000000
,
00010000
00010000
00000100
00000000
00001000
00001000
00000010
00000000
,
00000001
00000100
00010000
00100000
,
20000000
00100000
01000000
00020000
,
00000000
00000000
00000000
30030000
,
00100000
00001000
00010000
00000200
,
00000000
00000000
00020000
00030300
,
00000002
00000010
00000100
00020000
,
00000000
00000000
00000000
00030003
,
00000001
00001000
00100000
01000000
,
10010000
00001001
00011000
00011000
,
00001000
00100000
01000000
00000000
00100000
00010000
01000000
00100000
,
00100000
00000000
10000000
00000000
00000000
00000000
00000000
00000000
01000000
00000000
10000000
01000000
00000000
01000000
00010000
00000000
,
00000000
00000000
00001000
00000000
00000000
00000000
00000100
00000000
00000010
00000000
00001000
00000001
00000000
00000001
00000010
00000000
,
00000000
00000000
00000011
00000000
00000100
00000010
00000001
00001000
,
00001000
00000100
00000010
00000000
00000100
00001000
00000010
00000100
,
00000100
00000000
00000001
00000000
00000000
00000000
00000000
00000000
00000010
00000000
00000001
00000010
00000000
00000010
00000001
00000000
,
00000000
00001000
00000000
00000000
00020000
00000000
00000000
00000000
,
00000200
00000000
00030300
00000000
00000011
00000001
00000100
00000010
,
00001000
00001000
00000100
00010000
00001000
01000000
00010000
01000000
,
01000000
00000000
00000000
00000000
00001000
00000000
00000100
00000000
00000001
00000000
00000001
00001000
00000000
00001000
00000010
00000000
,
00000000
00000000
00000110
00000000
00001000
00000010
00000100
00000001
,
00001000
00001000
00010000
00000000
00100000
01000000
10000000
01000000
,
00001000
00010000
00001000
00000010
00000001
00000010
00001000
00000010
,
00000100
00000000
00000100
00000010
00000000
00000000
00000100
00000000
00000010
00000000
00001000
00000001
00000000
00001000
00000010
00000000
,
00000000
00000010
00000110
00000000
00000022
00000000
00000033
00000000
,
20200000
30300000
00011000
00000000
;

//---------------dance-double - ----------------
#NOTES:
     dance-double:
     :
     Medium:
     9:
     0.296870,0.352729,0.148435,0.257808,0.000000,266.000000,247.000000,19.000000,33.000000,0.000000,0.000000,0.296870,0.352729,0.148435,0.257808,0.000000,266.000000,247.000000,19.000000,33.000000,0.000000,0.000000:
00000000
00000000
00000000
00000000
,
00000000
00000000
00000000
00000000
,
00000000
00000000
00000000
00000000
,
00000000
00000000
00000000
00000000
,
00000000
00000000
00000000
00000000
,
00200000
00000000
00000000
00020000
00000000
00000000
00000000
00000000
,
00000000
00000000
00000000
00330000
,
02000000
00000000
00000000
00002000
00000000
00000000
00000000
00000000
,
00000000
00000000
00000000
03003000
,
00010000
00000100
00000000
00000100
,
00000000
00000100
00000000
00000100
,
00000010
00000001
00000000
00000001
,
00000000
00000001
00002000
00000000
,
00003010
00010000
00001000
01000000
,
00000000
01000000
00000000
01000000
,
00010000
00100000
01000000
20000000
,
00000000
00000000
00000000
00000000
00000000
00010000
30010000
00000000
,
00100000
00010000
01000000
00000000
00010000
00000000
00010000
00000000
,
00100000
00001000
00010000
00002000
00000000
00000000
00013000
00000000
,
00000100
00001000
00000000
00001000
00000000
00001000
00000000
00000000
,
00000001
00000010
00000000
00000010
00000000
00000010
00000000
00000000
,
00000100
00001000
00000010
00000000
00000100
00000000
00000100
00000000
,
00010000
00100000
01000000
00000000
00100000
00000000
00100000
00000000
,
00001000
00010000
00000000
00010000
00000000
00010000
00000000
00000000
,
00002200
00003300
00220000
00330000
,
00011000
00000000
01010000
00000000
00010000
00100000
01000000
00000000
,
10000000
00100000
01000000
00010000
00100000
00000000
00100000
00000000
,
00001000
00000100
00000001
00000010
00000001
00000000
00000001
00000000
,
00000010
00000100
00001000
00000000
00000010
00000100
00010000
00000000
,
00000100
00000001
00000010
00000000
00000100
00000000
00000100
00000000
,
00001000
00010000
00100000
00010000
00001000
00000100
00000010
00000000
,
00000002
00000103
00000020
00001030
,
00020000
01030000
00200000
10300000
,
00100000
10000000
01000000
00000000
01000000
10000000
00100000
00000000
,
01000000
00010000
00000010
00000001
,
00000100
00000010
00000100
00000000
00000100
00000010
00000100
00000000
,
00000002
00000010
00000020
00000033
,
00000100
00001000
00010000
00000000
00000100
00001000
00010000
00000000
,
00001000
00010000
00100000
00000000
00001000
00010000
00100000
00000000
,
01000000
01000000
01000000
00000000
00100000
00100000
00100000
00000000
,
00012000
00010000
00010000
00013000
,
00000200
00000000
00000000
00001000
00000000
00000000
00001300
00000000
,
00000000
00000000
00000100
00000010
00000001
00000000
00000011
00000000
,
00000102
00000000
00000000
00000100
00000000
00000000
00000103
00000000
,
00000000
00000000
00000010
00010000
00000200
00000000
00000300
00000000
,
00021000
00000000
00000000
00001000
00000000
00000000
01030000
00000000
,
00000000
00000000
00100000
00010000
01000000
00000000
00010000
00000000
,
01000000
00001000
00000010
00000001
,
00000101
00000000
00001010
00000000
00100000
00001000
01000000
00000000
,
00100000
10000000
01000000
00000000
01000000
10000000
00100000
00000000
,
01000000
00001000
00010000
00000000
00000100
00001000
00000100
00000000
,
00000100
00001000
00000100
00000000
01000000
00010000
01000000
00000000
,
01000000
00010000
01000000
00000000
00002000
00000000
00013000
00000000
,
00020000
00030100
00000200
00000310
,
00000002
00000000
00000103
00000000
00000010
00001000
00000010
00000000
,
00010000
00001000
00010000
00000000
22000000
00000000
33000000
00000000
,
02020000
03030000
00010100
00000110
,
00000010
00001000
00000100
00000000
00000100
00000100
00010000
00000000
,
00010000
00010000
00001000
00000000
00002000
00000000
01000000
00000000
,
01000000
01003000
00020000
00000100
,
00000100
00030100
00101000
01100000
,
01000000
00010000
00100000
00000000
00100000
00100000
00001000
00000000
,
00001000
00001000
00010000
00000000
00020000
00000000
00000010
00000000
,
00000010
00030010
00000110
00000000
,
01100000
00000000
00011000
00000000
;

//---------------dance-double - ----------------
#NOTES:
     dance-double:
     :
     Easy:
     5:
     0.229907,0.302339,0.124998,0.164060,0.000000,206.000000,190.000000,16.000000,21.000000,0.000000,0.000000,0.229907,0.302339,0.124998,0.164060,0.000000,206.000000,190.000000,16.000000,21.000000,0.000000,0.000000:
00000000
00000000
00000000
00000000
,
00000000
00000000
00000000
00000000
,
00000000
00000000
00000000
00000000
,
00000000
00000000
00000000
00000000
,
00000000
00000000
00000000
00000000
,
00200000
00000000
00000000
00020000
00000000
00000000
00000000
00000000
,
00000000
00000000
00000000
00330000
,
00000020
00000000
00000000
00002000
00000000
00000000
00000000
00000000
,
00000000
00000000
00000000
00003030
,
00000010
00001000
00000100
00010000
,
00000000
00010000
00000000
00010000
,
00001000
01000000
00100000
10000000
,
00000000
10000000
00010000
00000000
,
01000000
00010000
00100000
00001000
,
00000000
00001000
00000000
00001000
,
00010000
00000010
00000100
00000001
,
00000000
00000000
00000001
00000000
00000000
00001000
00001000
00000000
,
00000000
00001100
00000000
00001010
,
00000000
00011000
00000000
00110000
,
10000000
10000000
00010000
00000000
,
10000000
10000000
00010000
00000000
,
02000000
00010000
00010000
03010000
,
00000200
00000001
00000001
00000301
,
00000010
00000000
00000010
00000000
,
00002020
00003030
00220000
00330000
,
00011000
00010000
00001000
00000010
,
00000001
00000001
00001000
00001000
,
00000010
00010000
00001000
00001000
,
00100000
00010000
01000000
01000000
,
00010000
00100000
01000000
10000000
,
10000000
01000000
00100000
00010000
,
00001000
00000100
00000010
00000001
,
00000001
00000010
00000100
00001000
,
00000010
00000010
00001000
00000000
,
00001000
00001000
00000100
00000000
,
00000100
00000100
00010000
00010000
,
00002000
00000000
01003000
00000000
,
00100000
10000000
01000000
00000000
,
10000000
10000000
00010000
00000000
,
10000000
00010000
00100000
00001000
,
00002000
00000000
00103000
00000000
,
01000000
00100000
00001000
00001000
,
00000000
00001000
00000000
00001000
,
00010000
00000010
00000100
00000001
,
00000000
00000001
00002000
00003000
,
00000010
00001000
00000100
00010000
,
00000000
00010000
00000000
00010000
,
00001000
01000000
00100000
10000000
,
11000000
00110000
00001010
00000010
,
00000100
00000100
00000001
00000100
,
00000010
00000010
00001000
00001000
,
00000100
00000000
00001000
00001000
,
00000100
00000000
01000000
00100000
,
10000000
10000000
01000000
00100000
,
00010000
00010000
00001000
00000100
,
00000010
00000010
00000022
00000033
,
00002200
00003300
01010000
00001000
,
00100000
01000000
10000000
10000000
,
00010000
00010000
01000000
00001000
,
00010000
00010000
00000100
00001000
,
00000010
00000010
00001000
00000100
,
00000010
00000001
00000001
00000010
,
00000100
00001000
00010000
01000000
,
00010000
00100000
00220000
00330000
,
00002020
00003030
00011000
00000000
;

//---------------dance-single - ----------------
#NOTES:
     dance-single:
     :
     Medium:
     9:
     0.280130,0.377924,0.132810,0.257808,0.000000,251.000000,234.000000,17.000000,33.000000,0.000000,0.000000,0.280130,0.377924,0.132810,0.257808,0.000000,251.000000,234.000000,17.000000,33.000000,0.000000,0.000000:
0000
0000
0000
0000
,
0000
0000
0000
0000
,
0000
0000
0000
0000
,
0000
0000
0000
0000
,
0000
0000
0000
0000
,
0020
0000
0000
0002
0000
0000
0000
0000
,
0000
0000
0000
0033
,
0002
0000
0000
0200
0000
0000
0000
0000
,
0000
0000
0000
0303
,
0010
1000
0100
1000
,
0000
1000
0000
1000
,
1000
0010
0100
0001
,
0000
0001
0002
0000
,
0013
0100
1000
0020
,
0000
0100
0000
0130
,
0100
0010
1000
0200
,
0000
0000
1000
0000
1300
0001
0001
0000
,
0100
0010
1000
0000
,
0100
1000
0010
0000
,
0100
0100
0001
0000
,
0100
0100
0001
0000
,
0001
0010
0001
0000
0100
0010
0100
0000
,
0010
1000
0100
0000
0100
1000
0010
0000
,
2000
0001
0001
3001
,
0220
0330
2020
3030
,
1001
0000
0001
0000
0010
0100
1000
0000
,
0010
0000
0010
0000
0100
0001
0010
0000
,
0001
0100
1000
0000
1000
0000
1000
0000
,
1000
0100
0001
0000
0001
0000
0001
0000
,
0001
0010
0100
0000
1000
0000
1000
0000
,
0010
0100
0010
0000
0010
0000
1010
0000
,
1000
0100
1000
0000
0001
0010
0001
0000
,
0200
0010
0010
0310
,
0010
1000
0100
0100
,
2000
0001
0001
3001
,
0001
0100
0001
0000
1000
0010
1000
0000
,
0010
0100
0010
0100
0010
0100
0010
0000
,
0010
1000
0100
0000
1000
0000
1000
0000
,
0002
0100
0100
0103
,
0001
0010
0100
1000
,
0010
0010
0220
0330
,
0010
1000
0100
2000
,
0000
0001
0001
3001
,
0001
0100
0010
0200
,
0000
0001
0002
0303
,
0001
0010
0100
0020
,
0000
0000
0001
0000
0100
0000
0001
0030
,
0001
0100
0010
1000
,
1100
0011
1001
0110
,
0010
1000
0100
0000
1000
1000
0001
0000
,
1000
1000
0001
0000
0200
0000
0000
0010
,
0000
0310
0000
0000
0020
0000
0000
0100
,
0000
0130
0000
0000
0010
1000
0100
0000
,
1000
0000
1000
0000
0001
0010
0001
0000
,
0100
0000
0100
0000
0001
0010
0001
0000
,
0100
0001
0100
0000
0220
0000
0330
0000
,
2020
3030
1100
1000
,
0010
0100
0001
0000
0010
0000
0010
0000
,
0001
0100
0001
0000
2000
0000
0100
0000
,
0010
0000
0001
3000
0002
0000
0100
0000
,
0010
0000
1003
0000
0010
0100
0010
0000
,
0100
0000
0101
0000
0001
0010
0100
0000
,
1000
0000
1010
0000
0010
0100
0010
0000
,
1000
0100
2200
3300
,
0022
0033
1001
0000
;

//---------------dance-single - ----------------
#NOTES:
     dance-single:
     :
     Easy:
     6:
     0.242184,0.327534,0.101561,0.242184,0.000000,217.000000,204.000000,13.000000,31.000000,0.000000,0.000000,0.242184,0.327534,0.101561,0.242184,0.000000,217.000000,204.000000,13.000000,31.000000,0.000000,0.000000:
0000
0000
0000
0000
,
0000
0000
0000
0000
,
0000
0000
0000
0000
,
0000
0000
0000
0000
,
0000
0000
0000
0000
,
2000
0000
0000
0020
0000
0000
0000
0000
,
0000
0000
0000
3030
,
0200
0000
0000
0002
0000
0000
0000
0000
,
0000
0000
0000
0303
,
0001
0010
0100
0000
,
0100
1000
0010
0000
,
0010
0100
0001
0000
,
0010
0010
0010
0000
,
0001
1000
0001
0000
,
0100
0010
1000
0000
,
0100
0100
1000
0000
,
0001
1000
0002
0103
,
0100
0100
0010
0000
,
0100
0100
0010
0000
,
0010
1000
0100
0000
,
1000
0001
1000
0000
,
0002
0103
0200
0310
,
0020
1030
2000
3100
,
0100
1000
0010
0100
,
0022
0033
2200
3300
,
1001
0001
0100
0100
,
0010
1000
0100
0100
,
1000
0010
0100
0001
,
0010
0010
0001
0001
,
0100
0010
1000
0100
,
1000
0010
0010
0100
,
0001
0010
0100
1000
,
0002
1000
1000
1003
,
1000
0010
0100
0001
,
0020
0031
0002
0103
,
0010
1000
0100
1000
,
0002
1000
2000
3003
,
0010
0100
0001
0010
,
0100
0200
1300
0000
,
1000
0010
1000
0000
,
0001
0100
0001
0000
,
0010
0001
0100
0020
,
0000
0100
0000
0130
,
0010
1000
0100
2000
,
0000
0001
0002
3003
,
0001
0100
0010
2000
,
0000
0100
0000
3100
,
1000
0010
0100
0001
,
0011
0110
1001
1010
,
0010
0100
0001
0010
,
0100
0100
1000
1000
,
0010
0010
1000
1000
,
0010
0010
0100
0001
,
0010
0010
0001
0100
,
0010
0010
1000
0100
,
1000
0001
0202
0303
,
0022
0033
1100
1000
,
0001
0100
0010
0010
,
1000
0000
0100
0000
1000
1000
1000
0000
,
0001
0001
0001
0000
0001
0001
0001
0000
,
1000
1000
1000
0000
0010
0000
0100
0000
,
0001
0010
0001
0001
,
1000
1000
0100
1000
,
0010
0100
0022
0033
,
2200
3300
1001
0000
;

//---------------dance-single - ----------------
#NOTES:
     dance-single:
     :
     Beginner:
     2:
     0.130578,0.176364,0.039062,0.015625,0.000000,117.000000,112.000000,5.000000,2.000000,0.000000,0.000000,0.130578,0.176364,0.039062,0.015625,0.000000,117.000000,112.000000,5.000000,2.000000,0.000000,0.000000:
// measure 0
0000
0000
0000
0000
,  // measure 1
0000
0000
0000
0000
,  // measure 2
0000
0000
0000
0000
,  // measure 3
0000
0000
0000
0000
,  // measure 4
0000
0000
0000
0000
,  // measure 5
2000
0000
0000
3000
,  // measure 6
0000
0000
0000
0000
,  // measure 7
0002
0000
0000
0003
,  // measure 8
0000
0000
0000
0000
,  // measure 9
0110
0000
0100
0000
,  // measure 10
0100
0000
0000
0000
,  // measure 11
0010
0000
0010
0000
,  // measure 12
0010
0000
0000
0000
,  // measure 13
1000
0000
1000
0000
,  // measure 14
1000
0000
0000
0000
,  // measure 15
0001
0000
0001
0000
,  // measure 16
0001
0000
0000
0000
,  // measure 17
0010
0000
0010
0000
,  // measure 18
0001
0000
0001
0000
,  // measure 19
1000
0000
0000
0000
,  // measure 20
0001
0000
0000
0000
,  // measure 21
1000
0000
1000
0000
,  // measure 22
0010
0000
0010
0000
,  // measure 23
0100
0000
0000
0000
,  // measure 24
0001
0000
1000
0000
,  // measure 25
1001
0000
1000
0000
,  // measure 26
0100
0000
1000
0000
,  // measure 27
0010
0000
0100
0000
,  // measure 28
0001
0001
0001
0000
,  // measure 29
1000
0000
0100
0000
,  // measure 30
1000
0000
0010
0000
,  // measure 31
0100
0000
0001
0000
,  // measure 32
0010
0010
0010
0000
,  // measure 33
0001
0000
1000
0000
,  // measure 34
0001
0001
0001
0000
,  // measure 35
1000
0000
0010
0000
,  // measure 36
1000
1000
1000
0000
,  // measure 37
0100
0000
0010
0000
,  // measure 38
0001
0000
0100
0000
,  // measure 39
0010
0010
0010
0000
,  // measure 40
0100
0000
0000
0000
,  // measure 41
0010
0000
1000
0000
,  // measure 42
0100
0000
0000
0000
,  // measure 43
0100
0000
0010
0000
,  // measure 44
0001
0000
0000
0000
,  // measure 45
1000
0000
0010
0000
,  // measure 46
0100
0000
0000
0000
,  // measure 47
0001
0000
1000
0000
,  // measure 48
0010
1000
0110
0000
,  // measure 49
0010
0000
1000
0000
,  // measure 50
0100
0000
1000
0000
,  // measure 51
1000
0000
0001
0000
,  // measure 52
0001
0000
0100
0000
,  // measure 53
0010
0000
1000
0000
,  // measure 54
1000
0000
0100
0000
,  // measure 55
1000
0000
0001
0000
,  // measure 56
1000
0000
1001
0000
,  // measure 57
0001
0000
0100
0000
,  // measure 58
0010
0000
1000
1000
,  // measure 59
1000
0000
0001
0001
,  // measure 60
0001
0000
0010
0000
,  // measure 61
0100
0000
1000
0000
,  // measure 62
0010
0000
0100
0100
,  // measure 63
0100
0000
0001
0000
,  // measure 64
1000
0000
1001
0000
;
