#TITLE:R.I.P.;
#SUBTITLE:;
#ARTIST:eicateve;
#TITLETRANSLIT:;
#SUBTITLETRANSLIT:;
#ARTISTTRANSLIT:;
#GENRE:;
#CREDIT:BadWolf;
#BANNER:R.I.P.png;
#BACKGROUND:R.I.P-bg.png;
#LYRICSPATH:;
#CDTITLE:cdtitle.png;
#MUSIC:R.I.P.ogg;
#OFFSET:-0.007987;
#SAMPLESTART:19.983253;
#SAMPLELENGTH:20.000000;
#SELECTABLE:YES;
#BPMS:0.000000=96.000000
,32.000000=192.000000
,160.000000=48.000000
,168.000000=96.000000
,184.000000=48.000000
,196.000000=96.000000
,198.000000=192.000000
,326.000000=96.000000
;
#STOPS:196.000000=3.750000,
331.000000=20.000000
;
#BGCHANGES:0.000=R.I.P.mp4=1.000=0=0=1===CrossFade_Fastest==,
331.000=R.I.P-bg.png=1.000=1=0=1===CrossFade==,
99999=-nosongbg-=1.000=0=0=0 // don't automatically add -songbackground-
;
#KEYSOUNDS:;
#ATTACKS:;

//---------------dance-single - ----------------
#NOTES:
     dance-single:
     :
     Hard:
     17:
     0.790148,1.169914,0.055172,0.096552,0.710345,802.000000,794.000000,8.000000,14.000000,0.000000,0.000000,0.790148,1.169914,0.055172,0.096552,0.710345,802.000000,794.000000,8.000000,14.000000,0.000000,0.000000:
0000
0000
0000
0000
,
0000
0000
0000
0000
,
0000
0000
0000
0000
,
0000
0000
0000
0000
,
1000
0010
1000
0001
0100
0001
1000
0010
1000
0001
0100
0001
1000
0010
0100
0001
,
1000
0100
1000
0001
0010
0001
1000
0100
1000
0001
0010
0001
1000
0100
0010
0001
,
1000
0010
1000
0001
0100
0001
1000
0010
1000
0001
0100
0001
1000
0010
0100
0001
,
1000
0000
0100
0000
1000
0000
0100
0000
0010
0000
0001
0000
0010
0000
0001
0000
1000
0001
1000
0001
1000
0001
1000
0001
1000
0100
0010
0001
1000
0100
0010
0001
,
1000
0010
0100
0010
1000
0001
0100
0001
,
1000
0000
0100
0000
0010
0000
0001
0000
1000
0010
1000
0010
0100
0001
0100
0001
,
1000
0100
0010
0100
1000
0001
0010
0001
,
1000
0000
0010
0000
0100
0000
0001
0000
0010
0100
0010
0100
1000
0001
1000
0001
,
1000
0010
0100
0010
0001
0010
0100
0010
,
1000
0000
0100
0000
0010
0000
0001
0000
0100
0010
0100
0010
1000
0000
0001
0000
,
0010
0000
0100
0000
0010
0000
1000
0000
0010
0000
0100
1000
0001
0000
1000
0001
,
1000
0000
1000
0000
0010
0000
0010
0000
0100
0001
0100
0001
1000
0000
0001
1000
,
0001
0010
0100
0010
0001
1000
0100
1000
,
0001
0000
0100
0000
0010
0000
1000
0000
0001
0010
0001
0010
0100
1000
0100
1000
,
0001
0100
0010
0100
0001
1000
0010
1000
,
0001
0000
0010
0000
0100
0000
1000
0000
0010
0100
0010
0100
0001
1000
0001
1000
,
0001
0010
0100
0010
1000
0010
0100
0010
,
0001
0000
0100
0000
0010
0000
1000
0000
0100
0010
0100
0010
0001
0000
1000
0000
,
0010
0100
0010
0001
0010
0100
0001
1000
,
0001
0000
0000
0000
0010
0000
0000
0000
0001
0000
0000
0000
0010
0000
0000
0000
0100
0000
0000
0000
0010
0000
0000
0000
0100
0000
0000
0000
1000
0000
0000
0000
0100
0000
0000
0000
1000
0000
0000
0001
0000
0000
1000
0000
0000
0001
0000
0000
,
1000
0010
0010
0100
0101
0000
1000
0100
,
0010
0000
0001
1000
0001
0000
0100
0000
0100
0000
0010
1000
0001
0000
0010
0000
,
0100
1000
0001
0000
1000
0000
0010
0000
0110
0000
0100
0000
0001
0000
1000
0000
,
0100
0000
0010
0001
1000
0000
0010
0000
0100
0000
0001
1000
0010
0000
0100
0001
,
1000
0100
0100
0010
0011
0000
1000
0010
,
0100
0000
0001
1000
0001
0000
0010
0000
0010
0000
0100
1000
0001
0000
0100
0000
,
0010
1000
0001
0000
1000
0000
0100
0000
0110
0000
0010
0000
0001
0000
1000
0001
,
1000
0001
1000
0000
0010
0000
0100
0001
1000
0000
0100
0000
0010
0000
0001
1000
,
0001
0100
0100
0010
1010
0000
0001
0010
,
0100
0000
1000
0001
1000
0000
0010
0000
0010
0000
0100
0001
1000
0000
0100
0000
,
0010
0001
1000
0000
0001
0000
0100
0000
0110
0000
0010
0000
1000
0000
0001
0000
,
0010
0000
0100
1000
0001
0000
0100
0000
0010
0000
1000
0001
0100
0000
0010
1000
,
0001
0010
0010
0100
1100
0000
0001
0100
,
0010
0000
1000
0001
1000
0000
0100
0000
0100
0000
0010
0001
1000
0000
0010
0000
,
0100
0001
1000
0000
0001
0000
0010
0000
0110
0000
0100
0000
1000
0000
0001
0000
,
0000
1000
0010
0001
1000
0100
0002
0000
,
2000
0003
0200
3000
,
0020
0300
0002
0030
,
1003
0100
0010
0001
1000
0100
0010
0001
1000
0010
0100
0001
1000
0010
0100
0001
,
0010
0100
1000
0001
0010
0100
1000
0001
0100
0010
1000
0001
0100
0010
1000
0001
,
1000
0001
0010
0100
1000
0001
0010
0100
1000
0001
0100
0010
1000
0001
0100
0010
,
1000
0100
0010
0001
1000
0100
0010
0001
1000
0010
0100
0001
1000
0010
0100
0001
,
2000
0001
3200
1000
0320
0100
0032
0010
,
0203
0001
0320
0100
2030
0010
3002
0000
,
0000
0000
0000
0000
,
0003
0000
1000
0001
1000
0010
0001
1000
,
0100
0001
1000
0100
0010
1000
0010
0001
,
1000
0010
0100
0001
1000
0001
0010
0100
,
0001
0100
0010
0001
1000
0010
0100
1000
,
0100
0010
1000
0001
1000
0100
0010
0100
,
0001
0100
0010
0001
0100
1000
0100
0010
,
0100
0001
1000
0001
0010
0100
1000
0001
,
0100
0010
1000
0001
0010
1000
0010
0100
,
1000
0010
0001
0010
1000
0100
0010
0100
,
0001
0100
0010
0100
1000
0100
0010
0100
,
0001
0000
0100
0000
0010
0000
0001
1000
0001
0000
0100
0000
0010
0000
0100
0000
,
1000
0100
0010
0100
0001
0100
0010
0100
,
1000
0000
0100
0000
0010
0000
1000
0001
1000
0000
0010
0000
0001
0000
1000
0000
,
0100
0001
1000
0010
0001
1000
0100
0001
,
1000
0000
0100
0000
0010
0000
0001
1000
0001
0000
0100
0000
0001
0000
0100
0000
,
0010
0000
1000
0000
0010
0000
1000
0000
0100
0010
0100
0010
0100
0010
0100
0010
,
0001
0010
0100
1000
0001
0010
0100
1000
0001
0000
1000
0010
1000
0000
0001
0000
,
0010
0000
0100
1000
0100
0000
1000
0000
0010
0000
0100
0001
1000
0000
0100
0000
,
0010
0001
0010
0001
1000
0100
0010
0001
1000
0000
0001
0100
0001
0000
1000
0000
,
0100
0000
0010
0001
0010
0000
0001
0000
0100
0000
0010
1000
0001
0000
0010
0000
,
0100
1000
0100
1000
0001
0010
0100
1000
0001
0000
0100
0010
0100
0000
0001
0000
,
1000
0000
0100
0010
0001
0000
1000
0000
0010
0000
0100
0001
0100
0000
0010
0000
,
1000
0100
0010
0001
0100
0010
0100
0010
1000
0000
0001
0010
0100
0000
1000
0000
,
0010
0000
0100
0001
0100
0000
0010
0000
1000
0000
0100
0010
0100
0000
1000
0000
,
0001
0010
0100
1000
0010
0100
0010
0100
0001
1000
0001
1000
0010
0000
0100
0000
,
0001
0010
0001
0010
0100
0000
1000
0000
0010
0100
0010
0100
0001
0000
1000
0000
,
0100
0010
0001
1000
0100
0010
0001
1000
0001
0100
0001
0100
0010
0000
1000
0000
,
0100
0010
0100
0010
0001
0000
1000
0000
0010
1000
0010
1000
0001
0000
0010
0000
,
0100
1000
0001
0010
0100
1000
0100
0010
0001
1000
0010
1000
0001
0000
1000
0000
,
0100
0010
0001
1000
0001
0000
0100
0000
0001
1000
0010
1000
0001
0000
1000
0000
,
0001
0010
0100
1000
0001
0000
1000
0000
0010
0100
0001
1000
0100
0000
0010
0000
,
0100
1000
0010
0100
0001
0000
1000
0000
0100
0010
0100
0010
0100
0010
0100
0010
,
0001
0010
0100
1000
0010
0100
0001
2000
0000
0000
0000
0000
0000
0000
0000
0000
,
0000
0000
0000
3000
;

//---------------dance-single - ----------------
#NOTES:
     dance-single:
     :
     Medium:
     14:
     0.586207,0.941638,0.082759,0.103448,0.213793,595.000000,583.000000,12.000000,15.000000,0.000000,0.000000,0.586207,0.941638,0.082759,0.103448,0.213793,595.000000,583.000000,12.000000,15.000000,0.000000,0.000000:
// measure 0
0000
0000
0000
0000
,  // measure 1
0000
0000
0000
0000
,  // measure 2
0000
0000
0000
0000
,  // measure 3
0000
0000
0000
0000
,  // measure 4
1000
0100
0010
0001
0010
0100
1000
0001
,  // measure 5
1000
0010
0100
0001
0100
0010
1000
0001
,  // measure 6
1000
0100
0001
1000
0010
0001
1000
0001
,  // measure 7
1000
0000
1000
0000
0010
0000
0010
0000
0100
0001
0100
0001
2000
0000
3002
0000
,  // measure 8
1003
0000
0011
0000
1000
0100
0010
0000
,  // measure 9
0001
0000
1100
0000
0001
0100
0010
1000
,  // measure 10
0001
0000
1100
0000
0001
0010
0100
0000
,  // measure 11
1000
0000
0011
0000
1000
0010
0100
0001
,  // measure 12
1000
0000
0101
0000
1000
0010
0100
0000
,  // measure 13
0001
0000
1010
0000
0001
0010
0100
1000
,  // measure 14
0001
0000
0100
0010
1000
0100
0010
0001
,  // measure 15
1000
1000
0001
0001
1000
0010
0001
0010
,  // measure 16
1000
0000
0011
0000
1000
0100
0010
0001
,  // measure 17
0100
0000
1010
0000
0001
0010
0100
1000
,  // measure 18
0001
0000
1010
0000
0001
0100
0010
1000
,  // measure 19
0100
0000
0011
0000
1000
0010
0100
0001
,  // measure 20
1000
0000
0101
0000
1000
0010
0100
0001
,  // measure 21
0010
0000
1100
0000
0001
0100
0010
1000
,  // measure 22
0001
0000
0000
0000
0010
0000
0000
0100
0000
0000
1000
0000
0000
0001
0000
0000
,  // measure 23
1000
0010
1000
0010
1000
0010
0100
0001
1000
0010
0100
0001
,  // measure 24
1000
0100
1000
0100
0010
0010
0001
0001
,  // measure 25
0000
0000
1000
0001
1000
0010
0001
0010
,  // measure 26
1000
0001
1000
0001
0010
0100
1000
0001
,  // measure 27
0001
0100
0100
0010
1000
0100
0010
0000
,  // measure 28
0001
0100
0001
0100
0010
0010
1000
1000
,  // measure 29
0000
0000
0001
1000
0001
0010
1000
0010
,  // measure 30
0001
1000
0001
1000
0010
0100
0001
1000
,  // measure 31
1000
0100
0100
0010
0001
0100
0010
1000
,  // measure 32
0001
0010
0001
0010
0100
0100
1000
1000
,  // measure 33
0000
0000
0001
1000
0001
0100
1000
0100
,  // measure 34
0001
1000
0001
1000
0100
0010
0001
1000
,  // measure 35
1000
0010
0010
0100
0001
0010
0100
0000
,  // measure 36
1000
0010
1000
0010
0100
0100
0001
0001
,  // measure 37
0000
0000
1000
0001
1000
0100
0001
0100
,  // measure 38
1000
0001
1000
0001
0100
0010
1000
0001
,  // measure 39
0000
1000
0100
1000
0001
0010
0001
0000
,  // measure 40
2000
0000
3020
0000
,  // measure 41
0230
0000
0302
0000
,  // measure 42
1003
0100
0010
0001
1000
0100
0010
0001
1000
0100
0010
0001
1000
0100
0010
0001
,  // measure 43
1000
0010
0100
0001
1000
0010
0100
0001
1000
0010
0100
0001
1000
0010
0100
0001
,  // measure 44
1000
0100
0010
0001
1000
0100
0010
0001
1000
0100
0010
0001
1000
0100
0010
0001
,  // measure 45
1000
0010
0100
0001
1000
0010
0100
0001
1000
0010
0100
0001
1000
0010
0100
0001
,  // measure 46
2000
3200
0320
0032
,  // measure 47
0203
0320
2030
3002
,  // measure 48
0000
0000
0000
0000
,  // measure 49
0003
0000
1000
0001
1000
0000
0100
0000
,  // measure 50
0010
0001
1000
0000
0010
0000
0100
0000
,  // measure 51
0001
1000
0001
1000
0100
0000
0010
0000
,  // measure 52
0001
0100
0010
0000
1000
0000
0100
0000
,  // measure 53
0010
0001
0010
0001
1000
0000
0010
0000
,  // measure 54
0100
0001
1000
0000
0100
0000
0010
0000
,  // measure 55
0001
1000
0001
1000
0010
0000
0100
0000
,  // measure 56
0001
0010
0100
0000
1000
0000
0010
0000
,  // measure 57
0100
0001
0100
0001
1000
0100
0010
0001
,  // measure 58
1000
0100
0010
0001
1000
0010
0100
0001
,  // measure 59
1000
0000
0001
0000
1000
0000
0001
1000
0001
0000
0010
0000
0100
0000
1000
0000
,  // measure 60
0001
0010
0100
1000
0001
0100
0010
1000
,  // measure 61
0001
0000
1000
0000
0001
0000
1000
0001
1000
0000
0100
0000
0010
0000
0001
0000
,  // measure 62
1000
0010
0100
0001
1000
0100
0010
0001
,  // measure 63
0010
0000
0100
0000
1000
0000
0001
1000
0001
0000
0100
0000
0001
0000
0100
0000
,  // measure 64
0010
1000
0010
1000
0001
0010
0100
1000
,  // measure 65
0010
0100
0010
0100
0010
0100
0010
0100
0001
0000
0010
0000
0001
0000
0010
0000
,  // measure 66
1000
0010
1000
0010
0001
0010
0001
0010
,  // measure 67
0100
1000
0100
0010
0001
0100
0001
0100
,  // measure 68
1000
0100
1000
0100
0001
0100
0001
0100
,  // measure 69
0010
1000
0010
0100
0001
0010
0001
0010
,  // measure 70
1000
0010
1000
0010
0001
0100
0001
0100
,  // measure 71
0010
1000
0100
0010
0001
0100
0001
0100
,  // measure 72
1000
0100
1000
0100
0001
0010
0001
0010
,  // measure 73
0100
1000
0010
0100
0001
0010
0001
0010
,  // measure 74
0100
0010
0100
0010
1000
0010
1000
0010
,  // measure 75
0100
0000
1000
0000
0001
0000
1000
0001
1000
0000
0010
0000
1000
0000
0010
0000
,  // measure 76
0100
0010
0100
0010
0001
0010
0001
0010
,  // measure 77
0100
0000
0001
0000
1000
0000
0001
1000
0001
0000
0010
0000
0100
0000
1000
0000
,  // measure 78
0010
0100
0001
1000
0100
0010
0001
0100
,  // measure 79
0010
0000
1000
0000
0001
0000
1000
0001
1000
0000
0100
0000
1000
0000
0100
0000
,  // measure 80
0010
0000
0001
0000
0010
0000
0001
0000
1000
0001
1000
0001
1000
0001
1000
0001
,  // measure 81
0100
0010
0100
0010
1000
0001
1000
0002
0000
0000
0000
0000
0000
0000
0000
0000
,  // measure 82
0000
0000
0000
0003
;

//---------------dance-single - ----------------
#NOTES:
     dance-single:
     :
     Easy:
     10:
     0.401970,0.485086,0.000000,0.193103,0.010345,408.000000,408.000000,0.000000,28.000000,0.000000,0.000000,0.401970,0.485086,0.000000,0.193103,0.010345,408.000000,408.000000,0.000000,28.000000,0.000000,0.000000:
0000
0000
0000
0000
,
0000
0000
0000
0000
,
0000
0000
0000
0000
,
0000
0000
0000
0000
,
2000
0000
0000
0000
0000
0000
3001
1000
,
0002
0000
0000
0000
0000
0000
0000
0000
0000
0000
0000
0000
1003
0001
0000
0000
,
0200
0000
0000
0000
0000
0000
0310
0100
,
0001
1000
0001
1000
0100
0010
0001
1000
,
0001
0100
0010
0100
,
0001
0000
1000
0000
0100
0010
0100
0010
,
0001
1000
0010
1000
,
0001
0000
0010
0000
0100
1000
0100
1000
,
0001
0100
1000
0100
,
0001
0000
1000
0000
0100
0010
0100
0010
,
0001
0000
1000
0000
0001
1000
0001
0000
,
0100
0010
0100
0010
0100
0010
1000
0000
,
0001
0000
0010
0000
0100
1000
0100
0000
,
1000
0000
0001
0000
0100
0010
0100
0010
,
1000
0000
0100
0000
0010
0001
0010
0000
,
0001
0000
1000
0000
0010
0100
0010
0100
,
0001
0000
0010
0000
0100
1000
0001
0000
,
0100
0000
0010
0000
1000
0001
1000
0001
,
1000
0000
0000
0000
0100
0000
0000
0010
0000
0000
0001
0000
0000
1000
0000
0000
,
0002
0203
0320
2030
,
3001
1000
0001
1000
0100
0000
0010
0002
,
0000
0000
0003
1000
0010
0001
0010
1000
,
0001
0100
0001
0100
0010
0000
1000
0002
,
0000
0000
0000
1003
0100
0010
0001
0000
,
1000
0001
1000
0001
0100
0000
0010
2000
,
0000
0000
0000
3001
0010
1000
0010
0001
,
1000
0100
1000
0100
0010
0000
0001
2000
,
0000
0000
0000
3001
0100
0010
1000
0001
,
1000
0001
1000
0001
0010
0000
0100
2000
,
0000
0000
3000
0001
0100
1000
0100
0001
,
1000
0010
1000
0010
0100
0000
0001
2000
,
0000
0000
0000
3001
0010
0100
1000
0000
,
0001
1000
0001
1000
0010
0000
0100
0002
,
0000
0000
0000
1003
0100
0001
0100
1000
,
0001
0010
0001
0010
0100
0000
1000
0002
,
0000
0000
0000
1003
0010
0100
0001
0000
,
2000
0000
3200
0000
,
0320
0000
0032
0000
,
1003
0100
0010
0001
1000
0100
0010
0001
,
1000
0010
0100
0001
1000
0010
0100
0001
,
1000
0100
0010
0001
1000
0100
0010
0001
,
1000
0010
0100
0001
1000
0010
0100
0001
,
2000
3200
0320
0032
,
0203
0320
2030
3002
,
0000
0000
0000
0000
,
0003
0000
1000
0001
1000
0000
0100
0000
,
0010
0100
1000
0100
,
0010
0001
1000
0010
,
0100
0010
1000
0010
,
0100
0001
0010
0100
,
1000
0001
0010
0100
,
1000
0001
0100
0010
,
1000
0001
0100
0010
,
1000
0001
1000
0100
,
0001
0100
1000
0100
,
0001
0100
1000
0010
,
0001
0010
1000
0010
,
0001
0010
1000
0100
,
0010
0100
0001
0100
,
0010
0000
0100
0000
1000
0001
1000
0001
,
1000
0001
1000
0001
1000
0100
0010
0001
,
0010
0100
1000
0000
0010
0000
0100
0000
,
0001
1000
0100
0000
0010
0000
0001
0000
,
0100
0010
0100
0010
1000
0000
0100
0000
,
0010
0001
1000
0000
0010
0000
0100
0000
,
0001
0010
0100
1000
0001
0000
0100
0000
,
0010
1000
0010
0000
0100
0000
0001
0000
,
0010
0100
1000
0001
1000
0000
0010
0000
,
0100
0001
1000
0000
0100
0000
0010
0000
,
0001
1000
0010
1000
0001
0010
0100
0000
,
1000
0001
0100
0000
0010
1000
0001
0000
,
1000
0100
0010
0001
1000
0010
0100
0000
,
0001
1000
0100
0000
0010
0001
1000
0000
,
0001
0100
0010
1000
0001
0010
0100
0000
,
0010
0001
1000
0000
0100
1000
0001
0000
,
1000
0010
0001
0010
1000
0100
0010
0000
,
0100
1000
0001
0000
0010
0001
1000
0000
,
0001
0100
1000
0100
0002
0000
0000
0000
,
0000
0000
0000
0003
;

//---------------dance-single - ----------------
#NOTES:
     dance-single:
     :
     Beginner:
     6:
     0.248276,0.285345,0.006897,0.165517,0.000000,252.000000,251.000000,1.000000,24.000000,0.000000,0.000000,0.248276,0.285345,0.006897,0.165517,0.000000,252.000000,251.000000,1.000000,24.000000,0.000000,0.000000:
0000
0000
0000
0000
,
0000
0000
0000
0000
,
0000
0000
0000
0000
,
0000
0000
0000
0000
,
2000
0000
0000
0000
,
3020
0000
0000
0000
,
0230
0000
0000
0000
,
0301
1000
0001
1000
0002
0000
2003
0000
,
3001
0000
1000
0000
,
0001
0000
1000
0100
,
0010
0000
0100
0000
,
0010
0000
0100
1000
,
0001
0000
1000
0000
,
0001
0000
1000
0010
,
0100
0000
0010
0000
,
0100
0100
0010
0010
,
1000
0001
1000
0001
,
0100
0010
0100
0010
,
1000
0100
1000
0100
,
0010
0001
0010
0001
,
1000
0010
1000
0010
,
0100
0001
0100
0001
,
0010
0100
0010
0100
,
2002
0000
0000
3003
,
1000
0001
1000
0000
,
0010
0000
0100
0000
,
0001
1000
0001
0000
,
0010
0000
0100
0000
,
1000
0010
1000
0000
,
0001
0000
0100
0000
,
0001
0010
0001
0000
,
1000
0000
0100
0000
,
1000
0001
1000
0000
,
0010
0000
0100
0000
,
0001
1000
0001
0000
,
0010
0000
0100
0000
,
1000
0010
1000
0000
,
0001
0000
0100
0000
,
0001
0010
0001
0000
,
2000
0000
3002
0000
,
2003
0000
3200
0000
,
0320
0000
0032
0000
,
1003
0100
0010
0001
,
1000
0100
0010
0001
,
1000
0010
0100
0001
,
1000
0010
0100
0001
,
0020
0230
0320
0230
,
2300
3002
2003
3002
,
0000
0000
0000
0000
,
0003
0000
1000
0001
1000
0000
0010
0000
,
1000
0010
0100
0001
,
0100
0000
0001
0010
,
0001
0010
0100
1000
,
0100
0000
1000
0100
,
1000
0100
0010
0001
,
0010
0000
0001
0100
,
0001
0100
0010
1000
,
0010
0000
1000
0001
,
1000
0001
0010
0100
,
1000
0000
0001
1000
,
0001
1000
0100
0010
,
0001
0000
1000
0001
,
1000
0001
0100
0010
,
1000
0000
0001
1000
,
0001
1000
0010
0100
,
0002
2003
3001
0010
,
0100
0010
0001
1000
,
0001
1000
0010
0100
,
0010
1000
0001
1000
,
0001
1000
0100
0010
,
0001
0010
0100
1000
,
0001
1000
0001
0100
,
0010
1000
0010
0100
,
0001
1000
0001
0001
,
0010
0010
0100
0100
,
1000
0001
1000
1000
,
0010
0010
0100
0100
,
0001
1000
0100
0100
,
0010
0010
0001
0001
,
1000
0001
1000
0100
,
0010
0001
1000
0100
,
0010
0001
2000
0000
,
0000
0000
0000
3000
;
