#VERSION:0.83;
#TITLE:Quon;
#SUBTITLE:;
#ARTIST:DJ Noriken;
#TITLETRANSLIT:;
#SUBTITLETRANSLIT:;
#ARTISTTRANSLIT:;
#GENRE:;
#ORIGIN:;
#CREDIT:;
#BANNER:Quon.png;
#BACKGROUND:Quon-bg.png;
#PREVIEWVID:;
#JACKET:Quon-jacket.png;
#CDIMAGE:;
#DISCIMAGE:;
#LYRICSPATH:;
#CDTITLE:;
#MUSIC:Quon.ogg;
#OFFSET:-0.137071;
#SAMPLESTART:97.549004;
#SAMPLELENGTH:15.000000;
#SELECTABLE:YES;
#BPMS:0.000=170.000,
36.000=85.000,
52.000=170.000,
188.000=85.000,
204.000=170.000;
#STOPS:;
#DELAYS:;
#WARPS:;
#TIMESIGNATURES:0.000=4=4;
#TICKCOUNTS:0.000=4;
#COMBOS:0.000=1;
#SPEEDS:0.000=1.000=0.000=0;
#SCROLLS:0.000=1.000;
#FAKES:;
#LABELS:0.000=Song Start;
#BGCHANGES:;
#KEYSOUNDS:;
#ATTACKS:
;

//---------------dance-single - ----------------
#NOTEDATA:;
#CHARTNAME:;
#STEPSTYPE:dance-single;
#DESCRIPTION:;
#CHARTSTYLE:;
#DIFFICULTY:Challenge;
#METER:16;
#RADARVALUES:0.803488,1.056293,0.330848,0.242084,0.601175,697.000000,656.000000,41.000000,30.000000,0.000000,0.000000,0.000000,0.000000,0.000000,0.803488,1.056293,0.330848,0.242084,0.601175,697.000000,656.000000,41.000000,30.000000,0.000000,0.000000,0.000000,0.000000,0.000000;
#CREDIT:Marten;
#NOTES:
0000
0000
0000
0000
,
0000
0000
0000
0000
,
0000
0000
0000
0000
,
0000
0000
0000
0000
,
0000
0000
0000
0000
,
1010
0000
1000
0000
0001
0000
0010
0001
,
0011
0000
0001
1000
0100
0000
0010
0100
1000
0000
0010
0000
0001
0000
0010
1000
,
0001
0010
0001
0010
0100
1000
0100
1000
0010
1000
0001
1000
0100
0010
0001
1000
,
0001
0001
0100
0001
1000
0000
0010
0000
,
0101
0000
0001
0010
0200
0000
0300
0000
1000
0010
0200
0000
0301
0100
0010
1000
,
0100
0000
1000
0010
0200
0000
0300
0000
0001
0010
0100
0010
0001
0100
0010
1000
,
1001
0000
0010
0001
0200
0000
0300
0000
0010
1000
0200
0000
1300
0010
0001
0010
,
2000
0000
3100
1000
0002
0000
0103
0001
1000
0010
0001
0010
0000
0100
0100
0000
,
1001
0000
0000
0000
1000
0000
0100
0000
0010
0000
0000
1000
0000
0000
0010
0000
,
0001
0000
0000
0000
0001
0000
0100
0000
0010
0000
0000
0001
0000
0000
0010
0000
,
1000
0000
0000
0000
0001
0000
0010
0000
0100
0000
0000
0001
0000
0000
0100
0000
,
1000
0010
0001
0000
1000
0100
0001
1000
,
1001
0001
0100
1000
0100
0010
1000
0100
,
0001
0100
1000
0001
0010
1000
0010
0001
,
0011
0010
0100
1000
1010
0010
0100
0001
,
1000
0001
1000
0000
0100
0000
1000
0000
0001
0000
0010
0000
0010
0000
0000
0000
,
1100
0000
0000
0000
1000
0000
0010
1000
0100
0000
0000
0100
0000
0000
0100
0000
,
0010
0000
1000
0000
0010
0000
0000
0000
0001
0000
0000
1000
0010
0000
0100
0000
,
0101
0000
0000
0000
0001
0000
0010
0001
0100
0000
0000
0100
0000
0000
0100
0000
,
0010
0000
0001
0000
0010
0000
1000
0001
1000
0000
0100
1000
0000
0001
0010
0100
,
1000
0010
1000
0100
0010
0001
0100
0001
,
1000
0010
0100
0010
1000
0001
1000
0100
0010
0001
0010
0100
0010
0001
1000
0001
,
0100
0001
0010
0000
1000
0010
0000
0001
,
1000
1000
0001
1000
0100
0000
0010
0010
,
0002
0000
0000
0000
1003
0010
1000
0010
0100
0000
0001
0100
0000
0001
0100
0000
,
0001
0000
0010
0100
0000
0010
0100
0000
1000
0000
0001
1000
0100
0000
0010
0000
,
0001
0000
0100
0000
0001
0010
0001
0010
0100
0000
1000
0100
0000
1000
0100
0000
,
1000
0000
0010
0100
0000
0010
0100
0000
0001
0000
1000
0001
0200
0000
0000
0000
,
0301
0000
0010
0000
0100
1000
0100
1000
0001
0000
0100
0001
0000
1000
0100
0000
,
1000
0000
0001
0010
0000
0100
0010
0000
0001
0000
1000
0010
0100
0000
0001
0000
,
1001
0100
0100
0010
0100
0100
0001
0010
,
0100
0010
0001
1000
0001
0000
0010
0010
,
0200
0000
0000
0000
1300
0010
0100
0010
1000
0000
0001
0100
0000
0010
0100
0001
,
1000
0000
0100
1000
0000
0001
0010
0100
1000
0000
0001
0010
0001
0000
0100
0000
,
0001
0000
1000
0100
1000
0001
1000
0001
0100
0000
0010
1000
0002
0000
0003
0000
,
0011
0010
1010
0010
0001
1000
0020
0000
,
0130
0000
0001
0000
1000
0100
1000
0001
0100
0000
0010
1000
0000
0001
0010
0100
,
0010
0000
0001
0100
0000
0010
1000
0001
1000
0000
0100
1000
0010
0000
0100
0000
,
0001
0100
0010
0100
0001
1000
0100
1000
0010
0100
0010
1000
0001
0010
0001
1000
,
0100
0100
1000
1000
0001
0000
0010
0000
,
0200
0000
1300
0010
0001
0010
1000
0001
,
0010
1000
0010
0001
1000
0010
0010
0000
,
0200
0000
0301
1000
1002
0000
0013
0100
1000
0010
0100
0010
2010
0000
3100
1000
,
1002
0000
0103
0010
0100
0001
0010
1000
0010
0001
0100
0010
2010
0000
3001
0100
,
0102
0000
0013
0100
2100
0000
3100
1000
0001
0010
1000
0010
0012
0000
0103
0010
,
2010
0000
3100
1000
0001
0100
1000
0100
0001
0010
1000
0010
0002
1000
1003
0000
,
0010
0000
0000
0000
1000
0000
0100
0000
0010
0000
0000
0010
0000
0000
0010
0000
,
0100
0000
1000
0000
0001
0000
0000
0000
0100
0000
0000
0001
1000
0000
0001
0000
,
0010
0000
0000
0000
0001
0000
0100
0000
0010
0000
0000
0010
0000
0000
0010
0000
,
1010
0000
1000
0000
1001
0000
0001
0000
0101
0000
0100
0000
0010
0000
1000
0001
,
1000
0100
0001
0100
0010
0001
0100
0010
,
0100
0000
1000
0000
0100
0000
0010
0000
1000
0000
0001
0000
0010
0000
0100
1000
,
0001
0000
0010
0000
0100
0000
1000
0001
0100
0000
1000
0000
0100
0000
0010
0000
,
1000
0001
1000
0000
0001
0000
0100
0000
0001
0000
0010
0000
0010
0000
0000
0000
,
0200
0000
2300
0000
3002
0100
0103
0001
,
0012
0013
0120
0130
2100
0000
3001
0001
,
0101
0100
1000
0100
0010
1000
0100
0001
,
0100
0000
1000
0000
0001
0000
0100
0000
1000
0000
0100
0001
0100
0000
0001
0000
,
0010
0100
0001
0100
0010
0001
0100
0010
,
0001
0000
1000
0000
0100
0000
0010
0000
1000
0000
0100
1000
0001
0000
0010
0000
,
0110
0100
0010
0001
0100
0010
1000
0100
,
0010
1000
0010
0100
1000
0001
0100
0010
,
1010
0000
1001
1000
1001
0101
0101
0000
,
0110
0000
0110
0010
0110
0001
2000
3000
,
0001
0000
0010
0000
0100
0000
0001
0100
1000
0000
0001
0000
0100
0000
0010
0000
,
0001
0000
0010
0000
0100
0000
1000
0100
0001
0000
1000
0000
0100
0000
1000
0000
,
0001
0000
0010
0000
0100
0000
1000
0010
0001
0000
0010
0000
0100
0000
0001
0000
,
0010
0000
0100
0000
0010
0000
0001
0010
1000
0000
0010
0000
0001
0000
1000
0001
,
0100
0000
0001
0000
1000
0000
0010
1000
0100
0000
0010
0000
1000
0000
0010
0001
,
0100
0000
0010
0000
0100
0000
0001
0100
0010
0000
0001
0000
0010
0000
1000
0100
,
0010
0001
1000
0010
1000
0001
0010
0100
0010
0001
0100
0010
0100
0001
1000
0100
,
1000
0001
0101
1100
1001
0000
0010
0000
,
0110
0000
0000
0000
;
