#VERSION:0.83;
#TITLE:Purity;
#SUBTITLE:;
#ARTIST:Jumper;
#TITLETRANSLIT:;
#SUBTITLETRANSLIT:;
#ARTISTTRANSLIT:;
#GENRE:Melodic Dubstep;
#ORIGIN:;
#CREDIT:;
#BANNER:Purity.png;
#BACKGROUND:Purity-bg.png;
#PREVIEWVID:;
#JACKET:Purity-jacket.png;
#CDIMAGE:;
#DISCIMAGE:;
#LYRICSPATH:;
#CDTITLE:cdtitle.png;
#MUSIC:Purity.mp3;
#OFFSET:-0.260000;
#SAMPLESTART:27.676092;
#SAMPLELENGTH:15.000000;
#SELECTABLE:YES;
#BPMS:0.000=140.000;
#STOPS:;
#DELAYS:;
#WARPS:;
#TIMESIGNATURES:0.000=4=4;
#TICKCOUNTS:0.000=4;
#COMBOS:0.000=1;
#SPEEDS:0.000=1.000=0.000=0;
#SCROLLS:0.000=1.000;
#FAKES:;
#LABELS:0.000=Song Start;
#BGCHANGES:;
#KEYSOUNDS:;
#ATTACKS:
;

//---------------dance-single - ----------------
#NOTEDATA:;
#CHARTNAME:;
#STEPSTYPE:dance-single;
#DESCRIPTION:;
#CHARTSTYLE:;
#DIFFICULTY:Beginner;
#METER:1;
#RADARVALUES:0.112556,0.219240,0.128461,0.034256,0.000000,92.000000,77.000000,15.000000,4.000000,0.000000,0.000000,0.000000,0.000000,0.000000,0.112556,0.219240,0.128461,0.034256,0.000000,92.000000,77.000000,15.000000,4.000000,0.000000,0.000000,0.000000,0.000000,0.000000;
#CREDIT:;
#NOTES:
0000
0000
0000
0000
,
0000
0000
0000
0000
,
0000
0000
0000
0000
,
0000
0000
0000
0000
,
0000
0000
0000
0000
,
0000
0000
0000
0000
,
0000
0000
0000
0000
,
0000
0000
0000
0000
,
1000
0000
0000
0000
,
0000
0000
0000
0000
,
0001
0000
0000
0000
,
0100
0000
0000
0000
,
0010
0000
0000
0000
,
1000
0000
0000
0000
,
0001
0000
0000
0000
,
0100
0000
0000
0000
,
1001
0000
0010
0000
,
0010
0000
0000
0000
,
1001
0000
0100
0000
,
0100
0000
0000
0000
,
0110
0000
0000
0000
,
1001
0000
0000
0000
,
0110
0000
1000
0000
,
0001
0000
0000
0000
,
0020
0000
0030
0000
,
0100
0100
0100
0000
,
1000
0000
0000
0000
,
0001
0000
0000
0000
,
2000
0000
3000
0000
,
0010
0010
0010
0000
,
0100
0000
0000
0000
,
0100
0000
0000
0000
,
1001
0000
0000
0000
,
0000
0000
0000
0000
,
0000
0000
0000
0000
,
0000
0000
0000
0000
,
0001
0000
1000
0000
,
0001
0000
1000
0000
,
0001
0000
0000
0000
,
0100
0100
0110
0000
,
1001
0000
0000
0000
,
0000
0000
0000
0000
,
1000
0000
0000
0000
,
0000
0000
0000
0000
,
1001
0000
0000
0000
,
0001
0000
0000
0000
,
1000
0000
0000
0000
,
0010
0000
0000
0000
,
0110
0000
1001
0000
,
0100
0000
0100
0000
,
0010
0000
0010
0000
,
1000
1000
1000
0000
,
0110
0000
1001
0000
,
0001
0000
0001
0000
,
1000
0000
1000
0000
,
0010
0010
0010
0000
,
0200
0000
0300
0000
,
1001
0000
0000
0000
,
0010
0000
0010
0000
,
0100
0000
0100
0000
,
0020
0000
0030
0000
,
1001
0000
1000
0000
,
1000
0000
0000
0000
,
0001
0000
0001
0001
,
0001
0000
0000
0000
;

//---------------dance-single - ----------------
#NOTEDATA:;
#CHARTNAME:;
#STEPSTYPE:dance-single;
#DESCRIPTION:;
#CHARTSTYLE:;
#DIFFICULTY:Easy;
#METER:3;
#RADARVALUES:0.148036,0.222666,0.051384,0.179845,0.000000,121.000000,115.000000,6.000000,21.000000,0.000000,0.000000,0.000000,0.000000,0.000000,0.148036,0.222666,0.051384,0.179845,0.000000,121.000000,115.000000,6.000000,21.000000,0.000000,0.000000,0.000000,0.000000,0.000000;
#CREDIT:;
#NOTES:
0000
0000
0000
0000
,
0000
0000
0000
0000
,
0000
0000
0000
0000
,
0000
0000
0000
0000
,
0000
0000
0000
0000
,
0000
0000
0000
0000
,
0000
0000
0000
0000
,
0000
0000
0000
0000
,
2000
0000
0000
0000
,
3002
0000
0000
0000
,
2003
0000
0000
0000
,
3020
0000
0000
0000
,
0230
0000
0000
0000
,
0320
0000
0000
0000
,
2030
0000
0000
0000
,
3002
0000
0000
0003
,
1001
1000
0001
0000
,
0010
0000
0100
0000
,
1000
0100
1000
0000
,
0010
0000
0100
0000
,
0010
1000
0010
0000
,
1000
0001
1000
0000
,
0001
0010
0001
0000
,
0100
0001
1000
0001
,
2000
0000
3100
0000
,
1000
1000
0010
0000
,
0100
0000
0001
0000
,
0010
0100
0010
0000
,
0002
0000
0103
0000
,
0010
0010
1000
0000
,
0001
0000
1000
0000
,
0100
1000
0010
0000
,
0100
0000
0000
0000
,
0000
0000
0000
0000
,
0000
0000
0000
0000
,
0000
0000
0000
0000
,
0001
0000
1000
0000
,
0010
0010
0000
0000
,
0100
0000
0001
0000
,
1000
1000
0002
0000
,
0013
0000
0100
0000
,
0010
0000
0000
0000
,
0001
0000
1000
0000
,
0001
0000
0200
0000
,
0310
0000
0000
0000
,
1000
1000
0001
0001
,
0010
0000
0100
0000
,
1000
1000
1001
0000
,
0000
0000
2002
3003
,
0100
0000
0010
0000
,
1000
0000
0001
0000
,
0020
0000
0130
0000
,
1000
0000
2002
3003
,
0010
0000
0001
0000
,
0100
0000
0010
0000
,
2000
0000
3001
0000
,
0020
0000
0130
0100
,
1001
0000
1000
0001
,
1000
0000
0010
0000
,
0100
0000
0001
0000
,
0020
0000
0130
0100
,
1001
0000
1000
0000
,
0010
0000
0100
0000
,
0001
1000
0100
0100
,
0020
0000
0000
0000
,
0030
0000
0000
0000
;

//---------------dance-single - ----------------
#NOTEDATA:;
#CHARTNAME:;
#STEPSTYPE:dance-single;
#DESCRIPTION:;
#CHARTSTYLE:;
#DIFFICULTY:Medium;
#METER:4;
#RADARVALUES:0.218995,0.361832,0.059948,0.179845,0.000000,179.000000,172.000000,7.000000,21.000000,0.000000,0.000000,0.000000,0.000000,0.000000,0.218995,0.361832,0.059948,0.179845,0.000000,179.000000,172.000000,7.000000,21.000000,0.000000,0.000000,0.000000,0.000000,0.000000;
#CREDIT:;
#NOTES:
0000
0000
0000
0000
,
0000
0000
0000
0000
,
0000
0000
0000
0000
,
0000
0000
0000
0000
,
0000
0000
0000
0000
,
0000
0000
0000
0000
,
0000
0000
0000
0000
,
0000
0000
0000
0000
,
0002
0000
0000
0000
,
0023
0000
0000
0000
,
0230
0000
0000
0000
,
2300
0000
0000
0000
,
3002
0000
0000
0000
,
0103
0000
0100
0000
0010
0100
0010
0100
,
0002
0000
0000
0000
,
1003
2000
0000
3000
,
1001
1000
0010
1000
,
0100
0100
0010
0010
,
0001
0100
0010
0000
,
1000
1000
0100
0000
,
0010
0001
0010
0000
,
0100
0000
1000
0000
0001
1000
0001
0100
,
0010
0100
0010
0000
,
1010
1000
1010
0100
,
0002
0000
1003
0000
,
0100
0000
0100
0000
0010
0100
0010
0100
,
0010
0000
0001
0000
,
1000
1000
0010
0000
,
0200
0000
0310
0000
,
1000
0000
1000
0000
0001
0010
0001
0010
,
0100
0000
1000
0000
,
0100
1000
0020
0000
,
0230
0000
0000
0000
,
0000
0000
0000
0000
,
0000
0000
0000
0000
,
0000
0000
0000
0000
,
0301
0000
0001
0000
,
1000
1000
0000
0000
,
0010
0000
0010
0000
,
0100
0100
0020
0000
,
1030
0100
1000
0000
,
0001
0000
0010
0000
0100
0010
0100
0010
,
0001
1000
0001
0000
,
0100
0100
0020
0000
,
1030
0100
0010
0001
,
1000
0000
1000
0000
0001
1000
0001
1000
,
0100
0010
0001
0100
,
0010
0010
2002
3003
,
0100
0100
0100
0100
0000
0000
0000
0000
,
0001
0000
1000
0000
,
0100
0000
1000
0000
0001
0010
0001
0010
,
0100
0000
1000
0000
,
0010
0010
0010
0010
0000
0000
0000
0000
,
0100
0010
1000
0100
,
0010
0000
0100
0000
0010
0001
0010
0100
,
1000
0100
1001
0110
,
0020
0000
0130
0000
,
0001
0000
1000
0001
,
1000
0100
1000
0000
,
0010
0010
0200
0000
,
0302
0000
1003
0000
,
0100
0000
0100
0000
0010
0100
0010
0100
,
1000
0010
0100
0001
,
0010
0010
0200
0300
,
2001
0002
0000
0000
,
3003
0000
0000
0000
;

//---------------dance-single - ----------------
#NOTEDATA:;
#CHARTNAME:;
#STEPSTYPE:dance-single;
#DESCRIPTION:;
#CHARTSTYLE:;
#DIFFICULTY:Hard;
#METER:8;
#RADARVALUES:0.308306,0.445331,0.102769,0.291178,0.000000,252.000000,240.000000,12.000000,34.000000,0.000000,0.000000,0.000000,0.000000,0.000000,0.308306,0.445331,0.102769,0.291178,0.000000,252.000000,240.000000,12.000000,34.000000,0.000000,0.000000,0.000000,0.000000,0.000000;
#CREDIT:;
#NOTES:
// measure 0
0000
0000
0000
0000
,  // measure 1
0000
0000
0000
0000
,  // measure 2
0000
0000
0000
0000
,  // measure 3
0000
0000
0000
0000
,  // measure 4
0000
0000
0000
0000
,  // measure 5
0000
0000
0000
0000
,  // measure 6
0000
0000
0000
0000
,  // measure 7
0000
0000
0000
0000
,  // measure 8
0002
0000
0000
0000
,  // measure 9
0023
0000
0000
0000
,  // measure 10
0230
0000
0000
0000
,  // measure 11
2300
0000
0000
0000
,  // measure 12
3002
0100
0000
0000
,  // measure 13
2003
0000
0010
0000
3001
0100
0001
0010
,  // measure 14
0200
1000
0000
0000
,  // measure 15
1300
2000
0000
0000
,  // measure 16
3001
0010
0100
1000
0010
0000
0000
0000
,  // measure 17
0100
0001
0100
0010
0100
0000
0010
0000
,  // measure 18
1000
0100
0010
0001
0100
0000
0000
0000
,  // measure 19
0001
0010
0100
1000
0010
0100
0001
0100
,  // measure 20
0010
1000
0100
0010
0001
0000
0000
0000
,  // measure 21
0100
0010
1000
0010
0100
0001
0100
0001
,  // measure 22
0010
0100
1000
0001
0100
0000
0000
0000
,  // measure 23
0010
0100
0010
0100
1001
0000
0000
0000
,  // measure 24
0020
0000
0000
0000
0130
0100
0100
0100
,  // measure 25
0010
0000
0010
0100
0010
1000
0010
0001
,  // measure 26
0010
1000
0100
1000
0001
0000
0010
0000
,  // measure 27
0100
0100
0220
0330
,  // measure 28
2000
0000
0000
0000
3001
0001
0001
0001
,  // measure 29
0010
0000
0010
0100
0010
0001
0010
1000
,  // measure 30
0010
0001
1000
0100
1000
0000
0000
0000
,  // measure 31
0001
1000
2002
0003
,  // measure 32
3002
0000
0003
0000
,  // measure 33
0200
0000
0300
0000
,  // measure 34
0020
0000
0030
0000
,  // measure 35
2000
0000
3001
0010
,  // measure 36
0100
0000
1000
0000
,  // measure 37
0010
0000
0010
0000
0100
0010
0100
0010
,  // measure 38
1000
0000
0000
0000
0001
0100
0010
1000
,  // measure 39
0100
0100
0220
0330
,  // measure 40
0010
0000
0001
0000
,  // measure 41
0010
0000
0010
0100
0010
0001
0010
0100
,  // measure 42
0010
0000
0001
0000
,  // measure 43
1000
1000
2002
3003
,  // measure 44
0010
0100
0010
1000
0100
0000
0000
0000
,  // measure 45
0001
0000
0001
0000
1000
0010
0100
0010
,  // measure 46
1000
0100
0010
0001
0100
0000
0000
0000
,  // measure 47
0010
0010
0220
0330
,  // measure 48
0000
0010
0010
0010
2002
0000
3003
0000
,  // measure 49
0000
0100
0100
0100
0000
0001
1000
0001
,  // measure 50
0100
0000
0010
0000
1000
0010
0100
0001
,  // measure 51
0010
0100
1000
0001
,  // measure 52
0000
1000
1000
1000
0220
0000
0330
0000
,  // measure 53
0000
0001
0001
0001
0000
0100
0010
0100
,  // measure 54
0010
0000
1000
0000
0100
0010
0001
1000
,  // measure 55
0100
1001
0110
1001
,  // measure 56
0020
0000
0000
0000
0130
0100
0100
0100
,  // measure 57
0001
0000
1000
0000
0010
0100
0001
0100
,  // measure 58
0010
1000
0100
0010
0001
0000
0000
0000
,  // measure 59
0100
0100
0020
0000
,  // measure 60
2030
0000
0000
0000
3001
0001
0001
0001
,  // measure 61
0010
0000
0100
1000
0100
0010
0100
1000
,  // measure 62
0001
0100
0010
1000
0100
0000
0000
0000
,  // measure 63
0010
0010
2002
3003
,  // measure 64
0100
0020
0000
0000
,  // measure 65
0030
0000
0000
0000
;
