#TITLE:Puppy;
#SUBTITLE:;
#ARTIST:Snail's House;
#TITLETRANSLIT:;
#SUBTITLETRANSLIT:;
#ARTISTTRANSLIT:;
#GENRE:;
#CREDIT:;
#BANNER:Puppy.png;
#BACKGROUND:Puppy-bg.png;
#LYRICSPATH:;
#CDTITLE:;
#MUSIC:Puppy.ogg;
#OFFSET:0.000000;
#SAMPLESTART:11.162791;
#SAMPLELENGTH:13.953488;
#LASTBEATHINT:190.300827;
#SELECTABLE:YES;
#BPMS:0.000000=85.849998
;
#STOPS:
;
#BGCHANGES:;
#KEYSOUNDS:;
#ATTACKS:;

//---------------dance-single - ----------------
#NOTES:
     dance-single:
     :
     Hard:
     14:
     0.519174,0.514582,0.216856,0.448669,0.822559,486.000000,457.000000,29.000000,60.000000,0.000000,0.000000,0.519174,0.514582,0.216856,0.448669,0.822559,486.000000,457.000000,29.000000,60.000000,0.000000,0.000000:
0010
0000
0000
0000
0000
0000
0000
0000
0000
0000
0000
0100
0000
0000
0000
0000
0000
0000
0000
0000
0000
0000
0000
0001
,
0100
0000
0010
0000
0000
0000
0000
0000
0000
0000
0000
1000
0000
0000
0000
0000
0000
0100
0000
0000
0000
0000
0000
0010
,
0000
0000
0000
0000
0000
0000
0000
0000
0000
0010
0000
0001
0000
0000
0000
0000
0000
0000
0000
0000
0000
0100
0000
0001
,
0010
0000
0001
1000
0000
0010
0000
0000
1000
0010
1000
0001
0010
0000
0100
1000
0100
0000
0011
0000
0000
0000
0000
0000
,
0201
0000
0000
0001
0000
0000
0001
0000
0000
0301
0000
2000
0100
0000
0000
0100
0000
0000
0100
0000
0000
3100
0000
1000
,
0100
0000
0020
0001
0000
0000
0001
0000
0000
0031
0000
0200
1000
0000
0000
1300
0000
0200
0001
0000
0000
0301
0000
0020
,
0100
0000
0000
0100
0000
0000
0130
0000
0000
0010
0000
0012
0000
0000
0000
1000
0000
0000
1003
0000
0000
0100
0000
1000
,
0010
0000
0000
0000
1000
0000
0001
0000
0000
0000
0010
0001
0000
0000
0000
0000
1000
0000
0000
0000
0000
0000
0100
0000
0000
0000
0000
0000
0000
0000
0000
0000
0000
0000
1010
0000
0000
0000
0000
0000
0000
0000
0000
0000
0000
0000
0001
0000
,
0010
0000
0200
1000
0000
0000
1300
0000
0000
0010
1000
0001
1000
0000
0100
0010
0100
0000
1000
0000
0000
0000
0000
0001
,
0100
0000
0020
1000
0000
0000
1000
0000
0000
1030
0000
0002
0100
0000
0000
0103
0000
2000
0100
0000
0000
3100
0000
0002
,
0010
0000
0000
0000
0000
0000
0010
0000
0000
0000
0000
0000
0013
0000
0000
0000
0000
0000
0100
0000
0000
0000
1000
0100
0000
0000
0000
0000
2000
0000
0010
0000
0000
0000
0000
0000
3010
0000
0000
0000
0000
0000
0100
0000
0000
0000
0001
0000
,
0010
0000
0000
0000
0001
0000
1000
0000
0000
0000
0100
1000
0000
0000
0000
0000
0001
0000
0000
0000
0000
0000
0200
0000
0000
0000
0000
0000
0000
0000
0010
0000
0000
0000
0000
0000
0010
0000
0000
0000
0000
0000
0310
0000
0000
0000
0000
0000
,
1000
0000
0000
0000
0000
0010
0000
0000
0100
0000
0000
0000
0000
0010
0000
0000
1000
0000
0000
0000
0000
0010
0000
0000
0100
0000
0000
0000
0000
0000
0000
0000
0001
0000
0000
0000
0000
0010
0000
0000
0100
0000
0000
0000
0000
0010
0000
0000
0001
0000
0000
0000
0000
0010
0000
0000
0100
0000
0000
0000
0000
0000
0000
0000
,
1000
0000
0000
0000
0000
0000
0000
0000
0000
0000
0000
0000
0000
0000
0000
0100
0000
0000
0000
0000
0000
0000
0000
0000
0010
0000
0000
0000
0000
0000
0000
0000
0000
0000
0000
0000
0000
0000
0000
0100
0000
0000
0000
0000
0000
0000
0000
0000
1000
0000
0000
0000
0000
0000
0000
0000
0000
0000
0000
0000
0000
0000
0000
0100
0000
0000
0000
0000
0000
0000
0000
0000
0010
0000
0000
0000
0000
0000
0000
0000
0000
0000
0000
0000
0000
0000
0000
0000
0001
0000
0000
0000
0000
0000
0000
0000
0000
0000
0000
0000
0000
0000
0000
0000
0000
0000
0000
0000
0000
0000
0000
0000
0100
0000
0000
0000
0000
0000
0000
0000
0010
0000
0000
0000
0000
0000
0000
0000
0000
0000
0000
0000
0000
0000
0000
0000
1000
0000
0000
0000
0000
0000
0000
0000
0000
0000
0000
0000
0000
0000
0000
0000
0000
0000
0000
0000
0000
0000
0000
0000
0010
0000
0000
0000
0000
0000
0000
0000
0100
0000
0000
0000
0000
0000
0000
0000
0000
0000
0000
0000
0000
0000
0000
0000
0001
0000
0000
0000
0000
0000
0000
0000
,
0000
0000
0000
0000
0000
0000
0000
0000
0000
0000
0000
0000
0000
0000
0000
0010
0000
0000
0000
0000
0000
0000
0000
0000
0100
0000
0000
0000
0000
0000
0000
0000
0000
0000
0000
0000
0000
0000
0000
0010
0000
0000
0000
0000
0000
0000
0000
0000
0001
0000
0000
0000
0000
0000
0000
0000
0000
0000
0000
0000
0000
0000
0000
0010
0000
0000
0000
0000
0000
0000
0000
0000
0100
0000
0000
0000
0000
0000
0000
0000
0000
0000
0000
0000
0000
0000
0000
0000
1000
0000
0000
0000
0000
0000
0000
0000
0000
0000
0000
0000
0000
0000
0000
0000
0000
0000
0000
0000
0000
0000
0000
0010
0000
0000
0000
0000
0000
0000
0000
0000
1000
0000
0000
0000
0000
0000
0000
0000
0000
0000
0000
0000
0000
0000
0000
0010
0000
0000
0000
0000
0000
0000
0000
0000
0100
0000
0000
0000
0000
0000
0000
0000
0000
0000
0000
0000
0000
0000
0000
0010
0000
0000
0000
0000
0000
0000
0000
0000
1000
0000
0000
0000
0000
0000
0000
0000
0000
0000
0000
0000
0000
0000
0000
0000
0001
0000
0000
0000
0000
0000
0000
0000
,
0010
0000
0000
0000
0001
0000
1000
0000
0000
0000
0010
0100
0000
0000
0000
0000
0001
0000
0000
0000
0000
0000
1000
0000
0000
0000
0000
0000
0000
0000
0000
0000
0000
0000
0000
0000
1001
0000
0000
0000
0000
0000
0000
0000
0000
0000
0000
0000
,
0002
0000
0000
0100
0000
0000
0103
0000
0000
0010
0000
2000
0000
0000
0000
0100
0000
0000
3100
0000
0000
0001
0000
0100
,
0000
0000
0000
0000
0010
0000
0100
0000
0000
0000
0000
0000
1000
0000
0000
0000
0001
0000
0100
0000
0000
0000
0010
0000
0000
0000
0000
0000
1000
0010
1000
0000
0000
0000
0100
0000
0000
0000
0000
0000
0010
0000
0000
0000
0000
0000
0002
0000
,
0000
0000
0000
0010
0000
0000
0013
0000
0000
0100
0000
2000
0000
0000
0000
0010
0000
0000
3010
0000
1000
0000
0100
0000
,
1000
0000
0001
0000
0010
0000
0100
0000
1000
0000
0001
0100
0000
0000
0010
0000
0000
1020
0000
0000
0130
0000
0000
0001
,
0100
0000
0100
0000
0100
0000
0012
0000
0000
0000
0000
1003
0000
0000
0100
1000
0100
0000
0010
0000
0000
1100
0000
0001
,
0100
0000
0020
1000
0000
0000
1000
0000
0000
1030
0000
0200
1000
0000
0000
1300
0000
0002
0100
0000
0000
0203
0000
0320
,
0001
0000
0000
0000
0000
0000
0001
0000
0000
0000
0000
0000
0031
0000
0000
0000
0000
0000
0010
0000
0000
0000
1000
0100
0000
0000
0000
0000
0200
0000
0001
0000
0000
0000
0000
0000
0301
0000
0000
0000
0000
0000
0100
0000
0000
0000
1000
0000
,
0001
0000
0000
0000
0100
0000
0010
0000
0000
0000
1000
0100
0000
0000
0000
0000
1000
0000
0000
0000
0000
0000
0101
0000
0000
0000
0000
0000
0100
0000
0001
0000
1000
0000
0100
0000
0010
0000
0000
0000
0100
0000
0010
0000
0100
0000
0000
0000
,
1000
0000
0000
0001
0000
0000
0100
0000
0000
0010
0000
1000
0000
0000
0000
0000
0000
0000
0001
0000
0000
1000
0000
0100
,
0000
0000
0000
0000
0000
0000
0000
0000
0000
1000
0000
0001
0000
0000
1000
0000
0000
0010
0000
0000
0100
0000
0000
0001
,
0000
0000
0000
0000
0000
0000
0000
0000
0000
0002
0000
0010
0000
0000
0000
0000
0000
0000
0000
0000
0000
2003
0000
0200
,
0000
0000
0000
0000
0000
0000
0000
0000
0000
3000
0000
0020
0000
0000
0000
0000
0000
0000
0000
0000
0000
0300
0000
0000
,
0031
0000
0000
0001
0000
0000
0011
0000
0000
0001
0000
1000
0100
0000
0000
0100
0000
0000
1100
0000
0000
1000
0000
0001
,
0100
0000
0000
0000
0000
0000
0100
0000
0000
0000
0000
0000
0101
0000
0000
0000
0001
0000
1000
0000
0000
0000
0010
0000
0000
0000
0000
0000
1000
0010
1000
0000
0000
0000
0100
0000
0000
0000
0000
0000
0010
0000
0000
0000
0000
0000
0001
0000
,
0000
0000
0000
1000
0000
0000
1010
0000
0000
1000
0000
0001
0000
0000
0000
0100
0000
0000
0100
0000
0001
0000
0010
0000
,
1000
0000
0010
0000
0001
0000
0100
0000
1000
0000
0100
0010
0000
0000
1000
0000
0000
0001
0000
0000
0100
0000
0000
0000
,
0022
0000
0000
0000
0033
0000
2200
0000
0000
0300
0000
3002
0000
0000
0000
1000
0000
0000
1003
0000
0000
0011
0000
0001
,
0100
0000
0020
1000
0000
0000
1000
0000
0000
1030
0000
0200
0001
0000
0000
0301
0000
0200
1000
0000
0000
1300
0000
0002
,
0010
0000
0000
0010
0000
0000
0013
0000
0000
0001
0000
0200
0000
0000
0000
1000
0000
0000
1300
0000
0000
0100
0000
0001
,
1000
0000
0000
0000
0100
0000
0010
0000
0000
0000
0001
1000
0000
0000
0000
0000
0001
0000
0000
0000
0000
0000
0100
0000
0000
0000
0000
0000
0000
0000
0000
0000
0000
0000
1010
0000
0000
0000
0000
0000
0000
0000
0000
0000
0000
0000
1000
0000
,
0100
0000
0020
0001
0000
0000
0001
0000
0000
0031
0000
0200
1000
0000
0000
1000
0000
0000
1300
0000
0100
0010
0000
1000
,
0100
0000
0020
1000
0000
0000
1000
0000
0000
1030
0000
0020
0001
0000
0000
0031
0000
0200
0001
0000
0000
0301
0000
2000
,
0100
0000
0000
0000
0000
0000
0100
0000
0000
0000
0000
0000
3100
0000
0000
0000
0000
0000
0010
0000
0000
0000
0001
0010
0000
0000
0000
0000
0002
0000
0100
0000
0000
0000
0000
0000
0103
0000
0000
0000
0000
0000
0010
0000
0000
0000
1000
0000
,
0100
0000
0000
0000
1000
0000
0001
0000
0000
0000
0010
0001
0000
0000
0000
0000
1000
0000
0010
0000
1000
0000
0001
0000
0010
0000
0000
0000
0100
0000
1000
0000
0100
0000
0000
0000
0011
0000
0000
0000
0000
0000
0000
0000
0000
0000
0000
0000
,
0201
0000
0000
0001
0000
0000
0001
0000
0000
0301
0000
2100
0000
0000
0000
0100
0000
0000
0100
0000
0000
3100
0000
0010
,
0100
0000
2000
0010
0000
0000
0010
0000
0000
3010
0000
1001
0000
0000
0001
0000
0000
0101
0000
0000
0100
0000
0000
0210
,
0000
0000
0000
0010
0000
0000
0320
0000
0000
1030
0000
0200
0000
0000
0000
0010
0000
0000
0310
0000
0000
0100
0000
1000
,
0001
0000
0000
0000
0100
0000
0010
0000
0000
0000
0001
0010
0000
0000
0000
0000
0100
0000
0000
0000
0000
0000
0101
0000
0000
0000
0000
0000
0000
0000
0000
0000
0000
0000
1010
0000
0000
0000
0000
0000
0000
0000
0000
0000
0000
0000
1000
0000
,
0100
0000
0020
0000
0000
0000
0001
0000
0000
0000
0000
0002
0030
0000
0000
0000
0000
0000
0100
0000
0000
0000
0003
0100
,
0010
0000
2000
0000
0000
0000
0100
0000
0000
3000
0000
1200
0000
0000
0000
0300
0000
0021
0000
0000
0000
0030
0000
2001
,
0000
0000
0000
0000
0000
0000
0000
0000
0000
0000
0000
0000
0010
0000
0000
0000
0000
0000
3010
0000
0000
0000
1000
0001
0000
0000
0000
0000
0200
0000
0000
0000
0000
0000
0000
0000
0300
0000
0000
0000
0000
0000
0100
0000
0000
0000
0001
0000
,
1000
0000
0000
0000
0001
0000
0010
0000
0000
0000
0001
1000
0000
0000
0000
0000
0010
0000
0000
0000
0000
0000
1100
0000
0000
0000
0000
0000
0000
0000
0000
0000
0000
0000
0000
0000
0000
0000
0000
0000
0000
0000
0000
0000
0000
0000
0000
0000
;

//---------------dance-single - ----------------
#NOTES:
     dance-single:
     :
     Easy:
     5:
     0.204037,0.284157,0.059822,0.104689,0.000000,191.000000,183.000000,8.000000,14.000000,0.000000,0.000000,0.204037,0.284157,0.059822,0.104689,0.000000,191.000000,183.000000,8.000000,14.000000,0.000000,0.000000:
0000
0000
0000
0000
,
0000
0000
0000
0000
,
0000
0000
0000
0000
,
0000
0000
0000
1001
,
0001
0100
0001
0000
0001
1000
0001
0000
,
1000
0100
1000
0000
1000
0000
0100
0000
,
0010
0001
0010
0000
0100
1000
0100
0000
,
1000
0001
0100
0010
,
1000
0010
1000
0000
1000
0100
0011
0000
,
0001
0010
0001
0000
0001
0000
0100
0000
,
0010
1000
0010
0000
0100
0001
0100
0000
,
0001
1000
0100
0000
,
0010
0001
0010
0001
,
1000
0100
1000
1000
,
0010
1000
0010
0100
,
0001
1000
0100
1001
,
0002
0000
0003
0010
0200
0000
0300
1000
,
0002
0000
1003
0000
0010
1000
0001
1000
,
0020
0000
0030
1000
0200
0000
0300
1000
,
0010
0100
0001
1000
,
0200
0000
0300
0000
2000
0000
3000
1001
,
0001
0010
0001
0100
,
0010
1000
0010
0100
,
0001
1000
0100
0010
,
0200
0300
0000
0000
,
0000
0000
0000
0000
,
0000
0000
0000
0000
,
0000
0000
0000
0000
,
1000
0100
1000
0010
1000
0000
0001
0100
,
0001
0000
1000
0010
1000
0001
0010
0001
,
0100
0000
0010
1000
0001
0000
0010
0001
,
1000
0100
0010
0001
,
1010
0000
0101
0000
1000
0001
0001
0011
,
0100
1000
1000
1000
0010
0000
0100
0000
,
0001
0001
0001
0000
0100
0100
0100
0000
,
0010
1000
0001
0010
,
0100
1000
0100
1000
,
0001
0100
0001
0010
,
0100
0010
0001
0100
,
0020
0000
0030
1001
,
1000
0010
1000
0000
1000
0001
1000
0000
,
0001
0010
0001
0000
0001
0000
0010
0000
,
0100
1000
0100
0000
0010
0001
0010
0000
,
0001
1000
0010
0100
,
0020
0030
2000
3000
,
0002
0003
0010
0001
,
0200
0300
0020
0030
,
1000
0001
0100
0000
;

//---------------dance-single - ----------------
#NOTES:
     dance-single:
     :
     Medium:
     10:
     0.349321,0.337140,0.149556,0.112167,0.407541,327.000000,307.000000,20.000000,15.000000,0.000000,0.000000,0.349321,0.337140,0.149556,0.112167,0.407541,327.000000,307.000000,20.000000,15.000000,0.000000,0.000000:
0000
0000
0000
0000
,
0000
0000
0000
0000
,
0000
0000
0000
0000
,
0000
0000
0000
0001
1000
0100
0110
0000
,
0001
0000
0000
0100
0000
0000
0100
0000
0000
0001
0000
0010
0000
0000
0000
0100
0000
0000
0100
0000
0000
0000
0000
1000
,
0100
0000
0010
0000
0000
0000
0100
0000
0000
1000
0000
0010
0000
0000
0000
0100
0000
0001
0000
0000
0000
0010
0000
0100
,
0000
0000
0000
1000
0000
0000
1000
0000
0000
0001
0000
0100
0000
0000
0000
0100
0000
0000
0100
0000
0000
0001
0000
0000
,
0010
0000
0000
1000
0000
0001
0000
0000
0100
0000
0000
1000
0000
0000
0000
0000
0000
1001
0000
0000
0000
0000
0000
0000
,
1000
0000
0100
0000
0000
0000
0100
0000
0000
1000
0000
0000
0010
0000
0000
0100
0000
0000
0110
0000
0000
0000
0000
0001
,
0100
0000
0010
0000
0000
0000
0100
0000
0000
0001
0000
0010
0000
0000
0000
0100
0000
1000
0000
0000
0000
0010
0000
0100
,
0000
0000
0000
0001
0000
0000
0001
0000
0000
1000
0000
0100
0000
0000
0000
0100
0000
0000
0100
0000
0000
1000
0000
0000
,
0010
0000
0000
0001
0000
1000
0000
0000
0100
0000
0000
0001
0000
0000
0000
0100
0000
0000
0010
0000
0000
0000
0000
0000
,
1000
1000
0001
0001
1000
1000
0001
0100
,
0001
0001
1000
1000
0001
0001
0100
0010
,
1000
0010
0100
0010
0100
0001
1000
0001
,
1000
0000
0000
0100
0000
0010
0000
0000
0001
0000
0000
0100
0000
0000
0000
0000
0000
0000
0110
0000
0000
0000
0000
0000
,
1000
0000
0000
1000
0000
0000
1000
0000
0000
0010
0000
0001
0000
0000
0000
0001
0000
0000
0001
0000
0000
0010
0000
0100
,
0000
0000
0000
0100
0000
0000
0100
0000
0000
0001
0000
1000
0000
0000
0100
0000
0000
0001
0000
0000
0010
0000
0000
1000
,
0000
0000
0000
0001
0000
0000
0001
0000
0000
0100
0000
1000
0000
0000
0000
1000
0000
0000
1000
0000
0000
0100
0000
0000
,
0010
0000
0000
1000
0000
0001
0000
0000
0010
0000
0000
0100
0000
0000
0010
0000
0000
0001
0000
0000
1000
0000
0000
0000
,
0100
0000
0100
0000
0100
0000
2000
0000
0000
0000
0000
3001
0000
0000
0000
0100
0000
0000
0010
0000
0000
1010
0000
0000
,
0001
0010
0100
0010
0100
1000
0001
1000
,
0010
0000
0000
1000
0000
0000
1000
0000
0000
0001
0000
0100
0000
0000
0001
0000
0000
0000
1000
0000
0000
0100
0000
0000
,
0010
0000
0000
0001
0000
1000
0000
0000
0010
0000
0000
0100
0000
0000
0000
0010
0000
0000
1000
0000
0000
0001
0000
0000
,
0200
0000
0000
0000
0000
0000
0000
0000
0000
0000
0000
0302
0000
0000
0000
0000
0000
0000
2003
0000
0000
0000
0000
3200
,
0000
0000
0000
0000
0000
0000
0000
0000
0000
0310
0000
0002
0000
0000
0000
0000
0000
0003
0200
0000
0000
0000
0000
0000
,
2300
0000
0000
0000
0000
0000
0000
0000
0000
0000
0000
3020
0000
0000
0000
0000
0000
0000
0000
0000
0000
0000
0000
0230
,
0000
0000
0000
0000
0000
0000
0000
0000
0000
0000
0000
2300
0000
0000
0000
0000
0000
0000
0000
0000
0000
0000
0000
0000
,
3001
0000
0000
0100
0000
0000
0100
0000
0000
0010
0000
1000
0000
0000
0000
0100
0000
0000
0100
0000
0000
0001
0000
0100
,
0000
0000
0000
0010
0000
0000
0010
0000
0000
0001
0000
1000
0000
0000
0100
0000
0000
0001
0000
0000
0010
0000
0000
1000
,
0000
0000
0000
0001
0000
0000
0001
0000
0000
0100
0000
1000
0000
0000
0000
1000
0000
0000
1000
0000
0100
0000
0010
0000
,
1000
0100
0010
0001
0010
0100
1000
0000
0000
0001
0000
0000
,
0202
0000
0000
0000
0303
0000
2020
0000
0000
0030
0000
3001
0000
0000
0000
0010
0000
0000
0010
0000
0000
1100
0000
0000
,
0001
0000
0000
0100
0000
0000
0010
0000
0000
1000
0000
0100
0000
0000
0000
0010
0000
0001
0000
0000
0000
1000
0000
0010
,
0000
0000
0000
0001
0000
0000
0001
0000
0000
0010
0000
1000
0000
0000
0000
0100
0000
0000
0100
0000
0000
0010
0000
0000
,
0001
0000
0000
0100
0000
1000
0000
0000
0001
0000
0000
0010
0000
0000
0000
0000
0000
1000
0000
0000
0000
0000
0000
0000
,
0100
0000
0010
0000
0000
0000
0001
0000
0000
0000
0000
1000
0000
0000
0000
0000
0000
0000
1100
0000
0000
0000
0000
0000
,
1000
0000
0001
0000
0000
0000
0010
0000
0000
0000
0000
1100
0000
0000
0000
0000
0000
0101
0000
0000
0000
0000
0000
0110
,
0000
0000
0000
0000
0000
0000
0010
0000
0000
1000
0000
0001
0000
0000
0010
0000
0000
0000
0001
0000
0000
0100
0000
0000
,
1000
0000
0000
0001
0000
0010
0000
0000
1000
0000
0000
0001
0000
0000
0000
0010
0000
0000
1001
0000
0000
0000
0000
0000
,
0001
0000
0000
0001
0000
0000
0001
0000
0000
0100
0000
1000
0000
0000
0000
1000
0000
0000
1000
0000
0000
0100
0000
0000
,
0100
0000
0010
0000
0000
0000
0010
0000
0000
1000
0000
0001
0000
0000
0010
0000
0000
1000
0000
0000
0100
0000
0000
0001
,
0000
0000
0000
1000
0000
0000
1000
0000
0000
0010
0000
0001
0000
0000
0000
0001
0000
0000
0001
0000
0000
0010
0000
0000
,
0100
0000
0000
0001
0000
1000
0000
0000
0100
0000
0000
0010
0000
0000
0000
0000
0000
0101
0000
0000
0000
0000
0000
0000
,
0001
0000
1000
0000
0000
0000
1100
0000
0000
0000
0000
0110
0000
0000
0000
0000
0000
0000
0100
0000
0000
0000
0000
0000
,
1000
0000
0001
0000
0000
0000
0101
0000
0000
0000
0000
0110
0000
0000
0000
0000
0000
1010
0000
0000
0000
0000
0000
0011
,
0000
0000
0000
0000
0000
0000
0001
0000
0000
0010
0000
0100
0000
0000
1000
0000
0000
0000
0100
0000
0000
0001
0000
0000
,
1000
0000
0000
0010
0000
0001
0000
0000
0100
0000
0000
0010
0000
0000
0000
0000
0000
0000
0000
0000
0000
0000
0000
0000
;

//---------------dance-double - ----------------
#NOTES:
     dance-double:
     :
     Challenge:
     14:
     0.489262,0.514582,0.209379,0.441191,0.762737,458.000000,430.000000,28.000000,59.000000,0.000000,0.000000,0.489262,0.514582,0.209379,0.441191,0.762737,458.000000,430.000000,28.000000,59.000000,0.000000,0.000000:
// measure 0
00000000
00000000
00000000
00000000
,  // measure 1
00000000
00000000
00000000
00000000
,  // measure 2
00000000
00000000
00000000
00000000
,  // measure 3
00000000
00000000
00000000
00000000
00000000
00000000
00000000
00000000
00000000
00100000
10000000
00010000
00100000
00000000
01000000
10000000
01000000
00000000
00110000
00000000
00000000
00000000
00000000
00000000
,  // measure 4
02010000
00000000
00000000
00010000
00000000
00000000
00010000
00000000
00000000
03010000
00000000
20000000
01000000
00000000
00000000
01000000
00000000
00000000
01000000
00000000
00000000
31000000
00000000
00100000
,  // measure 5
00010000
00000000
00002000
00000100
00000000
00000000
00000100
00000000
00000000
00003100
00000000
00000020
00000001
00000000
00000000
00000031
00000000
00000200
00000001
00000000
00000000
00000301
00000000
00000020
,  // measure 6
00000100
00000000
00000000
00000100
00000000
00000000
00000130
00000000
00000000
00010000
00000000
00012000
00000000
00000000
00000000
01000000
00000000
00000000
01003000
00000000
00000000
00010000
00000000
10000000
,  // measure 7
00100000
00000000
00000000
00000000
10000000
00000000
00010000
00000000
00000000
00000000
00100000
00010000
00000000
00000000
00000000
00000000
10000000
00000000
00000000
00000000
00000000
00000000
01000000
00000000
00000000
00000000
00000000
00000000
00000000
00000000
00000000
00000000
00000000
00000000
00101000
00000000
00000000
00000000
00000000
00000000
00000000
00000000
00000000
00000000
00000000
00000000
00010000
00000000
,  // measure 8
00000100
00000000
00000020
00000001
00000000
00000000
00000031
00000000
00000000
00000100
00000001
00001000
00000001
00000000
00000010
00000100
00000010
00000000
00000001
00000000
00000000
00000000
00000000
00001000
,  // measure 9
00000010
00000000
00000200
00001000
00000000
00000000
00001000
00000000
00000000
00001300
00000000
00020000
00000010
00000000
00000000
00030010
00000000
00002000
00000100
00000000
00000000
00003100
00000000
00020000
,  // measure 10
01000000
00000000
00000000
00000000
00000000
00000000
01000000
00000000
00000000
00000000
00000000
00000000
01030000
00000000
00000000
00000000
00000000
00000000
00100000
00000000
00000000
00000000
00010000
00100000
00000000
00000000
00000000
00000000
02000000
00000000
10000000
00000000
00000000
00000000
00000000
00000000
13000000
00000000
00000000
00000000
00000000
00000000
00100000
00000000
00000000
00000000
10000000
00000000
,  // measure 11
00010000
00000000
00000000
00000000
00100000
00000000
00001000
00000000
00000000
00000000
00010000
00001000
00000000
00000000
00000000
00000000
00000100
00000000
00000000
00000000
00000000
00000000
00000020
00000000
00000000
00000000
00000000
00000000
00000000
00000000
00001000
00000000
00000000
00000000
00000000
00000000
00001000
00000000
00000000
00000000
00000000
00000000
00001030
00000000
00000000
00000000
00000000
00000000
,  // measure 12
00000100
00000000
00000000
00000000
00000000
00010000
00000000
00000000
00001000
00000000
00000000
00000000
00000000
00000000
00000000
00000000
01000000
00000000
00000000
00000000
00000000
00001000
00000000
00000000
00010000
00000000
00000000
00000000
00000000
00000000
00000000
00000000
00000010
00000000
00000000
00000000
00000000
00010000
00000000
00000000
00001000
00000000
00000000
00000000
00000000
00000000
00000000
00000000
00100000
00000000
00000000
00000000
00000000
00001000
00000000
00000000
00010000
00000000
00000000
00000000
00000000
00000000
00000000
00000000
,  // measure 13
00001000
00000000
00000000
00000000
00000000
00000000
00000000
00000000
00000000
00000000
00000000
00000000
00000000
00000000
00000000
01000000
00000000
00000000
00000000
00000000
00000000
00000000
00000000
00000000
00100000
00000000
00000000
00000000
00000000
00000000
00000000
00000000
00000000
00000000
00000000
00000000
00000000
00000000
00000000
00000000
00000000
00000000
00000000
00000000
00000000
00000000
00000000
00000000
00010000
00000000
00000000
00000000
00000000
00000000
00000000
00000000
00000000
00000000
00000000
00000000
00000000
00000000
00000000
00000010
00000000
00000000
00000000
00000000
00000000
00000000
00000000
00000000
00000100
00000000
00000000
00000000
00000000
00000000
00000000
00000000
00000000
00000000
00000000
00000000
00000000
00000000
00000000
00000000
00001000
00000000
00000000
00000000
00000000
00000000
00000000
00000000
00000000
00000000
00000000
00000000
00000000
00000000
00000000
00000000
00000000
00000000
00000000
00000000
00000000
00000000
00000000
00000000
00010000
00000000
00000000
00000000
00000000
00000000
00000000
00000000
01000000
00000000
00000000
00000000
00000000
00000000
00000000
00000000
00000000
00000000
00000000
00000000
00000000
00000000
00000000
00000000
10000000
00000000
00000000
00000000
00000000
00000000
00000000
00000000
00000000
00000000
00000000
00000000
00000000
00000000
00000000
00000000
00000000
00000000
00000000
00000000
00000000
00000000
00000000
00000000
00100000
00000000
00000000
00000000
00000000
00000000
00000000
00000000
00010000
00000000
00000000
00000000
00000000
00000000
00000000
00000000
00000000
00000000
00000000
00000000
00000000
00000000
00000000
00000000
00001000
00000000
00000000
00000000
00000000
00000000
00000000
00000000
,  // measure 14
00000000
00000000
00000000
00000000
00000000
00000000
00000000
00000000
00000000
00000000
00000000
00000000
00000000
00000000
00000000
00000100
00000000
00000000
00000000
00000000
00000000
00000000
00000000
00000000
00000010
00000000
00000000
00000000
00000000
00000000
00000000
00000000
00000000
00000000
00000000
00000000
00000000
00000000
00000000
00001000
00000000
00000000
00000000
00000000
00000000
00000000
00000000
00000000
00000000
00000000
00000000
00000000
00000000
00000000
00000000
00000000
00000000
00000000
00000000
00000000
00000000
00000000
00000000
00001000
00000000
00000000
00000000
00000000
00000000
00000000
00000000
00000000
00000100
00000000
00000000
00000000
00000000
00000000
00000000
00000000
00000000
00000000
00000000
00000000
00000000
00000000
00000000
00000000
00010000
00000000
00000000
00000000
00000000
00000000
00000000
00000000
00000000
00000000
00000000
00000000
00000000
00000000
00000000
00000000
00000000
00000000
00000000
00000000
00000000
00000000
00000000
01000000
00000000
00000000
00000000
00000000
00000000
00000000
00000000
00000000
00100000
00000000
00000000
00000000
00000000
00000000
00000000
00000000
00000000
00000000
00000000
00000000
00000000
00000000
00000000
00010000
00000000
00000000
00000000
00000000
00000000
00000000
00000000
00000000
00000000
00000000
00000000
00000000
00000000
00000000
00000000
00000000
00000000
00000000
00000000
00000000
00000000
00000000
00000000
00010000
00000000
00000000
00000000
00000000
00000000
00000000
00000000
00000000
01000000
00000000
00000000
00000000
00000000
00000000
00000000
00000000
00000000
00000000
00000000
00000000
00000000
00000000
00000000
00000000
00010000
00000000
00000000
00000000
00000000
00000000
00000000
00000000
,  // measure 15
00100000
00000000
00000000
00000000
00010000
00000000
10000000
00000000
00000000
00000000
00100000
01000000
00000000
00000000
00000000
00000000
00001000
00000000
00000000
00000000
00000000
00000000
00010000
00000000
00000000
00000000
00000000
00000000
00000000
00000000
00000000
00000000
00000000
00000000
00000000
00000000
00011000
00000000
00000000
00000000
00000000
00000000
00000000
00000000
00000000
00000000
00000000
00000000
,  // measure 16
00020000
00000000
00000000
01000000
00000000
00000000
01030000
00000000
00000000
00100000
00000000
00002000
00000000
00000000
00000000
00000100
00000000
00000000
00003100
00000000
00000000
00000001
00000000
00000100
,  // measure 17
00000000
00000000
00000010
00010000
00000000
00000000
00001000
00000000
00010000
01000000
00000000
00100000
00000000
00000000
00010000
00000000
00000000
01000000
00000000
00000000
00100000
00000000
00000000
20000000
,  // measure 18
00000000
00000000
00000000
01000000
00000000
00000000
31000000
00000000
00000000
00010000
00000000
00002000
00000000
00000000
00000000
00000100
00000000
00000000
00003100
00000000
00000001
00000000
00000010
00000000
,  // measure 19
00001000
00000000
00010000
00000000
00100000
00000000
10000000
00000000
01000000
00000000
00010000
00001000
00000000
00000000
00000100
00000000
00000000
00000010
00000000
00000000
00001000
00000000
00000000
00000001
,  // measure 20
00000010
00000000
00000010
00000000
00000010
00000000
00002100
00000000
00000000
00000000
00000000
00003010
00000000
00000000
00010000
00001000
00010000
00000000
00000100
00000000
00000000
00110000
00000000
00010000
,  // measure 21
01000000
00000000
00200000
10000000
00000000
00000000
10000000
00000000
00000000
10300000
00000000
02000000
00100000
00000000
00000000
03100000
00000000
00002000
00010000
00000000
00000000
00013000
00000000
00000200
,  // measure 22
00000010
00000000
00000000
00000000
00000000
00000000
00000010
00000000
00000000
00000000
00000000
00000000
00000310
00000000
00000000
00000000
00000000
00000000
00000001
00000000
00000000
00000000
00001000
00000100
00000000
00000000
00000000
00000000
00000200
00000000
00010000
00000000
00000000
00000000
00000000
00000000
00010300
00000000
00000000
00000000
00000000
00000000
01000000
00000000
00000000
00000000
10000000
00000000
,  // measure 23
00010000
00000000
00000000
00000000
01000000
00000000
00100000
00000000
00000000
00000000
10000000
01000000
00000000
00000000
00000000
00000000
00010000
00000000
00000000
00000000
00000000
00000000
00010100
00000000
00000000
00000000
00000000
00000000
00000100
00000000
00001000
00000000
00000001
00000000
00000100
00000000
00000010
00000000
00000000
00000000
00001000
00000000
00000010
00000000
00010000
00000000
00000000
00000000
,  // measure 24
00001000
00000000
00000000
00010000
00000000
00000000
01000000
00000000
00000000
00100000
00000000
00001000
00000000
00000000
00000000
00000000
00000000
00000000
00010000
00000000
00000000
00000100
00000000
00000001
,  // measure 25
00000000
00000000
00000000
00000000
00000000
00000000
00000000
00000000
00000000
00000100
00000000
00000010
00000000
00000000
00000001
00000000
00000000
00000010
00000000
00000000
00000100
00000000
00000000
00020000
,  // measure 26
00000000
00000000
00000000
00000000
00000000
00000000
00000000
00000000
00000000
00032000
00000000
00100000
00000000
00000000
00000000
00000000
00000000
00000000
00000000
00000000
00000000
02003000
00000000
00020000
,  // measure 27
00000000
00000000
00000000
00000000
00000000
00000000
03000000
00000000
00000000
00000000
00000000
20000000
00000000
00000000
00000000
00000000
00000000
00000000
00030000
00000000
00000000
00000000
00000000
00000000
,  // measure 28
30010000
00000000
00000000
00010000
00000000
00000000
00110000
00000000
00000000
00001000
00000000
00010000
00000100
00000000
00000000
00000100
00000000
00000000
00001100
00000000
00000000
00001000
00000000
00000001
,  // measure 29
00000100
00000000
00000000
00000100
00000000
00000000
00001100
00000000
00001000
00010000
00000000
01000000
00000000
00000000
00100000
00000000
00000000
10000000
00000000
00000000
00100000
00000000
00000000
00001000
,  // measure 30
00000000
00000000
00000000
00010000
00000000
00000000
00010010
00000000
00000000
00001000
00000000
00000001
00000000
00000000
00000000
00000100
00000000
00000000
00000010
00000000
00001000
00000000
00000100
00000000
,  // measure 31
00010000
00000000
01000000
00000000
00100000
00000000
00001000
00000000
00010000
00000000
00000010
00000100
00000000
00000000
00000001
00000000
00000000
00001000
00000000
00000000
00000100
00000000
00000000
00000000
,  // measure 32
00002200
00000000
00000000
00000000
00003300
00000000
00120000
00000000
00000000
00000000
00000000
20030000
00000000
00000000
00000000
01000000
00000000
00000000
31000000
00000000
00000000
00110000
00000000
00010000
,  // measure 33
01000000
00000000
00200000
10000000
00000000
00000000
10000000
00000000
00000000
10300000
00000000
02000000
00010000
00000000
00000000
03010000
00000000
00002000
00000100
00000000
00000000
00003100
00000000
00000002
,  // measure 34
00000010
00000000
00000000
00000010
00000000
00000000
00000013
00000000
00000000
00000100
00000000
00020000
00000000
00000000
00000000
00001000
00000000
00000000
00031000
00000000
00000000
01000000
00000000
00010000
,  // measure 35
10000000
00000000
00000000
00000000
01000000
00000000
00100000
00000000
00000000
00000000
00010000
10000000
00000000
00000000
00000000
00000000
00010000
00000000
00000000
00000000
00000000
00000000
01000000
00000000
00000000
00000000
00000000
00000000
00000000
00000000
00000000
00000000
00000000
00000000
10100000
00000000
00000000
00000000
00000000
00000000
00000000
00000000
00000000
00000000
00000000
00000000
10000000
00000000
,  // measure 36
01000000
00000000
00200000
00010000
00000000
00000000
00010000
00000000
00000000
00310000
00000000
00002000
00000010
00000000
00000000
00000010
00000000
00000000
00003001
00000000
00000100
00000010
00000000
00000001
,  // measure 37
00000000
00000000
00000020
00000100
00000000
00000000
00000100
00000000
00000000
00000130
00000000
00000002
00001000
00000000
00000000
00001003
00000000
00000200
00010000
00000000
00000000
00010300
00000000
00002000
,  // measure 38
00100000
00000000
00000000
00000000
00000000
00000000
00100000
00000000
00000000
00000000
00000000
00000000
00100000
00000000
00000000
00000000
00000000
00000000
01003000
00000000
00000000
00000000
00010000
00100000
00000000
00000000
00000000
00000000
02000000
00000000
10000000
00000000
00000000
00000000
00000000
00000000
13000000
00000000
00000000
00000000
00000000
00000000
00100000
00000000
00000000
00000000
10000000
00000000
,  // measure 39
01000000
00000000
00000000
00000000
10000000
00000000
00010000
00000000
00000000
00000000
00100000
00010000
00000000
00000000
00000000
00000000
01000000
00000000
00001000
00000000
00010000
00000000
00000100
00000000
00000010
00000000
00000000
00000000
00000001
00000000
00000100
00000000
00000001
00000000
00000000
00000000
00001001
00000000
00000000
00000000
00000000
00000000
00000000
00000000
00000000
00000000
00000000
00000000
,  // measure 40
00001020
00000000
00000000
00001000
00000000
00000000
00001000
00000000
00000000
00001030
00000000
00020100
00000000
00000000
00000000
00000100
00000000
00000000
00000100
00000000
00000000
00030100
00000000
01000000
,  // measure 41
00001000
00000000
00200000
00010000
00000000
00000000
00010000
00000000
00000000
00310000
00000000
01002000
00000000
00000000
00013000
00000000
00000000
00020100
00000000
00000000
00031000
00000000
00000000
00210000
,  // measure 42
00000000
00000000
00000000
00001000
00000000
00000000
00301000
00000000
00000000
00010000
00000000
00000200
00000000
00000000
00000000
00000010
00000000
00000000
00000310
00000000
00000000
00000001
00000000
00000100
,  // measure 43
00001000
00000000
00000000
00000000
00000001
00000000
00000010
00000000
00000000
00000000
00001000
00000100
00000000
00000000
00000000
00000000
00010000
00000000
00000000
00000000
00000000
00000000
01001000
00000000
00000000
00000000
00000000
00000000
00000000
00000000
00000000
00000000
00000000
00000000
00010010
00000000
00000000
00000000
00000000
00000000
00000000
00000000
00000000
00000000
00000000
00000000
00001000
00000000
,  // measure 44
00000100
00000000
00000020
00000000
00000000
00000000
00000001
00000000
00000000
00000000
00000000
00000032
00000000
00000000
00000000
00000000
00000000
00000000
00000100
00000000
00000000
00000000
00000000
00000103
,  // measure 45
00000010
00000000
00002000
00000000
00000000
00000000
00003100
00000000
00000000
00000000
00000000
00020100
00000000
00000000
00000000
00030000
00000000
00102000
00000000
00000000
00000000
00003000
00000000
20010000
,  // measure 46
00000000
00000000
00000000
00000000
00000000
00000000
00000000
00000000
00000000
00000000
00000000
00000000
00100000
00000000
00000000
00000000
00000000
00000000
30100000
00000000
00000000
00000000
10000000
00010000
00000000
00000000
00000000
00000000
02000000
00000000
00000000
00000000
00000000
00000000
00000000
00000000
03000000
00000000
00000000
00000000
00000000
00000000
01000000
00000000
00000000
00000000
00010000
00000000
,  // measure 47
10000000
00000000
00000000
00000000
01000000
00000000
00100000
00000000
00000000
00000000
00001000
00010000
00000000
00000000
00000000
00000000
00000100
00000000
00000000
00000000
00000000
00000000
00000011
00000000
00000000
00000000
00000000
00000000
00000000
00000000
00000000
00000000
00000000
00000000
00000000
00000000
00000000
00000000
00000000
00000000
00000000
00000000
00000000
00000000
00000000
00000000
00000000
00000000
;
