#VERSION:0.83;
#TITLE:Prove Your Love;
#SUBTITLE:[K-Step];
#ARTIST:Taylor Dayne;
#TITLETRANSLIT:;
#SUBTITLETRANSLIT:;
#ARTISTTRANSLIT:;
#GENRE:Synthpop;
#ORIGIN:;
#CREDIT:K-Step;
#BANNER:Prove Your Love [K-Step]-bn.png;
#BACKGROUND:Prove Your Love [K-Step]-bg.png;
#PREVIEWVID:;
#JACKET:Prove Your Love [K-Step]-jacket.png;
#CDIMAGE:;
#DISCIMAGE:;
#LYRICSPATH:;
#CDTITLE:cdtitle.png;
#MUSIC:Prove Your Love [K-Step].ogg;
#OFFSET:-0.418000;
#SAMPLESTART:40.675999;
#SAMPLELENGTH:15.985000;
#SELECTABLE:YES;
#BPMS:0.000=119.173;
#STOPS:;
#DELAYS:;
#WARPS:;
#TIMESIGNATURES:0.000=4=4;
#TICKCOUNTS:0.000=4;
#COMBOS:0.000=1;
#SPEEDS:0.000=1.000=0.000=0;
#SCROLLS:0.000=1.000;
#FAKES:;
#LABELS:0.000=Song Start;
#BGCHANGES:0.000=Prove Your Love [K-Step].avi=1.000=0=0=1===CrossFade_Fastest==,
99999=-nosongbg-=1.000=0=0=0 // don't automatically add -songbackground-
;
#KEYSOUNDS:;
#ATTACKS:
;

//---------------dance-single - ----------------
#NOTEDATA:;
#CHARTNAME:;
#STEPSTYPE:dance-single;
#DESCRIPTION:;
#CHARTSTYLE:;
#DIFFICULTY:Hard;
#METER:12;
#RADARVALUES:0.529890,0.532084,0.311047,0.326599,0.625982,477.000000,437.000000,40.000000,42.000000,0.000000,0.000000,0.000000,0.000000,0.000000,0.529890,0.532084,0.311047,0.326599,0.625982,477.000000,437.000000,40.000000,42.000000,0.000000,0.000000,0.000000,0.000000,0.000000;
#CREDIT:;
#NOTES:
// measure 0
0000
0000
0000
0000
,  // measure 1
0000
0000
0000
0000
,  // measure 2
0000
0000
0000
0000
,  // measure 3
0000
0000
0000
0000
,  // measure 4
0011
0000
0000
0000
0110
0000
0000
1010
0000
0000
0001
0000
1000
0000
0100
0000
,  // measure 5
1000
0100
0000
1000
0000
0001
0000
0100
0000
0010
0000
0100
0001
0000
1000
0000
,  // measure 6
0001
0000
0000
0010
0100
0000
1000
0000
0020
0000
0000
0000
0032
0000
0000
0000
,  // measure 7
0023
0000
0000
0000
1000
0000
0000
0000
0130
0000
0010
0000
1000
0100
1000
0100
,  // measure 8
1000
0000
0000
0020
0000
0230
0000
0320
0000
0000
0031
0000
0010
0000
1000
0000
,  // measure 9
0001
0000
0000
0200
0000
0320
0000
0230
0000
0000
0301
0000
1000
0000
0100
0000
,  // measure 10
1000
0000
0000
0002
0000
0203
0000
0302
0000
0000
0013
0000
1000
0000
0010
0000
,  // measure 11
0001
0000
0000
0000
0011
0000
0000
0000
0010
0000
0000
0000
0101
0000
0000
0001
,  // measure 12
1000
0000
0100
0020
0000
0230
0000
2300
0000
0000
3001
0000
1000
0000
0010
0000
,  // measure 13
0100
0000
0010
0002
0000
0023
0000
2030
0000
0000
3001
0000
1000
0000
0001
0010
,  // measure 14
0001
0000
0000
0020
0000
0230
0000
2300
0000
0000
3010
0000
1000
0000
0100
0000
,  // measure 15
0010
0000
0000
0000
0110
0000
0000
0000
0100
0000
0000
0000
1010
0000
1000
0001
,  // measure 16
1000
0000
0100
2000
0000
3200
0000
0302
0000
0023
0000
2030
0000
3000
0001
1000
,  // measure 17
0001
0000
0100
0020
0000
0230
0000
0302
0000
0000
1003
0000
0001
0000
1000
0000
,  // measure 18
0100
0000
0010
0100
0000
1000
0000
0001
0000
0100
0000
1000
0000
0100
0000
0001
,  // measure 19
0000
0010
0000
0100
0000
0010
0000
0001
0000
1000
0000
1000
0001
0010
0001
0000
,  // measure 20
0011
0000
0000
0000
0110
0000
0000
1001
0000
0000
1000
0000
1100
0000
0000
0000
,  // measure 21
0100
1000
0000
0000
0001
0000
0000
0100
0010
0100
0000
0000
0110
0000
0000
0000
,  // measure 22
1000
0000
0001
0010
1000
0000
0010
0100
,  // measure 23
1000
0000
1000
0100
0000
1000
0000
0001
0000
0000
0010
0100
0010
0100
0010
0000
,  // measure 24
0110
0000
0000
0000
1010
0000
0000
1001
0000
0000
0001
0000
0011
0000
0010
0000
,  // measure 25
0100
1000
0000
0000
0001
0000
1000
0000
0010
0100
0010
0000
0010
0000
1000
0000
,  // measure 26
1000
0100
0001
0010
1000
0001
1000
0100
,  // measure 27
0010
0000
0000
0100
0010
0000
0000
0000
0001
1000
0000
0010
1000
0001
1000
0020
,  // measure 28
1000
1000
0000
0100
0000
0001
0000
0100
,  // measure 29
0000
0000
1030
0000
0010
0000
0100
0000
0010
0000
1000
0100
1000
0100
1000
0000
,  // measure 30
0000
0000
0001
1000
0100
1000
0000
0010
0000
0100
0010
0000
1000
0000
0001
0020
,  // measure 31
0000
0000
1000
0000
0000
0000
0031
0000
0000
0010
0001
0010
0001
0010
0100
0010
,  // measure 32
0100
0000
0000
0100
1000
0001
0000
0100
0000
0010
0100
0000
0001
0000
0010
0100
,  // measure 33
0000
0000
0100
0000
1100
0000
0000
1000
0000
0000
1000
0010
0100
0010
1000
0000
,  // measure 34
0001
0000
0000
0100
0001
1000
0000
0010
0000
0100
0010
0000
1000
0000
0001
0020
,  // measure 35
0000
0000
0100
0000
0001
0000
0031
0000
0011
0000
0010
0002
0000
0203
0000
2300
,  // measure 36
0000
3020
0000
0032
0000
0003
0001
1000
0010
0000
0100
0002
0000
0023
0000
0230
,  // measure 37
0000
0000
0310
0000
0100
0000
1000
0000
0001
0000
1000
0001
0000
0100
0000
1000
,  // measure 38
0000
0100
0000
0001
0000
1000
0000
0100
0000
0010
0000
0100
0000
1000
0000
0020
,  // measure 39
0000
0000
0000
0000
0130
0000
0000
0000
0110
0000
0000
0000
0101
0000
0000
1001
,  // measure 40
0000
0000
1000
0000
1010
0000
0010
0000
0100
0000
0001
0010
0000
0001
0000
1000
,  // measure 41
0000
0100
0010
0000
0010
0000
0001
0000
1000
0000
0000
0000
0001
0000
0010
0000
,  // measure 42
1000
0000
0010
0000
0100
0000
1000
0000
0001
0000
1000
0010
0000
0100
0000
0010
,  // measure 43
0000
0000
1000
0001
1000
0001
1000
0000
1001
0000
0000
0000
0110
0000
0000
0101
,  // measure 44
0000
0000
0001
0000
1001
0000
1000
0000
0100
0000
0010
0001
0000
0100
0000
0010
,  // measure 45
0000
1000
0001
0000
1000
0000
0100
0000
0010
0000
0100
0000
1000
0000
0001
0000
,  // measure 46
0100
0000
0010
0000
0100
0000
0001
0000
0010
0100
0000
0000
1000
0000
0001
0000
,  // measure 47
1000
0001
0100
0010
0100
0001
0010
0000
0011
0000
0000
0000
0110
0000
0000
1010
,  // measure 48
0000
1000
0001
0000
0101
0000
0100
0000
0010
0100
0000
0000
0001
0000
0010
0000
,  // measure 49
0100
0010
0100
0000
0110
0000
0010
0000
0001
0000
1000
0000
0001
0000
0100
0000
,  // measure 50
1000
0000
0100
0000
0001
0000
0010
0000
0100
0010
0000
0000
0100
0000
1000
0010
,  // measure 51
0000
1000
0001
0100
0001
1000
0001
0000
0101
0000
0000
0000
1001
0000
0000
1100
,  // measure 52
0000
0100
1000
0000
1001
0000
0001
0000
0100
0000
0010
0100
0000
0001
0000
0010
,  // measure 53
0000
0100
0010
0000
0010
0000
0001
0000
1000
0000
0001
0000
0100
0000
1000
0000
,  // measure 54
0100
0000
0010
0000
0100
0000
0001
0000
0010
0001
0000
0000
1000
0000
0010
0000
,  // measure 55
0100
0000
0001
1000
0001
0010
0100
0000
0110
0000
0000
0000
1010
0000
0000
1001
,  // measure 56
0000
0000
0010
0000
0011
0000
0001
0000
1000
0010
0000
0100
0000
0010
0000
1000
,  // measure 57
0000
0100
0010
0000
0010
0000
0100
0000
1000
0000
0000
0000
0001
0000
0010
0000
,  // measure 58
0100
0000
0000
0000
0010
0000
0000
0000
0001
0000
0000
1000
0000
0100
0000
0020
,  // measure 59
0000
0031
0011
0000
;

//---------------dance-single - ----------------
#NOTEDATA:;
#CHARTNAME:;
#STEPSTYPE:dance-single;
#DESCRIPTION:;
#CHARTSTYLE:;
#DIFFICULTY:Medium;
#METER:8;
#RADARVALUES:0.368813,0.416414,0.062209,0.202180,0.299383,332.000000,324.000000,8.000000,26.000000,0.000000,0.000000,0.000000,0.000000,0.000000,0.368813,0.416414,0.062209,0.202180,0.299383,332.000000,324.000000,8.000000,26.000000,0.000000,0.000000,0.000000,0.000000,0.000000;
#CREDIT:;
#NOTES:
// measure 0
0000
0000
0000
0000
,  // measure 1
0000
0000
0000
0000
,  // measure 2
0000
0000
0000
0000
,  // measure 3
0000
0000
0000
0000
,  // measure 4
0011
0000
0000
0000
0010
0000
0000
0010
0000
0000
0001
0000
1000
0000
0010
0000
,  // measure 5
0100
0000
0000
0000
0001
0000
0000
0001
0000
0000
1000
0000
0010
0000
1000
0000
,  // measure 6
0100
0000
0010
0100
2000
0000
3002
0000
,  // measure 7
0023
0100
0230
0010
,  // measure 8
1300
0000
0100
0000
0010
0100
1000
0000
,  // measure 9
0001
0000
0100
0000
0010
0100
0001
1000
,  // measure 10
0010
0000
0100
0000
0010
0100
0001
0000
,  // measure 11
0002
0023
2030
3200
,  // measure 12
0301
0000
1000
0000
0001
0100
0010
0000
,  // measure 13
1000
0000
0100
0000
0010
0100
1000
0001
,  // measure 14
0100
0000
0010
0000
0100
0010
1000
0000
,  // measure 15
0002
0023
2030
3200
,  // measure 16
0301
0000
0000
0000
1000
0000
0000
0100
0000
0000
1000
0000
0001
0000
0010
0000
,  // measure 17
0001
0000
0000
0000
0100
0000
0000
0010
0000
0000
0100
0000
0001
0000
0010
0000
,  // measure 18
0100
0000
0000
0000
0010
0000
0000
0001
0000
0000
0010
0000
1000
0000
0010
0000
,  // measure 19
0001
0000
0000
0000
0100
0000
0000
0001
0000
0000
0100
0000
0010
0000
1000
0000
,  // measure 20
1010
0000
0000
0000
0001
0000
0000
0010
0000
0000
0100
0000
0010
0000
0100
0000
,  // measure 21
0010
0000
0000
0001
0000
1000
0000
0001
0000
0000
0001
0000
0100
0000
0010
0000
,  // measure 22
0100
0000
0001
0010
0100
0000
0010
0000
,  // measure 23
0001
0000
0000
1000
0000
0010
0000
2000
0000
0000
0000
0000
0001
3000
0000
0000
,  // measure 24
1001
0000
0000
0000
1000
0000
0000
0100
0000
0000
0010
0000
0100
0000
1000
0000
,  // measure 25
0001
0000
0000
0100
0000
0010
0000
0100
0000
0000
0100
0000
0001
0000
0010
0000
,  // measure 26
0001
0100
1000
0100
0001
0000
0010
0000
,  // measure 27
0100
0000
0000
1000
0000
0000
0001
0000
1000
0000
0100
0000
1000
0000
0000
0200
,  // measure 28
0000
1000
0000
0010
0000
0001
0000
0010
,  // measure 29
0000
1300
0100
0001
0100
0010
0001
0100
,  // measure 30
0010
0000
1000
0000
0001
0010
0000
1000
0000
0010
0100
0000
1000
0000
0010
0200
,  // measure 31
0000
1000
0000
0010
0300
0100
0001
1000
,  // measure 32
0001
0000
0000
0000
0101
0000
0000
0001
0000
0000
1000
0000
0100
0000
1000
0000
,  // measure 33
0001
0000
0000
0000
0100
0000
0000
0010
0000
0000
0100
0000
0001
0000
0010
0000
,  // measure 34
0001
0000
0000
0000
1000
0000
0000
0010
0000
0000
0100
0000
0001
0000
1000
0000
,  // measure 35
0001
0000
0000
0000
0010
0000
0010
0000
0011
0000
0000
0001
0000
0010
0000
1000
,  // measure 36
0000
0010
0000
0001
0000
0000
0100
0010
0100
0000
0000
0001
0000
0010
0000
0100
,  // measure 37
0000
0000
1000
0000
1100
0000
0000
0000
0100
0000
0000
0010
0000
0100
0000
1000
,  // measure 38
0000
0001
0000
0100
0000
1000
0000
0001
0000
0010
0000
1000
0000
0100
0000
0020
,  // measure 39
0000
0000
0000
0000
0030
0000
0000
0000
0101
0000
0000
0000
0001
0000
0000
1000
,  // measure 40
0000
0000
0100
0000
1000
0000
0001
0000
0100
0000
0000
0010
0000
0100
0000
0010
,  // measure 41
0000
1000
0100
1000
0001
0000
0100
0010
,  // measure 42
0001
0000
0000
0000
0010
0000
0000
0000
1000
0000
0000
0100
0000
0010
0000
0002
,  // measure 43
0000
0000
0000
0000
0103
0000
0000
0000
0001
0000
0000
0000
1000
0000
0000
0100
,  // measure 44
0000
0000
1000
0000
0001
0000
0100
0000
0010
0000
0000
1000
0000
0100
0000
1000
,  // measure 45
0000
0001
0010
0001
0100
1000
0100
0001
,  // measure 46
0020
0000
0000
0000
0230
0000
0000
0000
1300
0000
0000
0020
0000
0000
0030
0000
,  // measure 47
0100
0000
0010
0000
0001
0000
0010
0000
1000
0000
0000
0000
0001
0000
0000
0010
,  // measure 48
0000
0000
0001
0000
0100
0000
0010
0000
1000
0000
0000
0100
0000
0010
0000
0100
,  // measure 49
0000
1000
0001
0100
0020
0000
0031
0010
,  // measure 50
2000
0000
0000
0000
3200
0000
0000
0000
0310
0000
0000
0100
0000
0010
0000
0001
,  // measure 51
0000
0000
1000
0000
0001
0000
0100
0001
0100
0000
0000
0000
0010
0000
0000
0100
,  // measure 52
0000
0000
0001
0000
0010
0000
0001
0000
1000
0000
0000
0100
0000
0010
0000
0100
,  // measure 53
0000
1000
1000
0000
0001
0000
0100
0010
,  // measure 54
1000
0000
0100
0000
0010
0100
1000
0001
,  // measure 55
0000
0000
0010
0000
0000
0000
0000
0000
0011
0000
0000
0000
0001
0000
0000
1000
,  // measure 56
0000
0000
0010
0000
0020
0000
0000
0000
0130
0000
0000
0001
0000
1000
0000
0001
,  // measure 57
0000
0010
0020
0000
0130
0000
0010
0001
,  // measure 58
1000
0000
0000
0000
0010
0000
0000
0000
0100
0000
0000
0001
0000
1000
0000
0002
,  // measure 59
0000
0003
0001
0000
;

//---------------dance-single - ----------------
#NOTEDATA:;
#CHARTNAME:;
#STEPSTYPE:dance-single;
#DESCRIPTION:;
#CHARTSTYLE:;
#DIFFICULTY:Easy;
#METER:6;
#RADARVALUES:0.282164,0.300743,0.054433,0.373256,0.000000,254.000000,247.000000,7.000000,48.000000,0.000000,0.000000,0.000000,0.000000,0.000000,0.282164,0.300743,0.054433,0.373256,0.000000,254.000000,247.000000,7.000000,48.000000,0.000000,0.000000,0.000000,0.000000,0.000000;
#CREDIT:;
#NOTES:
0000
0000
0000
0000
,
0000
0000
0000
0000
,
0000
0000
0000
0000
,
0000
0000
0000
0000
,
1001
0000
1000
0200
0010
0000
1000
0000
,
0010
0000
1300
0002
0100
0000
0010
0000
,
0103
0000
0001
0010
0100
0000
1000
0000
,
0002
0000
0203
0000
,
0310
0100
0010
0100
,
0001
1000
0001
1000
,
0100
0010
0100
0010
,
0002
0203
0320
0130
,
0001
1000
0001
1000
,
0010
0100
0010
0100
,
0010
1000
0010
1000
,
0002
0000
0023
0000
0230
0000
0310
0100
,
1000
0000
1000
0000
0100
0010
0100
0000
,
1000
0000
0001
0000
0100
0010
0100
0000
,
0001
0000
0010
0000
0100
0010
0100
0000
,
1000
0000
0001
0000
0200
0000
0000
0300
,
0110
0000
0010
0000
0100
0001
2000
0000
,
3100
0000
0010
0000
0100
1000
0002
0000
,
0013
0000
0100
0010
0002
0000
2003
0000
,
3020
0100
0030
0100
,
0001
0000
1000
0000
0001
0100
0002
0000
,
0013
0000
0100
0000
1000
0010
2000
0000
,
3100
0000
0010
0100
2000
0000
3002
0000
,
0023
0100
0030
0100
,
0110
0000
0000
0100
0000
1000
0000
0100
,
0000
1000
0000
0100
0000
0010
0000
0100
,
0000
0010
0000
0001
0000
0010
0000
0001
,
0000
1000
0000
0001
0000
1000
0000
0010
,
1000
0000
0100
0000
0010
0100
1000
0000
,
0001
0000
0100
0000
0010
0100
0001
0000
,
0010
0000
0100
0000
1000
0001
0100
0000
,
0010
0000
0100
0010
0100
0000
1000
0000
,
0010
0100
0001
0100
0010
0000
1000
0000
,
0100
0000
0010
0100
1000
0000
0001
0000
,
0010
0100
1000
0100
0010
0000
0001
0000
,
0011
0000
1001
1000
,
0100
1000
0002
0000
0013
0000
0100
0000
,
1000
0001
0020
0000
0230
0000
0310
0001
,
0020
0230
2300
0001
,
3000
0001
1000
0010
,
0100
0010
2000
0000
3100
0000
0010
0000
,
0100
0010
0002
0000
2003
0000
3010
1000
,
0002
0203
0320
1000
,
0030
1000
1010
0001
,
0010
0001
0020
0000
0130
0000
0010
0000
,
0001
1000
0002
0000
0203
0000
0310
0100
,
2000
3200
0302
0100
,
0003
0100
0001
0010
,
0100
0010
0200
0000
1300
0000
0001
0000
,
0100
0010
0200
0000
0301
0000
0100
0010
,
0002
0023
2030
0001
,
3000
0001
1001
1000
,
0100
1000
0001
0100
,
0001
0000
0010
0000
0200
0000
0310
0100
,
2000
3200
0320
0001
,
0030
0001
0010
0000
;

//---------------dance-single - ----------------
#NOTEDATA:;
#CHARTNAME:;
#STEPSTYPE:dance-single;
#DESCRIPTION:;
#CHARTSTYLE:;
#DIFFICULTY:Beginner;
#METER:3;
#RADARVALUES:0.137749,0.161939,0.062209,0.000000,0.000000,124.000000,116.000000,8.000000,0.000000,0.000000,0.000000,0.000000,0.000000,0.000000,0.137749,0.161939,0.062209,0.000000,0.000000,124.000000,116.000000,8.000000,0.000000,0.000000,0.000000,0.000000,0.000000,0.000000;
#CREDIT:;
#NOTES:
0000
0000
0000
0000
,
0000
0000
0000
0000
,
0000
0000
0000
0000
,
0000
0000
0000
0000
,
0000
1000
0000
0001
,
0000
1000
0000
0001
,
0000
0010
0000
0100
,
0000
0010
0000
0100
,
0000
1000
0000
0001
,
0000
1000
0000
0001
,
0000
0100
0000
0010
,
0000
0100
0010
0100
,
0000
0001
0000
0100
,
0000
0001
0000
0010
,
0000
0100
0000
0010
,
0000
0100
1000
0100
,
0000
0010
0000
0100
,
0000
1000
0000
0001
,
0000
0010
0000
0100
,
0000
1000
0000
0000
,
1001
1000
0000
1000
,
0000
0001
0000
0001
,
0010
0000
0100
0010
,
0100
0000
0000
0000
,
0110
0100
0000
0100
,
0000
1000
0000
1000
,
0001
0000
0100
0001
,
0100
0000
0000
0000
,
1001
0000
0000
0000
,
0000
0000
0000
0000
,
1000
0000
0000
0000
,
0001
0000
0000
0000
,
1001
0000
1000
0100
,
1000
0000
0001
0000
,
0010
0000
0100
0010
,
0100
0000
0000
1000
,
0000
0100
0000
0010
,
0000
0001
0000
1000
,
0000
0100
0000
0010
,
0000
0001
1001
1000
,
0000
1000
0000
0001
,
0000
0001
0100
0000
,
0010
0100
0010
0000
,
0000
0000
0110
0100
,
0000
0100
0000
0001
,
0000
0001
1000
0000
,
0100
1000
0100
0000
,
0000
0000
1001
0001
,
0000
0001
0000
0100
,
0000
0100
0001
0000
,
0010
0100
0010
0000
,
0000
0000
0110
0010
,
0000
0010
0000
0001
,
0000
0001
1000
0000
,
0010
1000
0010
0000
,
0000
0000
1000
0000
,
0100
0000
1000
0000
,
0100
0000
0010
0000
,
0001
0000
0010
0000
,
0001
0000
1000
0000
;
