#TITLE:Promise;
#SUBTITLE:;
#ARTIST:広瀬香美;
#TITLETRANSLIT:;
#SUBTITLETRANSLIT:;
#ARTISTTRANSLIT:Kohmi Hirose;
#GENRE:;
#CREDIT:;
#BANNER:Promise.png;
#BACKGROUND:Promise-bg.png;
#LYRICSPATH:;
#CDTITLE:;
#MUSIC:Promise.ogg;
#OFFSET:-2.440000;
#SAMPLESTART:63.386177;
#SAMPLELENGTH:16.447639;
#SELECTABLE:YES;
#BPMS:0.000000=124.040009
;
#STOPS:
;
#BGCHANGES:;
#KEYSOUNDS:;
#ATTACKS:;

//---------------dance-single - ----------------
#NOTES:
     dance-single:
     :
     Hard:
     13:
     0.381401,0.483706,0.141343,0.353357,0.204162,340.000000,322.000000,18.000000,45.000000,0.000000,0.000000,0.381401,0.483706,0.141343,0.353357,0.204162,340.000000,322.000000,18.000000,45.000000,0.000000,0.000000:
// measure 0
0000
0000
0000
0000
,  // measure 1
0000
0000
0000
0000
,  // measure 2
0000
0000
0000
0000
,  // measure 3
0000
0000
2000
3200
,  // measure 4
0320
0000
0000
0000
0130
0010
0100
1000
0010
0000
0100
0000
0000
0000
0100
0000
,  // measure 5
0020
0000
0000
0000
0130
0010
0100
0001
0010
0000
0100
0000
0000
0000
0200
0000
,  // measure 6
4000
0000
0000
0000
,  // measure 7
3300
0001
1000
0010
,  // measure 8
0210
0000
0000
0000
1000
0000
0000
0000
0010
0000
0000
1000
0000
0000
0010
0000
,  // measure 9
0010
0001
0010
1000
,  // measure 10
0320
0000
0000
0000
0100
0000
0000
0000
0100
0000
0000
0000
0130
0000
0010
1000
,  // measure 11
0002
1000
1000
1003
,  // measure 12
1001
0000
0000
0000
0001
0000
0000
0000
0010
0000
0000
1000
0000
0000
0001
0000
,  // measure 13
0001
1000
0010
0100
,  // measure 14
2002
0000
0000
3003
,  // measure 15
1010
0000
0000
0000
0110
0000
0000
1001
0000
0000
0010
0000
0100
0000
0001
0000
,  // measure 16
0000
0001
1000
0100
0010
0001
0000
1000
,  // measure 17
0000
0000
1000
0000
0001
0000
0010
0000
0100
0000
1000
0000
1000
0000
0001
0010
,  // measure 18
0100
0000
0000
0000
0010
0000
0100
1000
0001
0000
0000
0000
1000
0000
0001
0100
,  // measure 19
0010
0000
0010
0100
0000
0010
0000
0100
0010
1000
0010
1000
0001
0000
1000
0000
,  // measure 20
0000
1000
0001
0010
0100
1000
0000
0101
,  // measure 21
0000
0101
0000
1100
0000
1100
0000
1000
,  // measure 22
0001
0000
0000
0000
1000
0000
0001
0100
0010
0000
0000
0000
0100
0000
0010
1000
,  // measure 23
0001
0000
0000
0000
1001
0000
0000
0000
1000
0100
0000
0010
0001
0000
1000
0000
,  // measure 24
0001
0000
0010
0000
1000
0000
0100
0001
,  // measure 25
0010
0000
1000
0000
0100
0000
0001
0010
,  // measure 26
1000
0000
0100
0000
0001
0000
0010
1000
,  // measure 27
0100
0000
0000
0000
0001
0000
0000
0000
1000
0001
1000
0000
0001
0000
1000
0100
,  // measure 28
0010
0001
1000
0010
0001
1000
0001
0010
,  // measure 29
0100
0001
1000
0100
0001
1000
0001
0100
,  // measure 30
0010
0000
0011
0000
0001
0010
0100
1000
,  // measure 31
0001
1001
0000
0110
,  // measure 32
1000
0000
1000
0100
0010
0000
0010
0001
1000
0000
1000
0010
0100
0000
0010
0000
,  // measure 33
0200
0000
0000
0000
0310
0000
0100
0010
2000
0000
0000
0000
3001
0000
1000
0010
,  // measure 34
0100
0000
0001
0000
0010
0000
0001
0100
0010
0000
1000
0000
0100
0000
1000
0010
,  // measure 35
0200
0000
0000
0000
0001
0000
0000
0000
0310
0000
0010
0000
0000
0000
0100
0001
,  // measure 36
0200
0000
0000
0000
0301
0100
0010
1000
0001
0000
1000
0000
0000
0000
0010
1000
,  // measure 37
0020
0000
0000
0000
1030
0010
0100
0001
1000
0000
0001
0000
1000
0000
0001
0000
,  // measure 38
0020
2030
3200
0302
0023
2030
3200
0302
,  // measure 39
0023
0030
0100
0000
1000
0000
2002
3003
,  // measure 40
0001
0000
0000
0001
0010
0000
0010
0100
1000
0000
1000
0010
0100
0000
0010
0000
,  // measure 41
0200
0000
0000
0000
0310
0000
0100
0010
2000
0000
0000
0000
3001
0000
1000
0010
,  // measure 42
0100
0000
0001
0010
0100
0000
0010
0001
0100
0000
0010
1000
0001
1000
0010
0100
,  // measure 43
0020
0000
0000
0000
1000
0000
0000
0000
0100
0000
0130
0000
0000
0000
0010
1000
,  // measure 44
0020
0000
0000
0000
0130
0001
0010
0000
0100
0000
0100
0000
0000
0000
0010
0001
,  // measure 45
0020
0000
0000
0000
0130
1000
0010
0000
0100
0000
0100
0000
0001
0000
0001
0000
,  // measure 46
2000
3200
0302
0023
2030
3200
0302
0023
,  // measure 47
2030
3000
0001
0000
1000
0000
0100
0000
,  // measure 48
0210
0000
0000
0000
0001
0000
0000
0000
0010
0000
0000
0001
0000
0000
0010
0000
,  // measure 49
0010
1000
0010
0001
,  // measure 50
0320
0000
0000
0000
0100
0000
0000
0000
0100
0000
0000
0000
0130
0000
0010
0001
,  // measure 51
2000
0001
0001
3001
,  // measure 52
1001
0000
0000
0000
1000
0000
0000
0000
0010
0000
0000
0001
0000
0000
1000
0000
,  // measure 53
1000
0001
0010
0100
,  // measure 54
2002
0000
0000
0000
,  // measure 55
0000
0000
0000
0000
,  // measure 56
3003
0000
0000
0000
;

//---------------dance-single - ----------------
#NOTES:
     dance-single:
     :
     Medium:
     10:
     0.293903,0.329800,0.054967,0.219867,0.047114,262.000000,255.000000,7.000000,28.000000,0.000000,0.000000,0.293903,0.329800,0.054967,0.219867,0.047114,262.000000,255.000000,7.000000,28.000000,0.000000,0.000000:
0000
0000
0000
0000
,
0000
0000
0000
0000
,
0000
0000
0000
0000
,
0000
0000
2000
3200
,
0320
0000
0130
1000
0010
0100
0000
0100
,
0020
0000
0130
0001
0010
0100
0000
0100
,
1000
0001
1000
0001
1000
0001
1000
0001
,
1000
0100
0001
0010
,
2000
0001
0010
0010
,
0001
0010
0001
0100
,
3002
0000
1000
0000
1000
0000
1003
0010
,
0200
0010
0010
0310
,
0110
0000
0000
0000
0010
0000
0000
0000
1000
0000
0000
0100
0000
0000
0010
0000
,
0010
0100
0010
0001
,
2000
0000
0000
0000
,
3001
0000
0110
0000
1001
0000
1000
0001
,
0000
0001
1000
0000
1000
0100
0010
0000
,
0100
0000
0010
0100
0010
0001
0010
0001
,
1000
0000
1000
0010
0100
0000
0010
1000
,
0001
0000
0001
0010
0100
0010
0100
1000
,
0000
1000
0001
0000
1000
0010
0100
0010
,
0000
0100
0000
0001
0000
1000
0000
0001
,
0010
0000
0001
1000
0010
0000
1000
0001
,
0010
0000
0100
0000
0010
0001
1000
0000
,
0001
0000
0000
0000
0100
0000
0000
0000
0010
0000
0000
0010
0000
0000
0010
0000
,
0000
0000
0000
0000
1000
0000
0000
0000
0001
0000
0000
0001
0000
0000
0001
0000
,
0000
0000
0000
0000
0010
0000
0000
0000
0100
0000
0000
0100
0000
0000
0100
0000
,
0010
0000
0000
0010
0000
0000
0010
0000
0100
0000
0010
0000
0001
0000
1000
0000
,
0002
0000
0000
0203
0000
0000
2300
0000
,
3020
0000
0000
0032
0000
0000
0203
0000
,
0020
0000
0000
0330
,
0010
0110
0000
1001
,
1000
0000
0000
0001
0010
0000
0000
1000
0100
0000
0000
0001
0010
0000
0001
0000
,
0020
0000
0130
0010
0200
0000
1300
0000
,
0001
0001
1000
0000
1000
1000
0010
1000
,
0002
0000
1000
0000
0010
0000
1003
0001
,
1000
0000
1000
0010
0100
0100
0000
0100
,
0001
0000
0001
0010
0100
0100
0000
0100
,
1000
0010
0001
0000
1000
0010
0001
0000
,
1000
0000
0010
0000
0100
0000
0220
0330
,
0001
0000
0000
1000
0010
0000
0000
0001
0100
0000
0000
1000
0010
0000
1000
0000
,
0020
0000
0130
0010
0200
0000
0301
0000
,
1000
1000
0001
0000
0001
0001
0010
0001
,
2000
0000
0001
0000
0010
0000
3001
1000
,
0001
0000
0001
0010
0100
0100
0000
0100
,
1000
0000
1000
0010
0100
0100
0000
0100
,
0001
0010
1000
0000
0001
0010
1000
0000
,
0001
0010
0100
1000
,
0002
1000
0010
0010
,
1000
0010
1000
0100
,
2003
0000
0001
0000
0001
0000
3001
0010
,
0200
0010
0010
0310
,
0110
0000
0000
0000
0010
0000
0000
0000
0001
0000
0000
0100
0000
0000
0010
0000
,
0010
0100
0010
2000
,
0002
0000
0000
0000
,
0000
0000
0000
0000
,
3003
0000
0000
0000
;

//---------------dance-single - ----------------
#NOTES:
     dance-single:
     :
     Easy:
     6:
     0.212014,0.329800,0.149195,0.361209,0.000000,189.000000,170.000000,19.000000,46.000000,0.000000,0.000000,0.212014,0.329800,0.149195,0.361209,0.000000,189.000000,170.000000,19.000000,46.000000,0.000000,0.000000:
0000
0000
0000
0000
,
0000
0000
0000
0000
,
0000
0000
0000
0000
,
0000
0000
2000
3200
,
0320
0000
0000
0000
0130
0100
0000
0000
,
2000
0000
0000
0000
3001
0001
0000
0000
,
2000
3020
0032
0203
,
2300
3010
0100
0001
,
2000
0001
0001
0001
,
0010
0010
0010
0010
,
3002
0000
0000
0000
,
2000
0000
0000
3003
,
1001
1000
0100
0001
,
0010
0010
1000
1000
,
2002
0000
0000
3003
,
1100
0000
0110
0000
1001
0000
0000
0001
,
0000
0000
0001
0000
0001
0001
0000
1000
,
0000
0000
1000
0000
1000
1000
0000
0000
,
0020
0000
0230
0000
,
0310
0000
0010
0000
1000
0000
1000
1000
,
0000
0000
1000
0000
1000
1000
0000
0001
,
0000
0001
0000
0010
0000
0100
0000
1000
,
0000
0000
0000
1000
0001
0000
0000
0001
,
1000
0000
0001
0100
,
0010
0000
0100
0000
0001
0000
0010
0010
,
0000
0000
1000
0000
0100
0000
0001
0001
,
0000
0010
1000
0100
,
0001
0010
0100
1000
,
0002
0000
0010
0010
,
0023
0000
0100
0100
,
0230
0000
1000
1300
,
0100
0100
1000
1001
,
1100
0101
1100
0101
,
1200
0001
0310
0000
,
0002
0103
2000
3010
,
0002
0000
0003
0000
,
2000
0000
0000
0000
3010
0010
0000
0000
,
0002
0000
0000
0000
0013
0010
0000
0000
,
0002
0203
2300
3020
,
0032
1003
0001
1001
,
0101
1100
0101
1100
,
0201
1000
0310
2000
,
3100
0000
0002
0000
0013
0000
1000
0001
,
2000
0000
3000
0000
,
0002
0000
0000
0000
0013
0010
0000
0000
,
2000
0000
0000
0000
3010
0010
0000
0000
,
2000
3200
0302
0023
,
2030
3100
0010
0001
,
2000
0001
0001
0001
,
0010
0010
0010
0010
,
3002
0000
0000
0000
,
2000
0000
0000
3003
,
1001
1000
0100
0001
,
0010
0010
1000
1000
,
2002
0000
0000
3003
,
0000
0000
0000
0000
,
1000
0000
0000
0000
;

//---------------dance-single - ----------------
#NOTES:
     dance-single:
     :
     Beginner:
     3:
     0.143586,0.307813,0.133490,0.212014,0.000000,128.000000,111.000000,17.000000,27.000000,0.000000,0.000000,0.143586,0.307813,0.133490,0.212014,0.000000,128.000000,111.000000,17.000000,27.000000,0.000000,0.000000:
0000
0000
0000
0000
,
0000
0000
0000
0000
,
0000
0000
0000
0000
,
0000
0000
1000
1000
,
2000
0000
3001
0000
,
0002
0000
1003
0000
,
2002
0000
0000
0000
,
3003
0000
0010
0010
,
0020
0000
0000
0000
,
0000
0000
0000
0030
,
0200
0000
0000
0300
,
0002
0000
0000
0003
,
0000
1000
1000
1000
,
0001
0001
0001
0001
,
2000
0000
0000
3000
,
1000
1000
0001
0000
,
0100
0100
0100
0000
,
0010
0010
0010
0000
,
0100
0000
0001
0000
,
0010
0000
1000
0000
,
0100
0100
0100
0000
,
0001
0001
0001
0000
,
1000
0000
0100
0000
,
0010
0000
0001
0001
,
0001
0100
0010
0100
,
0010
0000
1000
0001
,
1000
0000
0100
0010
,
0100
0100
0010
0010
,
0002
0003
0200
0300
,
2000
3000
0020
0030
,
0002
0000
0000
0000
,
0003
0001
0000
1001
,
0110
1001
0110
1001
,
0110
0000
1001
0000
,
1000
1000
0001
0001
,
2000
0000
0000
3000
0000
0000
0000
0000
,
0002
0000
0013
0000
,
2000
0000
3010
0000
,
0220
0000
0000
0000
,
0330
0000
0000
1001
,
0110
1001
0110
1001
,
0110
0000
1001
0000
,
0001
0001
1000
0001
,
2000
0000
3000
0000
,
0002
0000
0013
0000
,
2000
0000
3010
0000
,
0220
0000
0000
0000
,
0330
0000
0010
0010
,
0020
0000
0000
0000
,
0000
0000
0000
0030
,
0200
0000
0000
0300
,
0002
0000
0000
0003
,
0000
1000
1000
1000
,
0001
0001
0001
0001
,
2000
0000
0000
0000
,
0000
0000
0000
0000
,
3000
0000
0000
0000
;
