#VERSION:0.83;
#TITLE:Profession;
#SUBTITLE:;
#ARTIST:syzfonics;
#TITLETRANSLIT:;
#SUBTITLETRANSLIT:;
#ARTISTTRANSLIT:;
#GENRE:;
#ORIGIN:;
#CREDIT:;
#BANNER:Profession-banner.png;
#BACKGROUND:;
#PREVIEWVID:;
#JACKET:Profession-jacket.png;
#CDIMAGE:;
#DISCIMAGE:;
#LYRICSPATH:;
#CDTITLE:;
#MUSIC:Profession.ogg;
#OFFSET:-0.589000;
#SAMPLESTART:36.940002;
#SAMPLELENGTH:15.000000;
#SELECTABLE:YES;
#BPMS:0.000=132.000;
#STOPS:;
#DELAYS:;
#WARPS:;
#TIMESIGNATURES:0.000=4=4;
#TICKCOUNTS:0.000=4;
#COMBOS:0.000=1;
#SPEEDS:0.000=1.000=0.000=0;
#SCROLLS:0.000=1.000;
#FAKES:;
#LABELS:0.000=Song Start;
#BGCHANGES:;
#KEYSOUNDS:;
#ATTACKS:
;

//---------------dance-single - ----------------
#NOTEDATA:;
#CHARTNAME:;
#STEPSTYPE:dance-single;
#DESCRIPTION:;
#CHARTSTYLE:;
#DIFFICULTY:Easy;
#METER:4;
#RADARVALUES:0.150671,0.213715,0.046259,1.054696,0.000000,114.000000,109.000000,5.000000,114.000000,0.000000,0.000000,0.000000,0.000000,0.000000,0.150671,0.213715,0.046259,1.054696,0.000000,114.000000,109.000000,5.000000,114.000000,0.000000,0.000000,0.000000,0.000000,0.000000;
#CREDIT:;
#NOTES:
0000
0000
0000
0000
,
0000
0000
0000
0000
,
0000
0000
0000
0000
,
0000
0000
0000
0000
,
2000
0000
0000
0000
,
3002
0000
0000
0000
,
0203
0000
0000
0000
,
0320
0000
0000
0000
,
2030
0002
0003
0000
,
3020
0200
0300
0000
,
0230
0002
0003
0300
,
2002
0000
0000
3003
,
2000
0000
3002
0000
,
0203
0000
0320
0000
,
2030
0000
3200
0000
,
0320
0000
0032
0000
,
0203
0000
0320
0000
,
2030
0000
3002
0000
,
0023
0000
0000
0000
,
0200
0000
0000
0330
,
2000
3200
0320
0030
,
0002
0203
0320
0030
,
2000
3002
2003
3000
,
2000
3200
0320
0032
,
2003
3020
0230
0300
,
0002
2003
3200
0300
,
2000
3200
0320
0030
,
0002
0023
0230
0300
,
2000
0000
0000
0000
,
3200
0000
0000
0000
,
0320
0000
0000
0000
,
0032
0000
0000
0003
,
2200
0000
3300
0000
,
0022
0030
2003
3000
,
0200
0000
0000
0000
,
0320
0030
0200
2300
,
3002
0000
0000
0003
,
2000
0000
0000
0000
,
3020
0000
0230
0000
,
0302
0000
2003
3200
,
0320
0032
2003
3200
,
2300
3000
0002
0003
,
0200
0020
0330
2000
,
3002
0000
0203
0320
,
2030
0000
0000
3002
,
0203
0000
0000
0300
,
0020
0030
2000
3000
,
0002
0003
0200
0300
,
2002
0000
0000
3003
,
0220
0000
0000
0330
,
2000
0000
0200
3300
,
2000
3200
0320
0032
,
2003
0000
0020
3030
,
0200
2300
3020
2030
,
3020
0000
0200
0330
,
2000
3002
0203
0320
,
2030
0000
0000
0000
,
0002
0000
0000
3003
;

//---------------dance-single - ----------------
#NOTEDATA:;
#CHARTNAME:;
#STEPSTYPE:dance-single;
#DESCRIPTION:;
#CHARTSTYLE:;
#DIFFICULTY:Medium;
#METER:8;
#RADARVALUES:0.252440,0.320572,0.083265,0.508845,0.000000,191.000000,182.000000,9.000000,55.000000,0.000000,0.000000,0.000000,0.000000,0.000000,0.252440,0.320572,0.083265,0.508845,0.000000,191.000000,182.000000,9.000000,55.000000,0.000000,0.000000,0.000000,0.000000,0.000000;
#CREDIT:;
#NOTES:
// measure 0
0000
0000
0000
0000
,  // measure 1
0000
0000
0000
0000
,  // measure 2
0000
0000
0000
0000
,  // measure 3
0000
0000
0000
0000
,  // measure 4
1000
0010
0200
0300
,  // measure 5
0001
0100
0020
0030
,  // measure 6
0100
0001
2000
3000
,  // measure 7
0010
0100
0002
0003
,  // measure 8
1000
1001
0200
0300
,  // measure 9
0010
0110
0200
0300
,  // measure 10
0100
0101
0002
0003
,  // measure 11
2002
0000
0000
3003
,  // measure 12
0002
0000
2003
0000
,  // measure 13
3020
0000
0230
0000
,  // measure 14
0320
0000
0230
0000
,  // measure 15
0302
0000
2003
0000
,  // measure 16
3200
0000
0320
0000
,  // measure 17
0032
0000
2003
0000
,  // measure 18
3100
0100
0100
0100
,  // measure 19
0200
0000
0300
1100
,  // measure 20
1000
0100
1000
0000
0010
0000
0100
0000
,  // measure 21
0001
0100
0001
0000
1000
0000
0001
0000
,  // measure 22
0010
0100
0010
0000
0100
0000
0001
0000
,  // measure 23
1000
0100
0010
0001
0100
0000
0010
0000
,  // measure 24
1000
0001
0100
0000
0010
0000
0100
0000
,  // measure 25
0010
0100
1000
0000
0001
0000
0100
0000
,  // measure 26
0010
0100
0001
0000
0100
0000
0010
0000
,  // measure 27
1000
0001
0100
0010
1000
0000
0001
0000
,  // measure 28
0100
0010
0100
0000
0002
0000
0003
0000
,  // measure 29
1000
0100
1000
0000
0020
0000
0030
0000
,  // measure 30
1000
0001
1000
0000
0200
0000
0300
0000
,  // measure 31
0010
0100
0010
0000
2000
0000
3001
0000
,  // measure 32
2001
0000
0000
0000
3000
0000
0000
0100
,  // measure 33
0020
0030
0002
0003
,  // measure 34
0200
0000
0000
0000
0300
0000
0000
0010
,  // measure 35
0200
0300
0010
0100
,  // measure 36
1002
0000
0003
0100
,  // measure 37
2000
0000
0000
0000
0000
0000
3000
0001
,  // measure 38
0020
0000
0230
0000
,  // measure 39
2300
0000
3000
0000
1000
0001
1000
0000
,  // measure 40
1000
0001
0100
0010
,  // measure 41
2000
3000
0002
0003
,  // measure 42
0200
0000
0020
0000
0330
0000
1000
0100
,  // measure 43
2000
3000
0200
0320
,  // measure 44
0032
0000
0003
0000
0000
0000
0001
1000
,  // measure 45
0200
0000
0300
0000
0100
1000
0100
0000
,  // measure 46
0020
0030
2000
3000
,  // measure 47
0002
0003
0200
0300
,  // measure 48
2001
0000
3001
0000
,  // measure 49
0210
0000
0310
0000
,  // measure 50
1000
0100
1000
0000
0200
0000
0300
0000
,  // measure 51
1000
0010
0100
0010
1000
0000
0001
0000
,  // measure 52
0100
0001
0100
0000
0020
0000
0030
0000
,  // measure 53
0100
0010
1000
0100
1000
0000
0001
0000
,  // measure 54
0010
0100
0010
0000
2000
0000
3000
0000
,  // measure 55
0001
0100
0010
0100
0001
0000
0100
0000
,  // measure 56
1000
1000
1000
1000
,  // measure 57
2000
0000
0000
3001
;

//---------------dance-single - ----------------
#NOTEDATA:;
#CHARTNAME:;
#STEPSTYPE:dance-single;
#DESCRIPTION:;
#CHARTSTYLE:;
#DIFFICULTY:Hard;
#METER:11;
#RADARVALUES:0.391216,0.454635,0.018503,0.314559,0.305307,296.000000,294.000000,2.000000,34.000000,0.000000,0.000000,0.000000,0.000000,0.000000,0.391216,0.454635,0.018503,0.314559,0.305307,296.000000,294.000000,2.000000,34.000000,0.000000,0.000000,0.000000,0.000000,0.000000;
#CREDIT:;
#NOTES:
0000
0000
0000
0000
,
0000
0000
0000
0000
,
0000
0000
0000
0000
,
0000
0000
0000
0000
,
1000
0010
0100
0000
0001
0000
0100
0000
,
0001
0100
0010
0000
1000
0000
0100
0000
,
0100
1000
0001
0000
1000
0000
0001
0000
,
0010
0100
0001
0000
1000
0000
0001
0000
,
1000
0100
0010
0000
0002
0000
0003
0000
,
0010
0100
1000
0000
0020
0000
0030
0000
,
0100
0001
0010
0000
0200
0000
0300
0000
,
2002
0000
0000
3003
,
0001
0000
0001
0000
0000
1000
0000
0100
0000
1000
0000
0000
0100
0000
0010
0000
,
0001
0000
1000
0000
0000
0100
0000
0010
0000
0100
0000
0000
1000
0000
0100
0000
,
1000
0000
0010
0000
0000
0100
0000
0001
0000
0100
0000
0000
0010
0000
0100
0000
,
0001
0000
1000
0000
0000
1000
0000
0001
0000
1000
0000
0000
0100
0000
0010
0000
,
0100
0000
0010
0000
0000
0100
0000
0010
0000
1000
0000
0000
0100
0000
1000
0000
,
0100
0000
0010
0000
0000
0001
0000
0100
0000
0001
0000
0000
1000
0000
0100
0000
,
1000
0100
0010
0001
1000
0100
0010
0001
,
2000
0000
3000
1100
,
1000
0000
0100
0000
1000
0001
0000
0100
0000
0010
0000
0000
0100
0000
0010
0000
,
1000
0000
0100
0000
0010
0100
0000
1000
0000
0001
0000
0000
1000
0000
0001
0000
,
0100
0000
0010
0000
1000
0001
0000
0100
0000
0010
0000
0000
1000
0000
0001
0000
,
0100
0010
0100
0001
1000
0100
0010
0001
,
1000
0000
0100
0000
1000
0001
0000
1000
0000
0001
0000
0000
0100
0000
0010
0000
,
1000
0000
0001
0000
0100
0010
0000
0100
0000
0010
0000
0000
1000
0000
0100
0000
,
0010
0000
0001
0000
0010
0100
0000
1000
0000
0100
0000
0000
1000
0000
0100
0000
,
1000
0000
0100
0000
0010
0001
0000
0010
0000
0001
0000
0000
1000
0000
0001
0000
,
1000
0100
0010
0001
0010
0100
1000
0001
,
0100
0010
1000
0001
0100
0010
1000
0001
,
1000
0001
0010
0100
1000
0001
0100
0010
,
1000
0001
1000
0001
1000
0000
0001
0100
,
0020
0000
0000
0000
0000
0000
0000
0000
0030
0000
0000
0000
0000
0000
1000
0100
,
0020
0030
0002
0003
,
2000
0000
0000
0000
0000
0000
0000
0000
3000
0000
0000
0000
0000
0000
0001
0100
,
0020
0030
2000
3200
,
0320
0000
0030
0000
0000
0000
0001
1000
,
0200
0000
0000
0000
0300
0000
0000
0000
0000
0000
0000
0000
0000
0000
1000
0010
,
0200
0000
0000
0000
0300
0000
0000
0000
0002
0000
0000
0000
0003
0000
1000
0010
,
0200
0000
0300
0000
1000
0100
0010
0001
,
1000
0001
0100
0010
,
2000
3000
0020
0030
,
1000
0000
0010
0100
0002
0000
0000
0000
1003
0000
0000
0000
0100
0000
0010
0001
,
1000
0010
0200
0302
,
1003
0000
0100
0000
1000
0000
0010
0100
,
0002
0000
0000
0000
0003
0000
0000
0000
1000
0100
1000
0000
0010
0000
0100
0001
,
0200
0000
0320
0000
,
2030
0000
3002
0000
,
2003
0000
0000
0000
,
3200
0000
0000
0300
,
1000
0000
0001
0000
0000
0100
0000
0010
0000
0200
0000
0000
0000
0000
0300
0000
,
1000
0000
0100
0000
0010
0001
0000
0010
0000
0100
0000
0000
1000
0000
0100
0000
,
1000
0000
0010
0000
0100
0001
0000
1000
0000
0002
0000
0000
0000
0000
0003
0000
,
1000
0000
0001
0000
0100
0010
0000
0100
0000
0010
0000
0000
0010
0000
0100
0000
,
0001
0000
1000
0000
0100
0010
0000
0001
0000
0020
0000
0000
0000
0000
0030
0000
,
1000
0000
0100
0000
1000
0010
0000
0100
0000
0001
0000
0000
1000
0000
0001
0000
,
0100
0010
1000
0001
0100
0010
1000
0001
,
0200
0000
0000
0000
0000
0000
0000
0000
0000
0000
0300
0000
0010
1000
0000
0000
;
