#VERSION:0.83;
#TITLE:Poison;
#SUBTITLE:;
#ARTIST:Bell Biv DeVoe;
#TITLETRANSLIT:;
#SUBTITLETRANSLIT:;
#ARTISTTRANSLIT:;
#GENRE:;
#ORIGIN:;
#CREDIT:;
#BANNER:Poison-bn.png;
#BACKGROUND:Poison-bg.png;
#PREVIEWVID:;
#JACKET:Poison-jacket.png;
#CDIMAGE:;
#DISCIMAGE:;
#LYRICSPATH:;
#CDTITLE:;
#MUSIC:Poison.ogg;
#OFFSET:0.000000;
#SAMPLESTART:61.338001;
#SAMPLELENGTH:20.000000;
#SELECTABLE:YES;
#DISPLAYBPM:112.000000;
#BPMS:0.000=111.840;
#STOPS:;
#DELAYS:;
#WARPS:;
#TIMESIGNATURES:0.000=4=4;
#TICKCOUNTS:0.000=4;
#COMBOS:0.000=1;
#SPEEDS:0.000=1.000=0.000=0;
#SCROLLS:0.000=1.000;
#FAKES:;
#LABELS:0.000=Song Start;
#BGCHANGES:;
#KEYSOUNDS:;
#ATTACKS:
;

//---------------dance-single - ----------------
#NOTEDATA:;
#CHARTNAME:;
#STEPSTYPE:dance-single;
#DESCRIPTION:;
#CHARTSTYLE:;
#DIFFICULTY:Hard;
#METER:13;
#RADARVALUES:0.503211,0.563296,0.390552,0.390552,0.416839,469.000000,417.000000,52.000000,52.000000,0.000000,0.000000,0.000000,0.000000,0.000000,0.503211,0.563296,0.390552,0.390552,0.416839,469.000000,417.000000,52.000000,52.000000,0.000000,0.000000,0.000000,0.000000,0.000000;
#CREDIT:;
#DISPLAYBPM:112.000000;
#NOTES:
0000
0000
0000
0000
,
0000
0000
0000
0000
,
0000
0000
0000
0000
,
0000
0000
0000
0000
,
2001
3002
0023
0230
,
1300
0000
0000
0000
0000
0000
1000
0000
0001
1000
0000
0001
0000
0000
0100
0010
0000
0000
0010
0000
1000
0000
0000
0000
,
0001
0010
0100
0010
0001
1000
0100
1000
,
1100
0000
0000
0000
0000
0000
0010
0000
0100
0010
0000
0100
0000
0000
0001
1000
0000
0000
1000
0000
0100
0000
0000
0000
,
0011
0000
0001
0100
1000
1000
1000
0000
,
0020
0000
0000
0230
0000
0000
0301
0000
0010
0001
0000
0010
0000
0000
0100
1000
0000
0000
1000
0000
0001
0000
0000
0000
,
0010
0001
0100
0010
1000
0001
1000
0100
,
0110
0000
0000
0000
0000
0000
0010
0000
0001
0010
0000
0001
0000
0000
1000
0100
0000
0000
0100
0000
0010
0000
0000
0000
,
0002
2003
3020
0230
,
0302
0000
0000
2003
0000
0000
3010
0000
1000
0010
0000
1000
0000
0000
0001
0100
0000
0000
0100
0000
0010
0000
0000
0000
,
1000
0100
0010
0001
0100
0010
1000
0001
,
0010
0000
0000
0000
0000
0000
0001
0000
1000
0001
0000
1000
0000
0000
0010
0100
0000
0000
0100
0000
0001
0000
0000
0000
,
2001
3200
0320
0032
,
1003
0000
0000
0000
0000
0000
1000
0000
0100
1000
0000
0100
0000
0000
0010
0001
0000
0000
0001
0000
0100
0000
0000
0000
,
1000
0001
0010
0001
0010
0100
1000
0100
,
0010
0000
0000
0000
0000
0000
0100
0000
0010
0100
0000
0010
0000
0000
0001
1000
0000
0000
0001
0000
1000
0000
0000
0000
,
1100
0000
0000
0000
0101
0000
1000
0001
2000
0000
0000
0000
3100
0000
0000
0000
,
1001
0000
0000
0000
0012
0000
0000
0000
0103
0001
1000
0000
0200
0000
0000
0000
,
0310
0001
1000
0000
0020
0000
0000
0000
1030
0100
0010
0000
0001
0000
0000
0000
,
2001
3002
0203
0320
,
1030
0000
0010
0000
0100
0000
0001
0001
,
0011
0000
0000
0000
2100
0000
0000
0000
3010
1000
0001
0000
0200
0000
0000
0000
,
0310
0100
0001
0000
0002
0000
0000
0000
1003
0020
0100
0000
0130
0000
0000
0000
,
0010
0000
0000
0000
1010
0000
0000
0101
0000
0000
0011
0000
0000
1100
0000
0000
,
1001
0000
0000
0110
0000
0000
0000
0000
0000
0000
0000
0000
0000
0000
0002
0000
0000
0000
0100
0000
0000
0103
0000
0000
,
0001
0000
0000
0000
0000
0000
0001
0000
0010
0001
0000
0100
0000
0000
0100
0010
0000
0000
0010
0000
1000
0000
0000
0000
,
1001
0000
0000
0000
0000
0000
0010
0000
1000
0100
0000
1000
0000
0000
0001
0100
0000
0000
0100
0000
0010
0000
0000
0000
,
0101
0000
0000
0000
0000
0000
0001
0000
1000
0010
0000
0100
0000
0000
0100
0001
0000
0000
0001
0000
0010
0000
0000
0000
,
0010
0000
0010
0100
0000
0000
1000
0000
0001
1000
0000
0200
0000
0000
0000
1000
0000
0000
1300
0000
0000
0001
0000
0000
,
0010
0000
0000
0000
0000
0000
0010
0000
0001
0100
0000
0010
0000
0000
1000
0100
0000
0000
1000
0000
0001
0000
0000
0000
,
1001
0000
0000
1010
0000
0000
0010
0000
0100
0001
0000
1000
0000
0000
1000
0100
0000
0000
0010
0000
0001
0000
0000
0000
,
0100
0000
0000
0010
0000
0010
0100
0000
0000
0010
0000
0010
0100
0000
0010
0100
0000
0000
0110
0000
0000
0000
0000
0000
,
0100
0000
0000
0010
0000
0010
0100
0000
0000
0010
0000
0010
0100
0000
0010
0100
0000
0000
0110
0000
0000
0000
0000
0000
,
1001
0010
0100
0001
0001
1000
1000
0010
,
1001
0100
0010
1000
1100
1100
1100
1100
,
1001
1000
0100
0010
0010
0001
0001
1000
,
0110
0100
0001
1000
0101
0101
0101
0101
,
0001
1000
0001
1000
0001
0000
0100
0000
0010
0000
1000
0100
0000
0100
0001
0000
,
0000
0100
0010
0000
1010
0000
0000
0010
1000
0010
0100
0001
0000
0000
0000
0000
,
1000
0100
1000
0100
0010
0001
0000
0001
0100
0000
0010
1000
0000
0000
0001
0010
,
0001
0100
0000
0010
0000
0010
1000
0000
0001
1000
0100
0010
0000
0000
0001
1000
,
0010
0100
0010
0100
0001
0000
1000
0001
0000
1000
0001
0010
0000
0000
0100
1000
,
0010
0000
0100
0000
0110
0000
0010
0000
1000
0001
1000
0100
0000
0000
0010
0001
,
0100
0000
0010
0000
1001
0000
0010
0000
1000
0100
1000
0001
0000
0000
0000
0000
,
0011
0000
0000
0000
0000
0000
0000
0000
0000
0000
0000
0000
1010
0000
0000
0000
0000
0000
1000
0000
0000
0100
0000
0000
0000
0000
0000
0000
0100
0000
0010
0000
0000
0000
0000
0000
0001
0000
0000
0000
0000
0000
0000
0000
0000
0000
0000
0000
,
0110
0000
0000
0000
0000
0000
0010
0000
0000
1000
0000
0100
0000
0000
1000
0001
0000
0000
0100
0000
0000
0000
0000
0000
,
1002
0100
1000
0000
0000
2000
3003
0000
,
1020
0000
0230
0000
0001
0001
0302
0000
,
1000
0000
1000
0000
2003
0000
0000
0000
3010
0200
0020
0000
0000
0330
0000
0000
,
2001
3020
0230
0302
,
0023
0000
0032
0000
2003
0000
3010
0100
,
0000
0000
2010
0000
0001
0001
3002
0000
,
0010
0000
0010
0000
0023
0000
0000
0000
0031
1000
0200
0000
0000
0300
0000
0000
,
0010
0000
0000
0000
0011
0000
0000
1100
0000
0000
0101
0000
0000
1010
0000
0000
,
1001
0000
0000
0110
0000
0000
0000
0000
0000
0000
0000
0000
0000
0000
0002
0000
0000
0000
0103
0000
0000
0100
0000
0000
,
0002
2000
0000
0000
,
3003
0000
0000
0000
;

//---------------dance-single - ----------------
#NOTEDATA:;
#CHARTNAME:;
#STEPSTYPE:dance-single;
#DESCRIPTION:;
#CHARTSTYLE:;
#DIFFICULTY:Medium;
#METER:10;
#RADARVALUES:0.368020,0.473168,0.270382,0.285403,0.146457,343.000000,307.000000,36.000000,38.000000,0.000000,0.000000,0.000000,0.000000,0.000000,0.368020,0.473168,0.270382,0.285403,0.146457,343.000000,307.000000,36.000000,38.000000,0.000000,0.000000,0.000000,0.000000,0.000000;
#CREDIT:;
#DISPLAYBPM:112.000000;
#NOTES:
0000
0000
0000
0000
,
0000
0000
0000
0000
,
0000
0000
0000
0000
,
0000
0000
0000
0000
,
2001
0001
0010
3100
,
1000
0000
0000
0000
0010
0000
0000
0100
0000
0000
0001
0000
0001
0000
0000
0000
,
0010
0000
0000
0000
0001
0000
0000
0100
0000
0000
1000
0000
1000
0000
0000
0000
,
0010
0000
0000
0000
1000
0000
0000
0001
0000
0000
0100
0000
0100
0000
0000
0000
,
0002
0100
1000
0103
,
0110
0000
0000
0000
0010
0000
0000
1000
0000
0000
0001
0000
0100
0000
0000
0000
,
0001
0000
0000
0000
0010
0000
0000
0100
0000
0000
1000
0000
1000
0000
0000
0000
,
0010
0000
0000
0000
1000
0000
0000
0100
0000
0000
0001
0000
0001
0000
0000
0000
,
0200
0001
0010
1300
,
0010
0000
0000
0000
1000
0000
0000
0001
0000
0000
0100
0000
0110
0000
0000
0000
,
0001
0000
0000
0000
1000
0000
0000
0010
0000
0000
0100
0000
0101
0000
0000
0000
,
1000
0000
0000
0000
0010
0000
0000
0100
0000
0000
0001
0000
1001
0000
0000
0000
,
0010
0000
0000
0000
0100
0000
0000
0001
0000
0000
1000
0000
1100
0000
0000
0000
,
0001
0000
0000
0000
0010
0000
0000
0100
0000
0000
1000
0000
1001
0000
0000
0000
,
0100
0000
0000
0000
0001
0000
0000
1000
0000
0000
0010
0000
0110
0000
0000
0000
,
0100
0000
0000
0000
0010
0000
0000
0001
0000
0000
1000
0000
1010
0000
0000
0000
,
0020
0100
0001
1030
,
0010
0000
1002
0000
0103
0010
2000
0000
,
3001
1000
0020
0000
0230
0001
0301
0000
,
1000
2100
0001
0100
,
3020
0000
0230
0000
0302
0000
1003
0001
,
0100
0000
0120
0000
1030
0010
0200
0000
,
0310
1000
0002
0000
2003
0100
3100
0000
,
0001
0000
0000
0000
2000
0000
0000
3010
0000
0000
0002
0000
0000
0013
0000
0000
,
1001
0000
0000
0200
0000
0000
0000
0000
0000
0000
0000
0000
0000
0000
0320
0000
0000
0000
1000
0000
0000
1030
0000
0000
,
1001
0000
0000
0000
0101
0000
0000
0010
0000
0000
1000
0000
0001
0000
0000
0000
,
1000
0000
0000
0000
0100
0000
0000
0010
0000
0000
0001
0000
0001
0000
0000
0000
,
0110
0000
0000
0000
0100
0000
0000
0010
0000
0000
1000
0000
0001
0000
0000
0000
,
0010
0000
0001
0000
0100
0000
0010
2000
0000
0000
0100
0000
3100
0000
0000
0000
,
1100
0000
0000
0000
1001
0000
0000
0001
0000
0000
1000
0000
0100
0000
0000
0000
,
0011
0000
0100
0000
0001
0000
0000
0010
0000
0000
0100
0000
1000
0000
0000
0000
,
0100
0000
0000
0010
0000
0000
0100
0000
0000
0010
0000
0000
0100
0000
0010
0100
0000
0000
0110
0000
0000
0000
0000
0000
,
0100
0000
0000
0010
0000
0000
0100
0000
0000
0010
0000
0000
0100
0000
0010
0100
0000
0000
0110
0000
0000
0000
0000
0000
,
1001
0010
0001
0011
0000
1100
0000
0001
,
0101
0100
0000
0010
0010
0010
0010
0010
,
1001
0100
0001
0101
0000
1100
0000
0010
,
1010
1000
0000
0001
0001
0001
0001
0001
,
1000
0100
1000
0000
0001
0000
0001
0000
0020
0000
0000
0032
0000
0000
0203
0000
,
0000
0301
1010
0000
0010
1000
0001
0000
,
1000
0010
0100
0001
0010
0100
1000
0000
,
0010
1000
0100
0010
0001
0100
1000
0000
,
0010
0100
0010
0100
0010
0000
1000
0000
0100
0000
1000
0000
0001
0000
0000
0000
,
0010
0001
1000
0010
1000
0100
0001
0000
,
0010
0001
0101
0000
0100
1000
0101
0000
,
0110
0000
0000
0000
0010
0000
1000
0100
0000
0000
0001
0000
1001
0000
0000
0000
,
0010
0000
0000
0000
1000
0000
0001
0100
0000
0000
0010
0000
0110
0000
0000
0000
,
2002
0000
0000
3000
,
0023
0000
0000
0000
0000
0000
0000
0000
0000
0000
0000
0031
0100
0000
0000
0100
0000
0000
0100
0000
0000
0000
0000
0000
,
0200
0000
0000
0000
0000
0000
0000
0000
0000
0000
0000
0310
1000
0000
0000
1000
0000
0000
1000
0000
0000
0001
0000
0000
,
2000
0000
0000
0000
0000
0000
0000
0000
0000
0000
0000
3001
0100
0000
0000
0100
0000
0000
0100
0000
0010
0100
0000
0000
,
0020
0000
0230
0000
0302
0000
1003
0001
,
0020
0000
0000
0000
0000
0000
0000
0000
0000
0000
0000
0031
1000
0000
0000
1000
0000
0000
1000
0000
0001
1000
0000
0000
,
0002
0000
0000
0000
0000
0000
0000
0000
0000
0000
0000
0103
0010
0000
0000
0010
0000
0000
0010
0000
0000
0010
0000
0000
,
0200
0000
0000
0000
0000
0000
0000
0000
0000
0000
0000
0301
1000
0000
0000
1000
0000
0000
1000
0000
0000
1000
0000
0000
,
1000
0000
0000
0000
0000
0000
0000
0000
0000
0000
0000
0000
0000
0000
2000
0000
0000
0000
0010
0000
0000
3010
0000
0000
,
2000
0002
0000
0000
,
3003
0000
0000
0000
;

//---------------dance-single - ----------------
#NOTEDATA:;
#CHARTNAME:;
#STEPSTYPE:dance-single;
#DESCRIPTION:;
#CHARTSTYLE:;
#DIFFICULTY:Easy;
#METER:5;
#RADARVALUES:0.226391,0.270382,0.150212,0.150212,0.000000,211.000000,191.000000,20.000000,20.000000,0.000000,0.000000,0.000000,0.000000,0.000000,0.226391,0.270382,0.150212,0.150212,0.000000,211.000000,191.000000,20.000000,20.000000,0.000000,0.000000,0.000000,0.000000,0.000000;
#CREDIT:;
#DISPLAYBPM:112.000000;
#NOTES:
0000
0000
0000
0000
,
0000
0000
0000
0000
,
0000
0000
0000
0000
,
0000
0000
0000
0000
,
1001
0001
0010
0100
,
0020
0200
0000
0330
,
0001
0001
1000
1000
,
0100
0010
1000
1000
,
0100
0010
0001
0001
,
0100
0002
0200
0000
0000
0000
0303
0000
,
0010
0010
0100
0100
,
0001
1000
0100
0100
,
1000
0010
0001
0001
,
1000
0020
2000
0000
0000
0000
3030
0000
,
0001
0001
0010
0010
,
1000
0001
0100
0100
,
0010
1000
0001
0001
,
2000
0002
0000
3003
,
1000
1000
0100
0100
,
0010
1000
0001
0001
,
0010
0100
1000
1000
,
1001
0001
0100
0100
,
0010
1000
1000
0000
,
0001
1000
0010
0100
,
0010
0010
0010
0000
,
1000
0100
0001
0001
,
1000
1000
0010
0000
,
0100
0100
0010
0010
,
1001
0000
0000
0110
,
2000
0200
0000
3300
,
1000
0010
0001
0001
,
0010
1000
0100
0100
,
1000
0001
1000
0001
1000
0000
0110
0000
,
0002
0020
0000
0033
,
0001
1000
0010
0010
,
0100
0100
0100
0110
,
0100
0100
0100
0110
,
1001
0100
0001
1000
,
0020
0000
0100
0130
,
0110
0001
0010
1000
,
0200
0000
0010
0310
,
0001
0100
1000
1100
,
0010
1000
0100
0011
,
0001
0010
1000
0101
,
0010
0100
0001
1010
,
0010
1000
0100
0001
,
1000
0010
0001
0100
,
0001
0010
0100
1000
,
0110
1001
0110
0000
,
1000
0001
1100
0000
,
1001
0000
0000
0000
,
0002
0000
1000
0000
,
0010
0100
0013
0000
,
2000
0000
0100
0000
,
0001
0010
3001
0000
,
0020
0000
0100
0000
,
1000
0001
1030
0000
,
0200
0010
1000
0301
,
1001
0000
0000
0110
,
0002
2000
0000
0000
,
3003
0000
0000
0000
;

//---------------dance-single - ----------------
#NOTEDATA:;
#CHARTNAME:;
#STEPSTYPE:dance-single;
#DESCRIPTION:;
#CHARTSTYLE:;
#DIFFICULTY:Beginner;
#METER:2;
#RADARVALUES:0.111586,0.180255,0.045064,0.090127,0.000000,104.000000,98.000000,6.000000,12.000000,0.000000,0.000000,0.000000,0.000000,0.000000,0.111586,0.180255,0.045064,0.090127,0.000000,104.000000,98.000000,6.000000,12.000000,0.000000,0.000000,0.000000,0.000000,0.000000;
#CREDIT:;
#DISPLAYBPM:112.000000;
#NOTES:
// measure 0
0000
0000
0000
0000
,  // measure 1
0000
0000
0000
0000
,  // measure 2
0000
0000
0000
0000
,  // measure 3
0000
0000
0000
0000
,  // measure 4
1001
0000
0000
0000
,  // measure 5
1000
2000
0000
3000
,  // measure 6
0000
0000
0000
0000
,  // measure 7
0001
0000
1000
0000
,  // measure 8
0010
0000
0100
0000
,  // measure 9
0001
0002
0000
0003
,  // measure 10
0000
0000
0000
0000
,  // measure 11
0010
0000
0001
0000
,  // measure 12
0100
0000
1000
0000
,  // measure 13
0100
0200
0000
0300
,  // measure 14
0000
0000
0000
0000
,  // measure 15
0010
0000
0100
0000
,  // measure 16
0001
0000
1000
0000
,  // measure 17
0010
0020
0000
0030
,  // measure 18
0000
0000
0000
0000
,  // measure 19
0001
0000
1000
0000
,  // measure 20
0100
0000
0010
0000
,  // measure 21
0001
0000
1000
0000
,  // measure 22
0010
0010
0010
0000
,  // measure 23
0100
0000
0010
0000
,  // measure 24
1000
1000
1000
0000
,  // measure 25
0001
0000
1000
0000
,  // measure 26
0100
0100
0100
0000
,  // measure 27
1000
0000
0001
0000
,  // measure 28
1001
0000
0000
0000
,  // measure 29
0010
0020
0000
0030
,  // measure 30
0000
0000
0000
0000
,  // measure 31
1000
0000
0001
0000
,  // measure 32
1000
1000
1000
0000
,  // measure 33
0001
0002
0000
0003
,  // measure 34
0000
0000
0000
0000
,  // measure 35
0100
0100
0100
0000
,  // measure 36
0100
0100
0100
0000
,  // measure 37
1001
0000
0001
0000
,  // measure 38
0100
0000
1000
0000
,  // measure 39
1001
0000
1000
0000
,  // measure 40
0100
0000
0001
0000
,  // measure 41
0010
0000
0001
0000
,  // measure 42
0100
0000
1000
0000
,  // measure 43
0010
0000
1000
0000
,  // measure 44
0100
0000
0001
0000
,  // measure 45
1000
0000
0010
0000
,  // measure 46
0100
0000
0001
0000
,  // measure 47
0010
0000
0100
0000
,  // measure 48
1000
1000
1000
0000
,  // measure 49
0000
0001
0001
0000
,  // measure 50
1001
0000
0000
0000
,  // measure 51
2000
0000
3000
0000
,  // measure 52
0002
0000
0003
0000
,  // measure 53
0200
0000
0300
0000
,  // measure 54
0010
0000
0100
0000
,  // measure 55
0020
0000
0030
0000
,  // measure 56
2000
0000
3000
0000
,  // measure 57
0100
0000
0010
0000
,  // measure 58
1001
0000
0000
0000
,  // measure 59
0100
0200
0000
0000
,  // measure 60
0300
0000
0000
0000
;
