#TITLE:PhilosopheЯ's Stone;
#SUBTITLE:;
#ARTIST:M-UE;
#TITLETRANSLIT:;
#SUBTITLETRANSLIT:;
#ARTISTTRANSLIT:;
#GENRE:;
#CREDIT:;
#BANNER:PhilosopheRs Stone.png;
#BACKGROUND:PhilosopheRs Stone-bg.png;
#LYRICSPATH:;
#CDTITLE:;
#MUSIC:PhilosopheRs stone.ogg;
#OFFSET:0.000000;
#SAMPLESTART:2.173115;
#SAMPLELENGTH:17.454546;
#SELECTABLE:YES;
#BPMS:0.000000=110.000000
,36.000000=220.000000
,169.000000=110.000000
,185.000000=220.000000
,213.000000=110.000000
,215.000000=440.000000
,343.000000=220.000000
,403.000000=110.000000
,405.000000=440.000000
;
#STOPS:36.000000=0.818000
;
#BGCHANGES:;
#KEYSOUNDS:;
#ATTACKS:;

//---------------dance-single - ----------------
#NOTES:
     dance-single:
     :
     Challenge:
     18:
     0.970256,1.517017,0.616743,0.274108,0.483496,892.000000,811.000000,81.000000,36.000000,0.000000,0.000000,0.970256,1.517017,0.616743,0.274108,0.483496,892.000000,811.000000,81.000000,36.000000,0.000000,0.000000:
0000
0000
0000
0000
,
0000
0000
0000
0000
,
0000
0000
0000
0000
,
0000
0000
0000
0000
,
0000
0000
0000
0000
,
1001
0000
0000
0001
0100
0001
0100
0000
0000
0010
0000
0000
0010
0000
0000
1000
0010
1000
0010
0100
0001
1000
0000
0000
,
1001
0000
0000
1000
0100
1000
0100
0000
0000
0010
0000
0000
0010
0000
0000
0001
0010
0001
0010
0100
1000
0001
0000
0000
,
0101
0000
0000
0001
0100
0010
1000
0000
0000
0100
0000
0000
1100
0000
0000
1000
0100
0010
0100
0010
0001
1000
0000
0000
,
1010
0000
0000
0010
1000
0001
0010
0000
0000
0100
0000
0000
0220
0000
0000
0000
0000
0000
0000
0000
0000
0330
0000
0000
,
1001
0000
0000
0000
0001
0000
0010
0000
0100
0000
0010
0000
0100
1000
0001
0000
,
1001
0000
1000
0010
1000
0001
0101
0100
,
0110
0000
1010
0000
1000
0001
0010
0100
,
1000
0000
0001
0000
1000
0100
0010
0100
1000
0000
0010
0000
0110
0000
0100
0000
,
0101
0000
0011
0000
0001
1000
0010
0100
,
0001
1000
0001
0010
0001
1000
1100
0100
,
0110
0000
0011
0000
0001
1000
0010
0100
,
0001
0000
1000
0000
0001
0010
0100
0010
0001
0000
0100
0000
0110
0000
0010
0000
,
1010
1100
0101
1010
,
0011
0000
1000
0100
1000
0100
0001
0100
,
0001
0100
0010
0001
0100
0010
1000
0001
,
0000
0000
0001
0100
0001
0100
1000
0100
,
1000
0100
0010
1000
0100
0010
0001
1000
,
0000
0000
0000
0000
0001
0100
0001
0100
0010
0100
0010
0100
0001
0100
0010
1000
,
0001
0000
0000
0000
1000
0100
1000
0100
0010
0100
0010
0100
1000
0010
0100
0001
,
1000
0000
0000
0000
0001
0100
0010
1000
0001
1000
0100
0010
0001
1000
0001
0010
,
0100
1000
0001
1000
0100
0000
0010
0000
0100
0000
0020
0000
0000
0000
0001
0000
,
0001
0000
0031
0000
2001
0000
0000
0000
3001
0000
0100
0001
0100
0000
0010
0000
,
1000
0000
0100
1000
0100
0000
0010
0000
0001
0000
1000
0001
1000
0000
0010
1000
,
0001
0000
0001
0000
0100
0001
0100
0010
0100
0001
0100
0010
2000
0000
3000
0000
,
0022
0033
0000
0110
0100
0020
0000
0031
,
1000
0000
0010
0000
0210
0000
0000
0000
0301
0000
1000
0010
1000
0000
0001
0000
,
0001
0000
0001
0010
0001
0000
1000
0000
1000
0000
1000
0100
0010
0000
0001
1000
,
0001
0000
1000
0000
1000
0100
0010
0001
1000
0100
0010
0001
0200
0000
0000
0000
,
0310
0000
1000
0010
1000
0000
0001
0000
1000
0000
0010
0000
0001
0000
0010
0000
,
1000
0000
0100
0000
0020
0000
0000
0000
0130
0000
1000
0100
0010
0000
0001
0000
,
1000
0000
0001
0010
0100
0000
1000
0000
0001
0000
1000
0001
1000
0000
0010
0100
,
0001
0000
0010
0000
0010
0000
0100
1000
0001
0000
0100
0010
1000
0000
0000
0000
,
0001
0000
0010
0001
1000
0000
0100
0000
1000
0000
0200
0000
0000
0000
0310
0000
,
0001
0000
1000
0000
0001
0100
0010
1000
0001
0100
0010
1000
0001
0000
0000
0000
,
0011
0000
0000
0000
1000
0100
0010
0001
1000
0100
0010
0001
1000
0000
0000
0000
,
1010
0000
1000
0010
0001
0010
1000
0100
,
0001
0000
0100
0000
1000
0100
1000
0100
0010
0100
0010
0001
1000
0001
0100
0001
,
0100
0010
1000
0001
0200
0000
0000
0310
1000
0000
0000
0000
0002
0000
0000
0013
,
0100
0000
0000
0000
0020
0000
0000
0130
1000
0000
0000
0000
0020
0000
0000
0130
,
0001
0000
0000
0000
0200
0000
0000
0310
1000
0000
0000
0000
0002
0000
0000
1003
,
0010
0000
0000
0000
0000
0000
0000
0000
2000
0000
0000
0000
0000
0000
3100
0000
0010
0000
0000
0000
0000
0000
0000
0000
0100
0000
0000
0000
0000
0000
0010
0100
,
0010
0000
0001
0000
1000
0001
1000
0000
1001
0000
0000
0000
0000
0000
0000
0000
0000
0000
0000
0000
0000
0000
0000
0000
1010
0000
0000
0000
0000
0000
0110
0000
,
0000
0000
0101
0000
0000
0000
0011
0000
0110
0000
0000
0000
1100
0000
0000
0110
,
0000
0000
0011
0000
0000
0000
1000
0001
1000
0000
0000
0000
0101
0000
0000
1001
,
0000
0000
1010
0000
0110
0000
0000
1001
0000
0000
1100
0000
0000
0011
0000
0000
,
1010
0000
1001
0000
0011
0000
0000
0101
0000
0000
1001
0000
2000
0000
3200
0000
,
0320
0000
0031
0000
1001
0000
0000
0101
0000
0000
0011
0000
0002
0000
0023
0000
,
0230
0000
2300
0000
3001
0010
0100
1000
0001
1000
0100
0010
0001
0100
0010
1000
,
0010
0100
0001
1000
0200
0000
0000
0000
0000
0000
0300
0000
0010
0000
0000
0000
,
0001
0100
0001
0010
,
0100
0010
0100
1000
0001
0000
1000
0000
,
0010
0000
0100
0010
1000
0000
0001
0000
,
0100
0010
0100
0001
1000
0000
0001
0000
,
0010
0000
0100
0010
0001
0000
1000
0000
,
0010
1000
0001
0010
0100
0000
1000
0000
,
0100
0001
0100
1000
,
0010
1000
0010
1000
0100
0010
0001
0000
,
0100
1000
0100
0001
,
1000
0010
0100
0010
1000
0000
0001
0000
,
1000
0000
0001
0010
0100
0000
1000
0000
,
0001
0100
0010
0100
0001
0000
1000
0000
,
0001
0000
0010
0100
1000
0000
0001
0000
,
1000
0010
1000
0100
0010
0001
2000
0000
,
3000
0202
0303
2200
,
3300
0000
0110
0000
0010
0001
1000
0000
,
0010
0001
0010
1000
,
0001
1000
0010
0100
0001
0000
1000
0000
,
0001
0000
0010
0001
1000
0000
0100
0000
,
1000
0001
0010
0100
1000
0000
0010
0000
,
1000
0000
0001
0100
0010
0000
1000
0000
,
0001
1000
0001
0010
0100
0000
1000
0000
,
0001
0000
1000
0010
1000
0000
0001
0000
,
0100
0001
0010
0100
1000
0000
0010
1000
,
0010
0100
0010
1000
0001
0010
0100
1000
,
0100
0010
0001
0000
0001
0000
0010
0100
,
0010
0001
0010
0100
1000
0001
1000
0010
,
0100
0001
1000
0000
1000
0000
0010
0000
,
1010
1000
1001
0001
,
0101
0000
0100
0000
0110
0000
0010
1000
,
0100
0010
0001
0100
0010
1000
0001
0000
,
1000
0001
0000
0000
1000
0000
1010
1000
,
0001
0100
0110
0010
1010
0000
1100
0000
,
0010
0000
0100
0000
1000
0000
0010
0000
0100
0000
0001
0000
1000
0100
0001
0100
,
1000
0100
1100
1000
1010
0000
0101
0000
,
0010
0001
0010
0100
1000
0001
0010
0001
,
1000
0010
0110
0100
0101
0000
0011
0000
,
0001
0000
1000
0000
0001
0000
0010
0000
0100
0000
1000
0000
0001
0100
1000
0100
,
0001
0100
0110
0010
1010
0000
0011
0000
,
1010
0000
0101
0000
1100
0000
1000
0001
,
0010
0001
1001
1000
1010
0010
0100
0001
,
1000
0000
0100
0000
0001
0000
0100
0000
1000
0000
0001
0000
1000
0010
0100
0001
,
1000
0100
0110
0010
0011
0001
1000
0001
,
0010
1000
0010
0001
1000
0010
1000
0010
,
0001
0010
1000
0010
0001
0010
1000
0100
,
0001
0000
0100
0000
1000
0000
0100
0000
0001
0000
0100
0000
1000
0001
0010
0001
,
1000
0100
1000
0010
0100
0010
1000
0001
1000
0001
0010
0100
0000
0000
0000
0000
,
0000
0000
1000
0000
0001
0100
0000
0001
,
1000
0000
0001
0000
1000
0100
0000
1000
,
0001
0000
1000
0000
0001
0010
0000
0001
,
1000
0000
0001
0000
1000
0010
0200
0000
,
0300
0000
0010
0000
1000
0100
0000
1000
,
0001
0000
0010
0000
0001
1000
0000
0001
,
0100
0000
0010
0000
1000
0100
0000
0010
,
0001
0000
1000
0000
0001
0010
0200
0000
,
0300
0000
1000
0000
0001
0100
0000
0010
,
0100
0000
1000
0100
0000
0010
0100
0000
,
0001
0000
1000
0000
0001
0010
0000
0100
,
0010
0000
1000
0010
0000
0100
0010
0000
,
0001
0000
0010
0001
0100
0010
1000
0000
,
0100
0010
0001
0100
0010
0000
1000
0000
,
0001
0000
1000
0100
0010
0001
1000
0100
,
0010
0001
1000
0100
0010
0001
1000
0100
,
0010
0001
1000
0000
0000
0000
2002
0000
,
0000
0000
0000
0000
,
0000
0000
0000
0000
,
0000
0000
0000
3003
;

//---------------dance-single - ----------------
#NOTES:
     dance-single:
     :
     Hard:
     17:
     0.868009,1.471047,0.395934,0.175125,0.403548,798.000000,746.000000,52.000000,23.000000,0.000000,0.000000,0.868009,1.471047,0.395934,0.175125,0.403548,798.000000,746.000000,52.000000,23.000000,0.000000,0.000000:
0000
0000
0000
0000
,
0000
0000
0000
0000
,
0000
0000
0000
0000
,
0000
0000
0000
0000
,
0000
0000
0000
0000
,
1001
0000
0000
1000
0001
1000
0001
0000
0000
0010
0000
0000
0100
0000
0000
1000
0100
1000
0100
0010
0001
1000
0000
0000
,
1001
0000
0000
0001
1000
0001
1000
0000
0000
0010
0000
0000
0100
0000
0000
0001
0100
0001
0100
0010
1000
0001
0000
0000
,
1001
0000
0000
1000
0100
0010
0001
0000
0000
0100
0000
0000
0001
0000
0000
0010
0100
1000
0100
0010
0001
0010
0000
0000
,
1100
0000
0000
0001
0010
0100
1000
0000
0000
0001
0000
0000
2002
0000
0000
0000
0000
0000
0000
0000
0000
0000
0000
0000
,
3003
0000
0000
0000
1000
0000
0001
0000
1000
0000
0001
0000
1000
0010
0100
0000
,
0001
0000
1000
0001
0010
0100
1000
0000
,
0101
0000
1100
0000
0001
0010
0100
0000
,
0010
0000
0100
0000
1000
0001
1000
0001
1000
0000
0010
0000
1000
0000
0000
0000
,
0011
0000
1010
0000
1000
0010
0100
0010
,
1000
0000
0001
1000
0100
0010
0001
0000
,
1100
0000
0101
0000
1000
0010
0100
0000
,
0010
0000
0100
0000
0001
1000
0001
1000
0001
0000
0010
0000
0001
0000
0000
0000
,
1000
1010
0110
0101
,
1001
0000
1000
0100
0010
0100
1000
0001
,
1000
0100
0010
0001
1000
0001
0100
0010
,
0000
0000
0010
0100
0001
1000
0001
0010
,
0100
1000
0010
1000
0100
0010
0001
1000
,
0000
0000
0000
0000
0001
1000
0001
1000
0001
1000
0001
1000
0010
1000
0010
1000
,
0010
0000
0000
0000
1000
0001
1000
0001
1000
0001
1000
0001
0010
0001
0010
0001
,
0010
0000
0000
0000
0100
0010
0100
0000
0010
0001
0010
0000
0100
0010
0100
0000
,
1000
0100
1000
0000
0001
0000
1000
0000
0001
0000
0100
0000
0000
0000
1000
0000
,
0100
0000
0001
0000
1001
0000
0000
0000
1000
0000
0001
1000
0001
0000
0010
0000
,
0010
0000
0010
0000
0001
0000
0100
0000
0100
0000
0100
0000
0001
0000
1000
0010
,
1000
0000
0001
0010
0001
0000
1000
0100
0010
0000
0001
0000
0220
0000
0330
0000
,
2002
3003
0000
1000
0001
0010
0000
1000
,
0010
0000
0001
0000
1001
0000
0000
0000
0001
0000
1000
0001
1000
0000
0010
0000
,
0010
0000
0010
0000
1000
0000
0100
0000
0100
0000
0100
0000
0010
0000
0001
0100
,
0001
0000
1000
0100
1000
0000
0100
0010
0001
0000
1000
0000
2002
0000
3003
0000
,
0220
0330
0010
1000
0001
0010
1000
0010
,
0001
0000
1000
0000
0001
0000
0000
0000
1000
0000
0001
1000
0100
0000
0010
0000
,
0010
0000
0010
0000
0001
0000
1000
0000
1000
0000
1000
0000
0010
0000
1000
0001
,
0100
0000
0001
1000
0010
0000
1000
0001
1000
0000
0001
0000
0010
0000
0000
0000
,
0100
0000
0010
0100
1000
0000
0010
0000
1000
0000
0100
0000
0000
0000
0001
0000
,
0100
0000
1000
0000
0001
1000
0001
1000
0100
1000
0100
1000
0001
0000
0000
0000
,
0101
0000
0000
0000
1000
0001
1000
0001
0100
0001
0100
0001
1000
0000
0000
0000
,
1010
0000
1000
0010
0001
0010
1000
0100
,
0001
0000
0100
0000
1000
0000
0001
0000
0010
0000
0100
0000
1000
0100
0010
0001
,
1000
0100
0010
0001
1000
0000
0000
0001
0100
0000
0000
0000
0010
0000
0000
0100
,
0001
0000
0000
0000
1000
0000
0000
0001
0100
0000
0000
0000
0010
0000
0000
0100
,
0001
0000
0000
0000
0010
0000
0000
0001
1000
0000
0000
0000
0100
0000
0000
1000
,
0001
0000
0000
0000
0010
0000
0000
0001
1000
0000
0000
0000
0100
0000
0000
0010
,
0001
1000
0010
0100
0001
0000
0000
0000
0000
0000
0000
0000
1000
0000
0000
1010
,
0000
0000
1001
0000
0000
0000
0001
0000
1000
0000
0000
0000
0001
0000
0000
0011
,
0000
0000
1001
0000
0000
0000
1000
0001
1000
0000
0000
0000
0100
0000
0000
0110
,
0000
0000
0010
0000
0001
0000
0000
0101
0000
0000
0100
0000
0000
0010
0000
0000
,
1010
0000
1000
0000
0001
0000
0000
1001
0000
0000
1001
0000
0000
0000
0000
0000
,
0000
0000
0000
0000
1000
0000
0000
1001
0000
0000
1001
0000
0000
0000
0000
0000
,
0000
0000
0000
0000
0010
1000
0010
1000
0001
0100
0001
0100
0010
1000
0001
0100
,
0010
1000
0100
0010
0002
0000
0000
0000
0003
0000
0000
0000
1000
0000
0000
0000
,
0001
0010
0001
1000
,
0010
0100
0000
0010
1000
0000
0001
0000
,
1000
0100
0010
0001
,
0010
0100
0000
0010
0001
0000
1000
0000
,
0010
0100
0001
1000
,
0100
0010
0000
0001
1000
0000
0001
0000
,
0010
0100
1000
0010
,
1000
0000
0001
1000
0001
0010
0100
0000
,
1000
0001
1000
0100
,
0010
0001
0000
1000
0001
0000
0010
0000
,
0100
1000
0010
0100
,
0001
1000
0000
0001
0100
0000
0010
0000
,
1000
0100
0010
0001
,
1000
0100
0000
0010
0001
0000
0202
0000
,
0303
2020
3030
2200
,
3300
0000
0011
0000
0010
0001
1000
0000
,
0010
0001
0010
1000
,
0001
0010
0000
0100
1000
0000
0010
0000
,
1000
0000
0001
0100
0001
0000
1000
0000
,
0010
1000
0000
0001
0100
0000
0001
0000
,
1000
0000
0100
0010
0100
0000
1000
0000
,
0001
0010
0000
0100
1000
0000
0001
0000
,
0010
1000
0010
0001
,
0010
0000
0100
1000
0100
0010
0001
1000
,
0001
1000
0001
1000
0001
1000
0001
1000
,
0001
1000
0100
0000
0100
0000
0010
0100
,
0010
0100
0010
0100
0010
0100
0010
0100
,
0010
0100
1000
0000
1000
0000
0010
0000
,
1000
0001
0100
0000
0010
1000
0001
0000
,
0010
0100
1000
0000
0001
1000
0001
0010
,
0100
1000
0100
0010
0001
0010
0100
0000
,
0000
1000
0000
0000
2002
0000
0000
0000
,
3000
0103
1100
0011
,
0010
0000
0001
0000
0010
0000
0100
0000
1000
0000
0000
0000
0001
0100
0010
0100
,
0001
1000
0001
0000
1010
0000
0101
0000
,
1000
0010
0100
0010
1000
0001
1000
0100
,
0001
0100
1000
0000
0110
0000
1001
0000
,
1000
0000
0001
0000
0010
0000
0100
0000
1000
0000
0001
0000
1000
0010
0100
0010
,
1000
0001
1000
0000
0010
0000
0110
0000
,
0101
0000
1100
0000
0011
0000
1000
0010
,
1000
0001
0010
0100
0010
0000
0012
0000
,
1003
0000
0100
0000
0010
0000
0001
0000
1000
0000
0010
0000
1000
0001
0100
0001
,
1000
0100
0010
0100
1000
0000
2010
0000
,
3001
0010
1000
0010
0001
0000
0010
0001
,
1000
0100
0010
0001
1000
0010
0100
0001
,
1000
0000
0010
0000
0100
0000
0001
0000
1000
0000
0100
0000
0010
0001
0010
0001
,
0010
0001
0010
0001
1000
0100
1000
0100
1000
0100
1000
0100
0000
0000
0000
0000
,
0000
0000
1000
0000
0001
1000
0000
0001
,
1000
0000
0010
0000
0100
0010
0000
0100
,
0010
0000
1000
0000
0001
1000
0000
0001
,
1000
0000
0001
0000
0010
0100
1000
0000
,
0000
0000
0001
0000
1000
0001
0000
1000
,
0001
0000
0010
0000
0100
0010
0000
0100
,
0010
0000
0001
0000
1000
0001
0000
1000
,
0001
0000
1000
0000
0010
0100
0001
0000
,
0000
0000
1000
0000
0010
1000
0000
0001
,
1000
0000
0010
1000
0000
0001
1000
0000
,
0100
0000
0010
0000
0001
1000
0000
0001
,
0100
0000
0001
1000
0000
0001
0100
0000
,
0010
0000
1000
0001
1000
0001
1000
0000
,
0010
0100
0010
0100
0010
0000
1000
0000
,
0100
0000
0010
0001
1000
0001
0010
0100
,
1000
0001
1000
0100
0010
0001
1000
0001
,
0010
0100
1000
0000
0000
0000
2002
0000
,
0000
0000
0000
0000
,
0000
0000
0000
0000
,
0000
0000
0000
3003
;

//---------------dance-single - ----------------
#NOTES:
     dance-single:
     :
     Medium:
     14:
     0.589550,0.873434,0.274108,0.182739,0.095176,542.000000,506.000000,36.000000,24.000000,0.000000,0.000000,0.589550,0.873434,0.274108,0.182739,0.095176,542.000000,506.000000,36.000000,24.000000,0.000000,0.000000:
0000
0000
0000
0000
,
0000
0000
0000
0000
,
0000
0000
0000
0000
,
0000
0000
0000
0000
,
0000
0000
0000
0000
,
1001
0000
0000
0001
1000
0000
0020
0000
0000
0000
1030
0000
0002
0000
0023
0000
,
0230
0000
0000
0000
0000
0000
0300
0000
0010
0100
0010
0001
0010
0100
1000
0001
,
0200
0000
0000
0310
2000
0000
0000
3001
0020
0000
0000
0130
0000
1000
0100
0010
,
0002
0000
2000
0000
,
3003
0000
0000
0000
,
0000
0000
1000
0010
1000
0001
0010
0000
,
0110
0000
0100
0000
0010
0100
1000
0000
,
0001
1000
0001
0100
0001
1000
0100
0000
,
0011
0000
0001
0000
0010
0100
1000
0000
,
0001
0000
1000
0100
1000
0001
0010
0000
,
0110
0000
0100
0000
0010
0001
1000
0000
,
0010
1000
0001
0100
0001
1000
0010
0000
,
0010
0110
1001
0110
,
1001
0000
1000
0010
1000
0010
1000
0001
,
1000
0001
0010
0100
1000
0001
1000
0100
,
0000
0000
0010
0001
0010
0001
1000
0001
,
1000
0100
0010
0001
1000
0001
0100
0010
,
0000
2010
0001
0100
,
3001
0012
0100
1000
,
0013
0000
0010
0100
1000
0100
0010
0001
,
0100
0010
0000
0100
0010
0100
0000
0010
,
1000
0100
0010
0000
0011
0000
0000
1000
,
1000
1000
0000
0001
0001
0001
0000
0010
,
0100
1000
0001
1000
0001
1000
0020
0030
,
0020
0030
0000
0010
0100
0010
0000
1000
,
0001
0010
0100
0000
1010
0000
0000
1000
,
1000
1000
0000
0001
0001
0001
0000
0100
,
0010
0100
0001
1000
0001
0010
0200
0300
,
0200
0300
0000
1000
0001
1000
0000
0100
,
0010
0001
1000
0000
1001
0000
0000
0010
,
0010
0010
0000
0100
0100
0100
0000
0001
,
1000
0100
0010
0100
0010
0001
2000
3000
,
0002
0003
0000
0001
0010
0001
0000
0100
,
0010
1000
0100
0010
0100
0010
0001
0000
,
1100
0000
0100
0010
0100
0010
0001
0000
,
1100
0000
0100
1000
0100
0010
0100
0001
,
0100
0010
0001
0010
0100
1000
0010
0100
,
0001
0000
1000
0000
0001
0000
0000
0000
0000
0010
0000
0000
0010
0000
0000
0000
,
0000
0100
0000
0000
0100
0000
0000
0000
0000
1000
0000
0000
1000
0000
0000
0000
,
0000
0010
0000
0000
0010
0000
0000
0000
0000
1000
0000
0000
1000
0000
0000
0000
,
0000
0001
0000
0000
0001
0000
0000
0000
0000
0010
0000
0000
0010
0000
0000
0000
,
1000
0001
1000
0000
1001
0000
0000
0000
0000
0000
0000
0000
0010
0000
0000
0010
,
0000
0000
0010
0000
0000
0000
1000
0000
0001
0000
0000
0000
0100
0000
0000
0100
,
0000
0000
0100
0000
0000
0000
0001
0000
1000
0000
0000
0000
0100
0000
0000
0010
,
0000
0000
0001
0000
0010
0000
0000
1000
0000
0000
0010
0000
0000
0001
0000
0000
,
0100
0000
1000
0000
0100
0000
0000
0001
0000
0000
0200
0000
0000
0000
0000
0000
,
0300
0000
0000
0000
0010
0000
0000
1000
0000
0000
0020
0000
0000
0000
0000
0000
,
0030
0000
1000
0100
0010
0001
0100
0010
,
1000
0001
1000
0000
0000
0000
1000
0000
,
0000
1001
0000
0001
,
0000
0010
0000
0000
0001
0000
0000
0000
,
0001
1000
0010
0100
,
0000
0001
0000
0000
0100
0000
0000
0000
,
0001
1000
0010
0100
,
0000
0001
0000
0000
0020
0000
0000
0000
,
0031
1000
0001
0100
,
0000
0010
0000
0000
0100
0000
0000
0000
,
0001
0100
0001
1000
,
0000
0100
0000
0000
0010
0000
0000
0000
,
0100
1000
0100
0010
,
0000
0010
0000
0000
0001
0000
0000
0000
,
0001
0010
0100
1000
,
0000
0001
0000
0000
1000
0000
0010
0000
,
0000
1010
0000
1100
,
0000
0011
0000
1001
,
0000
1001
0000
0001
,
0000
0010
0000
0000
0001
0000
1000
0000
,
0100
1100
0000
1000
,
0000
0010
0000
0000
1000
0000
0001
0000
,
0100
0101
0000
0001
,
0000
1000
0000
0000
0010
0000
1000
0000
,
0001
1000
0100
0010
,
0000
0100
0000
0000
0010
0000
0001
0000
,
0010
0100
0010
0001
,
0010
0100
0000
1000
,
0010
0100
0010
1000
,
0010
0100
0000
0001
,
0100
1000
0100
0001
,
0100
1000
0100
0001
,
1000
0001
1000
0010
,
0000
0010
0000
0000
0220
0000
0000
0000
,
0000
0000
0000
0000
,
0000
0000
0000
0000
0330
0000
1000
0001
,
1000
0010
1000
0000
0101
0000
0001
0000
,
0010
0001
1000
0000
0010
1000
0001
1000
,
0001
0100
0010
0000
1010
0000
1000
0000
,
0001
0010
0100
0000
1000
0010
1000
0001
,
1000
0100
0010
0000
0010
0000
0011
0000
,
1100
0000
1010
0000
0101
0000
1000
0001
,
0100
0001
1000
0000
1010
0000
0011
0000
,
0001
0010
0100
0000
0010
0100
1000
0001
,
0100
0001
1000
0000
0101
0000
1100
0000
,
1000
0100
0010
0000
0001
0010
0100
0010
,
0100
0010
0100
0010
0100
0010
0001
1000
,
0001
1000
0001
1000
0001
1000
0001
0100
,
0010
1000
0100
0010
0001
1000
0000
0000
,
0000
0000
0001
0000
0000
0001
0000
0000
,
0001
0000
1000
0000
0000
1000
0000
0000
,
1000
0000
0001
0000
0000
0001
0000
0000
,
0001
1000
0010
0100
,
0000
0000
0010
0000
0000
0010
0000
0000
,
0010
0000
1000
0000
0000
1000
0000
0000
,
1000
0000
0001
0000
0000
0001
0000
0000
,
0001
0100
0001
1000
,
0000
0000
0100
0000
0000
0010
0000
0000
,
0001
0000
0000
0010
0000
0000
0100
0000
,
1000
0000
0001
0000
0000
0100
0000
0000
,
0010
0000
0000
1000
0000
0000
0010
0000
,
0100
0001
1000
0001
,
0010
0100
0010
0001
,
0100
0010
1000
0100
,
0010
0001
0010
0100
,
1000
0001
0000
2002
,
0000
0000
0000
0000
,
0000
0000
0000
0000
,
0000
0000
0000
3003
;

//---------------dance-single - ----------------
#NOTES:
     dance-single:
     :
     Easy:
     11:
     0.388320,0.643583,0.152282,0.129440,0.003807,357.000000,337.000000,20.000000,17.000000,0.000000,0.000000,0.388320,0.643583,0.152282,0.129440,0.003807,357.000000,337.000000,20.000000,17.000000,0.000000,0.000000:
0000
0000
0000
0000
,
0000
0000
0000
0000
,
0000
0000
0000
0000
,
0000
0000
0000
0000
,
0000
0000
0000
0000
,
1000
0000
0100
0010
0000
0000
0001
1000
,
0100
0000
0000
0000
1000
0010
1000
0001
,
0200
0000
0000
0000
0320
0000
0000
0000
1030
0000
0000
0001
0000
0000
1000
0000
,
0200
0000
0020
0000
,
0330
0000
0000
0000
,
0000
0000
0010
0001
0000
0001
0010
0000
,
0100
0000
1000
0000
0000
1000
0000
0000
,
0001
0000
1000
0010
0000
0010
1000
0000
,
0001
0000
0100
0000
0000
0100
0000
0000
,
0001
0000
1000
0100
0000
0100
1000
0000
,
0001
0000
0010
0000
0000
0100
0000
0000
,
0010
0000
0001
0100
0000
0100
0001
0000
,
0001
1000
0100
0010
,
0001
1000
0100
1000
,
0001
1000
0100
0010
,
0000
0001
1000
0001
,
0100
0001
0010
0100
,
0000
2000
0010
0001
,
3001
0002
0010
1000
,
1003
1000
0100
0010
,
0001
0000
0000
0100
0000
0100
0000
0100
,
0010
0000
1001
0000
0000
0000
0000
1000
,
0001
1000
0000
0001
1000
0001
0000
0010
,
0100
0000
1000
0000
0010
0000
0200
0300
,
0200
0300
0000
0001
0000
0001
0000
0001
,
1000
0000
1001
0000
0000
0000
0000
0010
,
0100
0010
0000
0100
0010
0100
0000
0001
,
1000
0000
0001
0000
0100
0000
0020
0030
,
0020
0030
0000
0100
0000
0100
0000
0100
,
0001
1000
1010
0010
,
0101
1000
0011
0100
,
1010
1000
0101
0010
,
1100
0001
1010
0100
,
1001
0000
1000
0001
1000
0000
0010
0000
,
0010
0000
1000
0001
1000
0000
0100
0000
,
0100
0010
0001
0010
,
0001
1000
0010
1000
,
0001
1000
0001
0000
0100
0000
0010
0000
,
0100
0001
0100
1000
,
0100
0001
0010
1000
,
0010
0001
1000
0100
,
0010
0010
0001
0000
0000
0001
1000
0000
,
0000
1010
0000
0000
1000
0000
0100
0000
,
0000
0011
0000
0000
0001
0000
0010
0000
,
0000
0010
0100
0000
0000
0100
0000
0000
,
0110
0010
0002
0000
,
0000
1003
0200
0000
,
0000
0310
0001
0010
,
0100
1000
0000
1000
,
0000
0000
0000
0001
,
0000
0010
0000
0001
,
0000
0000
0000
1000
,
0000
0100
0000
1000
,
0000
0000
0000
0010
,
0000
1000
0000
0010
,
0000
0100
0000
0001
,
0000
1000
0000
0100
,
0000
0000
0000
0010
,
0000
0001
0000
0010
,
0000
0000
0000
0100
,
0000
1000
0000
0100
,
0000
0000
0000
0010
,
0000
0001
0000
1000
,
0000
0001
0000
1000
,
0000
0001
0000
1001
,
0000
0001
0000
0001
,
0000
1000
0000
0010
,
0000
0010
0000
0010
,
0000
1000
0000
0100
,
0000
0100
0000
0100
,
0000
0010
0000
0001
,
0000
0010
0000
0100
,
0000
1000
0000
0001
,
0000
1000
0000
0001
,
0000
0001
0000
0100
,
0000
0010
0000
0100
,
0000
0100
0000
0010
,
0000
1000
0000
0001
,
0000
1000
0000
0100
,
0000
0010
0000
0001
,
0000
1000
0000
2002
,
0000
0000
0000
3003
,
0000
0000
0000
0000
0000
0000
1000
0001
,
0000
0001
1000
0000
1000
0000
0100
0000
,
0000
0010
0000
0000
0010
0000
0001
1000
,
0000
1000
0001
0000
0001
0000
0100
0000
,
0000
0010
0000
0000
0010
0000
1000
0100
,
0000
0100
1000
0000
1000
0000
0001
0000
,
0010
0000
0100
0000
1000
0000
0001
0010
,
0000
0010
0001
0000
0001
0000
0010
0000
,
0000
0100
0000
0000
1000
0000
0001
0100
,
0000
0100
0001
0000
1000
0000
0010
0000
,
0000
1000
0000
0000
0100
0000
0010
0000
,
0001
0010
0100
1000
,
0010
0000
0100
0000
0001
0000
1000
0001
,
1000
0001
1000
0001
1000
0001
0000
0000
,
0000
0000
1000
0000
0000
1000
0000
0000
,
0000
0000
0001
0000
0000
0001
0000
0000
,
0000
0000
1000
0000
0000
1000
0000
0000
,
0000
0001
0000
1001
,
0000
0000
0010
0000
0000
0010
0000
0000
,
0000
0000
0100
0000
0000
0100
0000
0000
,
0000
0000
0010
0000
0000
0010
0000
0000
,
0000
0100
0000
0110
,
0000
0000
0010
0000
0000
1000
0000
0000
,
0010
0000
0000
1010
,
0000
0000
0100
0000
0000
0001
0000
0000
,
0100
0000
0000
0101
,
0000
0001
0000
1000
,
0001
0000
1000
0100
,
0010
0002
0000
0000
,
0000
0000
0000
0000
,
0000
0013
0000
2002
,
0000
0000
0000
0000
,
0000
0000
0000
0000
,
0000
0000
0000
3003
;

//---------------dance-single - ----------------
#NOTES:
     dance-single:
     :
     Beginner:
     7:
     0.259968,0.358625,0.045685,0.000000,0.000000,239.000000,233.000000,6.000000,0.000000,0.000000,0.000000,0.259968,0.358625,0.045685,0.000000,0.000000,239.000000,233.000000,6.000000,0.000000,0.000000,0.000000:
// measure 0
0000
0000
0000
0000
,  // measure 1
0000
0000
0000
0000
,  // measure 2
0000
0000
0000
0000
,  // measure 3
0000
0000
0000
0000
,  // measure 4
0000
0000
0000
0000
,  // measure 5
1000
0100
0010
0001
,  // measure 6
0001
0000
0010
0001
,  // measure 7
1000
0010
1000
0001
,  // measure 8
0100
0000
0010
0000
,  // measure 9
1001
0000
0000
0000
,  // measure 10
0000
1000
0000
0001
,  // measure 11
0010
0001
0000
1000
,  // measure 12
0000
0001
0000
1000
,  // measure 13
0100
1000
0000
0010
,  // measure 14
0000
1000
0000
0001
,  // measure 15
0100
0001
0000
1000
,  // measure 16
0000
0001
0000
1000
,  // measure 17
0000
0010
0010
0010
,  // measure 18
0010
0100
0000
0001
,  // measure 19
0100
0001
0100
0010
,  // measure 20
0000
1000
0000
0100
,  // measure 21
1000
0100
1000
0010
,  // measure 22
0000
0100
0100
0100
,  // measure 23
0000
0010
0010
0010
,  // measure 24
0000
1000
0000
0001
,  // measure 25
0000
0010
0000
0100
,  // measure 26
0000
0110
0000
0010
,  // measure 27
0000
0001
1000
0001
,  // measure 28
0000
0100
0010
0100
,  // measure 29
0000
0010
0000
1000
,  // measure 30
0001
1000
0000
0110
,  // measure 31
0000
0010
0010
0010
,  // measure 32
0000
0100
0100
0100
,  // measure 33
0000
0010
0000
0001
,  // measure 34
1000
0001
0100
0000
,  // measure 35
0010
0000
0100
0000
,  // measure 36
0001
0000
1000
0000
,  // measure 37
0100
0000
0010
0000
,  // measure 38
0001
1000
1000
1000
,  // measure 39
0000
0001
0001
0001
,  // measure 40
0000
0010
0000
0100
,  // measure 41
0000
1000
0001
1000
,  // measure 42
0001
1000
0000
0001
,  // measure 43
0000
1000
0000
0001
,  // measure 44
0000
1000
0000
0001
,  // measure 45
0000
1000
0000
0001
,  // measure 46
0000
1000
0000
0001
,  // measure 47
0000
0001
0000
0000
0000
0000
1000
0000
,  // measure 48
0000
1000
0000
0000
0000
0000
0001
0000
,  // measure 49
0000
0000
0010
0000
0000
0010
0000
0000
,  // measure 50
0010
0100
0100
0010
,  // measure 51
0000
0010
0010
0001
,  // measure 52
0000
1000
0001
1000
,  // measure 53
0001
1000
0000
0010
,  // measure 54
0000
0000
0000
1000
,  // measure 55
0000
0000
0000
0001
,  // measure 56
0000
0000
0000
1000
,  // measure 57
0000
0000
0000
0100
,  // measure 58
0000
0000
0000
0010
,  // measure 59
0000
0000
0000
0001
,  // measure 60
0000
0000
0000
0010
,  // measure 61
0000
0100
0000
0010
,  // measure 62
0000
0000
0000
0001
,  // measure 63
0000
0000
0000
1000
,  // measure 64
0000
0000
0000
0001
,  // measure 65
0000
0000
0000
0100
,  // measure 66
0000
0000
0000
0010
,  // measure 67
0000
0000
0000
0100
,  // measure 68
0000
0100
0000
0100
,  // measure 69
0000
0100
0000
0001
,  // measure 70
0000
0000
0000
1000
,  // measure 71
0000
0001
0000
1000
,  // measure 72
0000
0000
0000
0100
,  // measure 73
0000
0010
0000
0100
,  // measure 74
0000
0000
0000
0010
,  // measure 75
0000
0001
0000
0010
,  // measure 76
0000
0000
0000
0100
,  // measure 77
0000
1000
0000
0100
,  // measure 78
0000
0100
0000
0100
,  // measure 79
0000
0000
0000
0010
,  // measure 80
0000
0010
0000
0010
,  // measure 81
0000
0000
0000
0001
,  // measure 82
0000
1000
0000
0001
,  // measure 83
0000
0000
0000
0100
,  // measure 84
0000
0010
0000
0100
,  // measure 85
0000
0010
0000
0100
,  // measure 86
0000
0000
0000
0010
,  // measure 87
0000
1000
0000
0001
,  // measure 88
1000
0001
0000
0010
,  // measure 89
0000
0100
0000
1000
,  // measure 90
0000
0001
0000
0100
,  // measure 91
0100
0100
0000
0010
,  // measure 92
0000
1000
0000
0001
,  // measure 93
0001
0001
0001
1000
,  // measure 94
0000
0100
0000
0010
,  // measure 95
0000
0001
0000
1000
,  // measure 96
0001
1000
0000
0010
,  // measure 97
0000
0100
0000
0001
,  // measure 98
0001
0001
0000
1000
,  // measure 99
1000
1000
0000
0100
,  // measure 100
0010
0100
0010
0000
,  // measure 101
0000
1000
0000
0000
,  // measure 102
0000
0001
0000
0000
,  // measure 103
0000
1000
0000
0000
,  // measure 104
0000
1001
0000
0000
,  // measure 105
0000
0010
0000
0000
,  // measure 106
0000
0100
0000
0000
,  // measure 107
0000
0010
0000
0000
,  // measure 108
0000
0110
0000
0000
,  // measure 109
0000
0100
0000
0100
,  // measure 110
0000
0100
0000
0000
,  // measure 111
0000
0010
0000
0010
,  // measure 112
0000
0010
0000
0000
,  // measure 113
0000
0001
0000
1000
,  // measure 114
0000
0001
0000
1000
,  // measure 115
0000
0100
0000
0010
,  // measure 116
0000
0100
0000
0010
,  // measure 117
0000
0000
0000
1001
;
