#VERSION:0.83;
#TITLE:ペンパイナッポーアッポーペン;
#SUBTITLE:;
#ARTIST:ピコ太郎;
#TITLETRANSLIT:Pen-Pineapple-Apple-Pen;
#SUBTITLETRANSLIT:;
#ARTISTTRANSLIT:PIKO-TARO;
#GENRE:;
#ORIGIN:;
#CREDIT:Torpak;
#BANNER:bn.png;
#BACKGROUND:bg.png;
#PREVIEWVID:;
#JACKET:jk.png;
#CDIMAGE:;
#DISCIMAGE:;
#LYRICSPATH:;
#CDTITLE:cd.png;
#MUSIC:song.mp3;
#OFFSET:-0.950000;
#SAMPLESTART:11.500000;
#SAMPLELENGTH:21.259001;
#SELECTABLE:YES;
#BPMS:0.000=136.000;
#STOPS:;
#DELAYS:;
#WARPS:;
#TIMESIGNATURES:0.000=4=4;
#TICKCOUNTS:0.000=4;
#COMBOS:0.000=1;
#SPEEDS:0.000=1.000=0.000=0;
#SCROLLS:0.000=1.000;
#FAKES:;
#LABELS:0.000=Song Start;
#BGCHANGES:;
#KEYSOUNDS:;
#ATTACKS:
;

//---------------dance-single - ----------------
#NOTEDATA:;
#CHARTNAME:;
#STEPSTYPE:dance-single;
#DESCRIPTION:;
#CHARTSTYLE:;
#DIFFICULTY:Hard;
#METER:9;
#RADARVALUES:0.326353,0.421407,0.221793,0.177435,0.000000,103.000000,93.000000,10.000000,8.000000,12.000000,0.000000,0.000000,0.000000,0.000000,0.326353,0.421407,0.221793,0.177435,0.000000,103.000000,93.000000,10.000000,8.000000,12.000000,0.000000,0.000000,0.000000,0.000000;
#CREDIT:;
#NOTES:
0000
0000
0000
0000
,
0000
0000
0000
0000
,
0001
0100
0000
1000
0100
1000
0000
0001
,
0100
0001
0100
0010
0000
0100
0001
0100
,
1000
0100
0000
0001
0100
0001
0000
1000
,
0100
1000
0100
0010
0000
0000
0000
0000
,
0000
0001
0100
0001
0020
0000
0130
0000
,
0000
1000
0010
1000
0200
0000
0310
0000
,
0000
0100
MMMM
0010
,
0001
1000
0000
0020
0000
0000
0130
0000
,
0000
1000
0010
1000
0002
0000
0103
0000
,
0000
0001
0010
0001
2000
0000
3100
0000
,
0000
0001
MMMM
1000
,
0001
0100
1000
0200
0000
0000
0310
0000
,
0101
1001
0011
0010
,
1100
1001
1010
0010
,
1001
0110
MMMM
0000
,
0000
0000
0000
0000
,
0010
1000
0000
0010
0001
0010
0000
0010
,
1000
0010
1000
0100
0000
1000
0001
1000
,
0010
1000
0000
0010
0001
0010
1001
0000
,
1000
1000
0001
0100
0001
0100
1000
0000
,
0220
0000
0000
0000
,
0000
0000
0000
0330
;

//---------------dance-single - ----------------
#NOTEDATA:;
#CHARTNAME:;
#STEPSTYPE:dance-single;
#DESCRIPTION:;
#CHARTSTYLE:;
#DIFFICULTY:Medium;
#METER:8;
#RADARVALUES:0.326353,0.421407,0.354869,0.133076,0.000000,103.000000,87.000000,16.000000,6.000000,0.000000,0.000000,0.000000,0.000000,0.000000,0.326353,0.421407,0.354869,0.133076,0.000000,103.000000,87.000000,16.000000,6.000000,0.000000,0.000000,0.000000,0.000000,0.000000;
#CREDIT:;
#NOTES:
0000
0000
0000
0000
,
0000
0000
0000
0000
,
1000
0010
1000
0000
1000
0010
1000
0000
,
1000
0010
1000
0200
0000
0300
0000
0000
,
0001
0010
0001
0000
0001
0010
0001
0000
,
0001
0010
0001
0200
0000
0300
0000
0000
,
0100
0000
1001
0000
0100
0100
0010
0000
,
0000
0000
1001
0000
0100
0100
0010
0000
,
0100
0010
1001
0010
,
1000
0001
1000
0002
0000
0003
0000
0000
,
0001
0000
0110
0000
1000
1000
0001
0000
,
0000
0000
0110
0000
1000
1000
0001
0000
,
1000
0001
0110
0001
,
0100
0010
0100
0020
0000
0030
0000
0000
,
1001
0110
1001
0010
,
1001
0110
1001
0010
,
1001
0110
0101
0000
,
0000
0000
0000
0000
,
0001
0100
0001
0000
0001
0100
0001
0000
,
0001
0010
0100
1000
0000
0000
0000
0000
,
1000
0100
1000
0000
1000
0100
0010
0000
,
0010
0000
0100
0000
0100
0100
0010
0000
,
2002
0000
0000
0000
,
0000
0000
0000
3003
;

//---------------dance-single - ----------------
#NOTEDATA:;
#CHARTNAME:;
#STEPSTYPE:dance-single;
#DESCRIPTION:;
#CHARTSTYLE:;
#DIFFICULTY:Easy;
#METER:5;
#RADARVALUES:0.199614,0.243973,0.133076,0.155255,0.000000,63.000000,57.000000,6.000000,7.000000,0.000000,0.000000,0.000000,0.000000,0.000000,0.199614,0.243973,0.133076,0.155255,0.000000,63.000000,57.000000,6.000000,7.000000,0.000000,0.000000,0.000000,0.000000,0.000000;
#CREDIT:;
#NOTES:
// measure 0
0000
0000
0000
0000
,  // measure 1
0000
0000
0000
0000
,  // measure 2
0100
0010
0100
0010
,  // measure 3
0100
0000
0000
0010
,  // measure 4
1000
0001
1000
0001
,  // measure 5
1000
0001
0000
0000
,  // measure 6
1000
1000
1001
0000
,  // measure 7
0001
0001
1001
0000
,  // measure 8
1000
1000
0010
0000
,  // measure 9
0200
0020
0000
0330
,  // measure 10
0001
0001
1001
0000
,  // measure 11
1000
1000
1001
0000
,  // measure 12
0001
0001
0100
0000
,  // measure 13
0020
0200
0000
0330
,  // measure 14
2000
0000
0000
0010
0000
0000
3000
0000
,  // measure 15
0002
0000
0000
0010
0000
0000
0003
0000
,  // measure 16
2000
3001
1001
0000
,  // measure 17
0000
0000
0000
0000
,  // measure 18
0010
0100
0010
0100
,  // measure 19
0010
0100
0000
0100
,  // measure 20
0010
0100
0010
1000
,  // measure 21
0001
0001
1000
1000
,  // measure 22
1001
0000
0000
0000
;

//---------------dance-single - ----------------
#NOTEDATA:;
#CHARTNAME:;
#STEPSTYPE:dance-single;
#DESCRIPTION:;
#CHARTSTYLE:;
#DIFFICULTY:Beginner;
#METER:2;
#RADARVALUES:0.088717,0.097589,0.022179,0.044359,0.000000,28.000000,27.000000,1.000000,2.000000,0.000000,0.000000,0.000000,0.000000,0.000000,0.088717,0.097589,0.022179,0.044359,0.000000,28.000000,27.000000,1.000000,2.000000,0.000000,0.000000,0.000000,0.000000,0.000000;
#CREDIT:;
#NOTES:
0000
0000
0000
0000
,
0000
0000
0000
0000
,
0000
0001
0000
0001
,
0000
0001
0000
0000
,
0000
1000
0000
1000
,
0000
1000
0000
0000
,
0000
0010
0000
0000
,
0000
0100
0100
0000
,
0000
0000
0010
0000
,
0100
0000
0100
0000
,
0001
0000
0000
0000
,
1000
1000
0000
0000
,
0000
0000
0001
0000
,
1000
0000
1000
0000
,
0020
0000
0000
0030
,
0200
0000
0000
0300
,
0000
0000
0110
0000
,
0000
0000
0000
0000
,
0000
0001
0000
0001
,
0000
0001
0000
0000
,
0000
1000
0000
1000
,
0000
0000
0000
0000
,
0010
0000
0000
0000
;
