#TITLE:Pegasus;
#SUBTITLE:;
#ARTIST:BEMANI Sound Team "Expander";
#TITLETRANSLIT:;
#SUBTITLETRANSLIT:;
#ARTISTTRANSLIT:;
#GENRE:;
#CREDIT:;
#BANNER:;
#BACKGROUND:;
#LYRICSPATH:;
#CDTITLE:;
#MUSIC:Pegasus.ogg;
#OFFSET:-0.064000;
#SAMPLESTART:84.430000;
#SAMPLELENGTH:15.000000;
#SELECTABLE:YES;
#BPMS:0.000000=165.000000
,68.000000=82.500000
,69.000000=165.000000
,83.000000=82.500000
,84.000000=165.000000
,119.000000=82.500000
,120.000000=165.000000
,151.000000=82.500000
,152.000000=165.000000
,171.000000=82.500000
,172.000000=165.000000
,179.000000=82.500000
,180.000000=165.000000
,184.000000=82.500000
,185.000000=165.000000
,198.000000=82.500000
,199.000000=165.000000
,210.000000=82.500000
,212.000000=165.000000
,214.000000=82.500000
,214.500000=165.000000
,274.500000=82.500000
,277.000000=165.000000
;
#STOPS:112.937500=0.364000,
126.937500=0.364000,
156.937500=0.364000,
171.937500=0.364000,
184.937500=0.364000,
198.937500=0.364000,
214.458328=0.364000,
230.437500=0.364000,
245.437500=0.364000,
260.437500=0.364000
;
#BGCHANGES:;
#KEYSOUNDS:;
#ATTACKS:;

//---------------dance-single - PenTA----------------
#NOTES:
     dance-single:
     PenTA:
     Challenge:
     17:
     0.816320,0.970187,0.304211,0.665976,0.887968,695.000000,658.000000,37.000000,81.000000,0.000000,0.000000,0.816320,0.970187,0.304211,0.665976,0.887968,695.000000,658.000000,37.000000,81.000000,0.000000,0.000000:
// measure 0
0000
0000
0000
0000
,  // measure 1
0000
0000
0000
0000
,  // measure 2
0000
0000
0000
0000
,  // measure 3
0000
0000
0000
0000
,  // measure 4
0000
0000
0000
0000
,  // measure 5
0001
0000
0001
0100
0010
1000
0010
0100
,  // measure 6
0000
1000
0000
0100
0001
0010
0100
0100
,  // measure 7
0010
0000
0010
0001
1000
0010
0100
0010
,  // measure 8
0000
0000
0100
0000
0001
0000
0010
0000
0100
0010
0100
0000
1001
0000
0000
0000
,  // measure 9
1000
0010
0002
0000
0000
0000
1003
0000
1200
0000
0000
0000
0302
0000
0000
0000
,  // measure 10
0013
0000
0200
0000
0000
0000
1300
0010
0200
0000
0000
0000
0001
0000
0000
0000
,  // measure 11
0310
0000
0010
1000
0000
0001
0100
0000
1000
0000
0100
0000
0001
0000
0010
1000
,  // measure 12
0010
0100
1000
0020
0000
0130
0110
0000
,  // measure 13
0001
0010
2000
0000
0000
0000
3001
0000
0201
0000
0000
0000
2300
0000
0000
0000
,  // measure 14
3010
0000
0200
0000
0000
0000
0301
0010
0200
0000
0000
0000
1000
0000
0000
0000
,  // measure 15
0310
0000
0010
0001
0000
1000
0100
0000
1000
0000
0010
0000
0001
0000
0010
0000
,  // measure 16
1000
0100
1000
0000
0100
0010
0100
0000
0010
0001
0010
0000
0001
0000
1000
0000
,  // measure 17
0010
0000
0100
0000
0001
1000
0001
0000
0010
0000
0000
0000
0100
0000
0000
0000
2000
0000
0000
0000
0000
0000
0000
0000
3010
0000
0000
0000
0002
0000
0000
0000
,  // measure 18
0000
0000
0013
1000
0002
0000
0000
0000
0100
0000
0000
0000
0013
0000
0010
0001
,  // measure 19
0000
1000
0100
0000
0010
0000
1000
0000
0010
0000
0100
1000
0100
0000
0010
0000
,  // measure 20
0001
0000
0000
0000
0000
0000
0100
0000
0000
0000
0000
0000
1000
0000
0000
0100
0000
0000
0000
0000
0000
0100
0000
0000
0001
0000
0000
0000
0000
0000
0010
0000
0000
0000
0000
0000
0100
0000
0000
1000
0000
0000
0001
0000
0100
0000
0010
0000
,  // measure 21
1000
0000
0001
0000
0200
0000
0000
0000
0310
0001
2000
0000
0000
0000
3100
0001
,  // measure 22
2000
0000
0000
0000
0100
0000
0000
0000
3010
0000
0010
0100
0000
0001
1000
0000
,  // measure 23
0100
0010
0001
0000
0202
0303
2020
3030
,  // measure 24
1000
0100
0010
0000
0110
0000
0000
0000
0001
0100
0010
1000
0010
0100
0000
0001
,  // measure 25
0000
1000
0010
1000
0100
1000
0010
0100
0001
0010
0000
0100
1000
0000
0010
0000
,  // measure 26
0100
0001
1000
0001
0100
0000
0010
0000
2000
0000
3100
2000
0000
3010
1000
0100
,  // measure 27
0020
0000
0031
0020
0000
0130
1000
0010
1000
0100
0001
0100
1000
0010
0100
0001
,  // measure 28
0010
0000
0100
0000
1000
0010
0100
0001
0100
0010
0000
1000
0000
0100
0010
0001
,  // measure 29
0100
0000
0001
0000
0010
0000
0001
0000
1000
0000
0010
0000
0001
0000
0010
0000
1000
0000
0000
0000
0001
0000
0000
0000
1000
0100
1000
0000
0001
0100
0001
0000
,  // measure 30
1010
0000
0000
2200
0000
0000
3300
0000
0011
0000
0000
2002
0000
0000
3003
0000
,  // measure 31
0001
0100
0001
0000
0010
0000
0100
0000
1000
0000
0010
0000
1002
0000
0000
0100
,  // measure 32
0000
0000
0013
0000
0021
0000
0000
0000
0230
0000
0000
0000
1300
0010
1000
0100
,  // measure 33
1000
0010
1000
0100
0002
0000
0203
0000
2300
0000
3020
0000
0130
0000
0100
0001
,  // measure 34
0000
1000
0010
0000
0001
0000
1000
0100
0000
0010
0001
0010
1000
0000
0001
0100
,  // measure 35
0000
0001
0010
0100
1000
0000
0010
0000
0100
0000
0000
0000
1002
0000
0000
0000
,  // measure 36
0013
0100
1000
0000
1020
0000
0000
0000
0001
0000
0000
0000
0130
0001
1000
0001
,  // measure 37
0100
0001
1000
0001
0100
0010
1000
0000
0100
0000
0010
0000
0002
0000
0000
0000
,  // measure 38
0023
0000
0000
0000
0130
1000
0001
0100
0010
0000
1000
0000
0010
0000
0100
0000
,  // measure 39
0001
0000
1001
0000
2010
0000
0000
3200
0000
0000
0310
0001
0010
0001
1000
0100
,  // measure 40
0010
0000
0100
0000
1000
0010
0100
0010
1000
0010
0001
0010
2000
0000
3002
0000
,  // measure 41
0103
0001
0010
0001
0100
0000
0010
1000
0000
0001
0100
0001
0010
0000
0100
1000
,  // measure 42
0010
0000
0010
1000
0100
0001
0100
1000
0010
0000
0010
0100
0001
0001
1001
0000
,  // measure 43
2100
0000
0000
0000
3020
0000
0000
0000
0230
0000
0000
0000
0310
0001
0010
0100
,  // measure 44
0010
0001
0010
1000
0100
0010
0000
0100
1000
0000
0001
0000
0200
0000
0000
0000
,  // measure 45
0320
0000
0000
0000
1030
0100
0010
0001
1000
0000
0010
0000
0001
0000
0010
0000
,  // measure 46
1000
0100
0110
0000
0001
0100
0001
0100
0010
1000
0010
1000
0001
1000
0001
1000
,  // measure 47
0200
0000
0000
0000
0310
0001
0010
0001
1000
0100
0010
0100
0010
0000
0001
0000
,  // measure 48
0100
0001
0010
0100
0010
0100
0010
1000
0010
0100
1000
0010
0100
1000
0100
0001
,  // measure 49
0010
0000
0000
0000
0000
0000
0010
0000
0000
0000
0000
0000
0100
0000
0000
1000
0000
0000
0100
0000
0000
0010
0000
0000
0001
0000
0000
1001
0000
0000
1001
0000
0000
0000
0000
0000
0010
0000
0000
0000
0010
0000
0000
0000
0010
0000
0000
0000
,  // measure 50
0100
0000
0100
0000
0100
0000
0020
0000
0000
0000
0000
0000
1030
0000
0000
0100
0000
0000
0011
0000
0000
0001
0000
0000
,  // measure 51
0100
0001
0100
0000
1010
0000
1000
0100
1000
0000
0010
0000
1001
0000
0001
0100
,  // measure 52
0010
0100
0010
0100
1000
0100
0001
0010
0200
0000
0000
0000
1000
0001
0000
0000
,  // measure 53
0320
0000
0000
0000
0031
0100
0010
1000
0200
0300
2000
0000
0020
3000
0000
0130
,  // measure 54
0001
0010
0001
0000
0100
0000
1000
0000
0001
0000
0010
1000
0010
0000
0100
0000
,  // measure 55
0001
0000
0010
0000
0100
1000
0001
1000
0001
1000
0200
0000
0010
0000
0310
0000
,  // measure 56
0001
0000
0101
0000
0000
1010
0000
0000
1200
0000
0320
0000
0032
0000
0203
0000
,  // measure 57
2300
0000
3100
0001
0010
0000
0100
1000
0010
0100
0002
0000
2000
0000
0003
0000
,  // measure 58
3010
0000
0000
1000
0100
0010
0001
0000
0101
0000
0010
0000
1000
0000
1100
0000
,  // measure 59
0100
0010
0000
0000
0110
0000
2000
0000
3002
0000
2003
0000
3020
0000
0130
0000
,  // measure 60
0000
0110
0000
0000
0001
0100
0001
0010
0000
1000
0000
0010
0100
1000
0100
0000
,  // measure 61
0010
0001
0010
0000
0000
0000
0001
0100
0010
0000
1000
0000
0100
0000
0010
0000
,  // measure 62
0001
0000
1000
0010
0100
0000
1000
0000
0100
0000
0001
0000
0010
0100
0000
1000
,  // measure 63
0010
0000
0001
0000
0100
0000
0001
0000
0010
0000
1000
0000
0000
1010
0000
0001
,  // measure 64
0010
0100
2000
0000
3002
0000
0203
0000
0320
0000
0031
0010
1000
0000
0001
0010
,  // measure 65
0100
0000
1000
0001
0100
0000
0010
0000
0001
0000
0010
0000
1000
0000
0100
0010
,  // measure 66
1000
0000
0001
0000
0100
0000
1000
0000
0010
0100
0000
1000
0100
0000
0001
0000
,  // measure 67
0010
0000
0100
0000
0100
0000
1001
0000
0000
1001
0000
0000
0001
1000
0001
0100
,  // measure 68
0000
0000
1010
0000
0000
0000
0100
0000
0001
0000
1000
0000
0100
0000
1000
0000
0100
0000
0010
0000
0000
0000
0000
0000
0001
0010
0001
0010
0100
1000
0100
1000
,  // measure 69
0010
0100
0001
0000
1001
0000
0000
0000
0200
0000
0000
0000
0302
0000
0000
0000
0023
0000
0000
0000
0230
0000
0000
0000
0000
0000
1300
0000
0010
0000
0100
0000
,  // measure 70
0000
1000
0100
0010
0100
0010
1000
0000
0001
0000
0010
0000
1000
0010
0001
0000
,  // measure 71
0001
0100
1000
0000
0002
0000
0023
0000
0230
0000
0302
0000
0000
0013
0100
1000
,  // measure 72
0000
0010
0100
0001
0100
0001
0010
0000
1000
0000
0001
0100
1000
0000
1000
0010
,  // measure 73
0002
0000
0000
0003
;
