#VERSION:0.83;
#TITLE:Paradise Regained;
#SUBTITLE:;
#ARTIST:LCAZE feat.chakk;
#TITLETRANSLIT:;
#SUBTITLETRANSLIT:;
#ARTISTTRANSLIT:;
#GENRE:;
#ORIGIN:;
#CREDIT:;
#BANNER:Paradise Regained.png;
#BACKGROUND:Paradise Regained-bg.png;
#PREVIEWVID:;
#JACKET:Paradise Regained-jacket.png;
#CDIMAGE:;
#DISCIMAGE:;
#LYRICSPATH:;
#CDTITLE:;
#MUSIC:Paradise Regained.ogg;
#OFFSET:-0.570000;
#SAMPLESTART:79.681114;
#SAMPLELENGTH:14.222221;
#SELECTABLE:YES;
#BPMS:0.000=135.000;
#STOPS:;
#DELAYS:;
#WARPS:;
#TIMESIGNATURES:0.000=4=4;
#TICKCOUNTS:0.000=4;
#COMBOS:0.000=1;
#SPEEDS:0.000=1.000=0.000=0;
#SCROLLS:0.000=1.000;
#FAKES:;
#LABELS:0.000=Song Start;
#BGCHANGES:;
#KEYSOUNDS:;
#ATTACKS:
;

//---------------dance-single - ----------------
#NOTEDATA:;
#CHARTNAME:;
#STEPSTYPE:dance-single;
#DESCRIPTION:;
#CHARTSTYLE:;
#DIFFICULTY:Hard;
#METER:13;
#RADARVALUES:0.514651,0.666760,0.295426,0.287220,0.336457,439.000000,403.000000,36.000000,35.000000,0.000000,0.000000,0.000000,0.000000,0.000000,0.514651,0.666760,0.295426,0.287220,0.336457,439.000000,403.000000,36.000000,35.000000,0.000000,0.000000,0.000000,0.000000,0.000000;
#CREDIT:;
#NOTES:
// measure 0
0000
0000
0000
0000
,  // measure 1
0000
0000
0000
0000
0000
0000
0000
0000
0000
0001
0010
0100
,  // measure 2
1000
0001
0100
0020
0000
0030
0100
0002
,  // measure 3
0000
0000
0003
0000
1000
0000
0020
0000
0000
0000
1030
0100
0010
0001
1000
0100
,  // measure 4
0010
0000
0001
0010
0000
0010
0002
0000
,  // measure 5
0000
2003
0000
0000
3100
0010
0100
0000
,  // measure 6
1000
0010
0100
0002
0000
0003
0100
0020
,  // measure 7
0000
0000
0030
0000
1000
0000
0002
0000
0000
0000
1003
0010
0100
0010
1000
0100
,  // measure 8
0010
0000
0001
0010
0000
0010
0200
0000
,  // measure 9
0000
2300
0000
0000
3010
0100
0001
0000
,  // measure 10
1000
0000
0000
0001
0000
0001
0000
0001
1000
0000
0100
0000
0010
0000
0000
0000
,  // measure 11
1001
0000
1000
0010
0100
0001
1000
0100
,  // measure 12
0020
0000
0031
0100
0002
0000
0003
1000
,  // measure 13
1100
0011
1001
0110
,  // measure 14
1010
0000
0101
0000
0100
0001
0100
0000
,  // measure 15
2000
0000
3001
0100
0010
1000
0001
0010
,  // measure 16
0200
0000
1300
0010
0200
0000
0301
1000
,  // measure 17
0002
1000
1000
1003
,  // measure 18
1100
0000
1000
0001
0100
0010
1000
0001
,  // measure 19
1001
0000
1000
0010
0100
0001
1000
0100
,  // measure 20
0020
0000
0031
0100
0002
0000
0003
1000
,  // measure 21
1100
0011
1001
0110
,  // measure 22
1010
0000
0101
0000
0100
0001
0100
0000
,  // measure 23
2000
0000
3001
0100
0010
1000
0001
0010
,  // measure 24
0200
0000
1300
0010
0200
0000
0301
1000
,  // measure 25
0002
1000
1000
1003
,  // measure 26
2200
0000
3300
0000
0010
0001
0010
0100
,  // measure 27
2000
0100
0000
0100
0010
0000
0010
0100
,  // measure 28
0000
0100
0010
0000
0100
0000
3010
0000
,  // measure 29
0002
0010
0000
0010
0100
0000
0100
0010
,  // measure 30
0000
0010
0100
0000
0003
0000
0000
0000
,  // measure 31
0200
0010
0000
0001
0010
0000
0010
0001
,  // measure 32
0000
0001
0310
0000
0100
0010
0100
0001
,  // measure 33
2000
0001
0000
0010
0001
0000
0001
0010
,  // measure 34
3002
0000
0000
0000
,  // measure 35
1003
0000
0100
0000
0010
0000
0001
0000
0000
1001
0000
0000
0110
0000
0000
1001
,  // measure 36
0000
0000
0110
0000
0000
1001
0000
0000
0100
0000
0000
0010
0000
0000
0100
0000
,  // measure 37
1000
0000
0001
0000
0100
0000
0010
0000
0000
0110
0000
0000
1001
0000
0000
0110
,  // measure 38
0000
0000
1001
0000
0000
0110
0000
0000
1000
0000
0000
0001
0000
0000
1000
0000
,  // measure 39
0100
0000
0010
0000
0001
0000
1000
0000
0000
1100
0000
0000
0011
0000
0000
1100
,  // measure 40
0000
0000
0011
0000
0000
1100
0000
0000
0010
0000
0000
0100
0000
0000
0010
0000
,  // measure 41
0001
0000
0010
0000
0100
0000
1000
0000
0000
1100
0000
0000
0011
0000
0000
1100
,  // measure 42
0000
0000
0011
0000
0000
1100
0000
0000
0010
0000
0000
0100
0000
0000
0010
0000
,  // measure 43
0001
0010
0000
0100
1000
0000
0001
1000
0000
0100
0010
0100
,  // measure 44
1000
0001
1000
0001
1000
0001
1000
0001
1000
0002
0000
0000
,  // measure 45
1003
0100
1000
0010
1000
0001
0100
0010
,  // measure 46
0100
0001
1000
0100
0010
0001
2000
0000
,  // measure 47
3001
0100
0010
0100
0001
1000
0100
0010
,  // measure 48
0001
0010
0100
1000
0010
0100
0002
0000
,  // measure 49
0103
0010
1000
0100
0010
0001
0010
0100
,  // measure 50
1000
0001
0100
0010
0100
0001
2000
0000
,  // measure 51
3100
0010
0100
1000
0001
0100
0010
1000
,  // measure 52
0100
0010
0100
1000
0001
0100
0020
0000
,  // measure 53
1030
0000
0100
0000
0010
0000
0001
0000
0000
1000
0000
0000
0010
0000
0000
0100
,  // measure 54
0000
0000
0001
0000
0000
1000
0000
0000
0100
0000
0000
0010
0000
0000
0001
0000
,  // measure 55
0010
0000
0100
0000
1000
0000
0001
0000
0000
1000
0000
0000
0010
0000
0000
0100
,  // measure 56
0000
0000
0001
0000
0000
1000
0000
0000
0100
0000
0000
0010
0000
0000
0001
0000
,  // measure 57
1000
0000
0001
0000
0100
0000
0010
0000
0000
0100
0000
0000
0001
0000
0000
1000
,  // measure 58
0000
0000
0100
0000
0000
0010
0000
0000
0100
0000
0000
1000
0000
0000
0001
0000
,  // measure 59
2000
0000
0000
0000
0000
0000
3001
0100
,  // measure 60
0000
0010
0100
0010
1000
0100
0010
0001
,  // measure 61
1000
0100
0010
0001
0010
0100
1000
0001
0100
0010
1000
0001
,  // measure 62
0100
0010
1000
0001
0010
0100
1000
0001
0100
0010
1000
0100
,  // measure 63
0010
0001
0001
1000
0100
0100
1000
0010
0010
1000
0100
0010
,  // measure 64
0100
0010
0100
0010
0100
1000
0001
0100
0010
1000
0100
0010
,  // measure 65
0001
0000
0000
0000
;
