#VERSION:0.83;
#TITLE:PPAP;
#SUBTITLE:-2020-;
#ARTIST:ピコ太郎;
#TITLETRANSLIT:;
#SUBTITLETRANSLIT:;
#ARTISTTRANSLIT:PIKO-TARO;
#GENRE:;
#ORIGIN:;
#CREDIT:Torpak;
#BANNER:ppap2020bn.png;
#BACKGROUND:ppap2020.png;
#PREVIEWVID:;
#JACKET:ppap2020jk.png;
#CDIMAGE:;
#DISCIMAGE:;
#LYRICSPATH:;
#CDTITLE:cd.png;
#MUSIC:ppap2020.ogg;
#OFFSET:-0.365500;
#SAMPLESTART:14.480000;
#SAMPLELENGTH:19.750000;
#SELECTABLE:YES;
#DISPLAYBPM:*;
#BPMS:0.000=136.000,
42.000=272.000,
83.000=136.000,
95.000=272.000,
136.000=136.000,
149.000=124.000,
149.500=114.940,
151.000=86.830,
153.000=136.000;
#STOPS:42.000=0.661,
43.000=0.220,
44.000=0.221,
45.000=0.220,
46.000=0.221,
47.000=0.220,
48.000=0.221,
49.000=0.220,
50.000=0.221,
51.000=0.220,
52.000=0.221,
53.000=0.220,
54.000=0.221,
55.000=0.220,
56.000=0.221,
57.000=0.220,
58.000=0.221,
83.000=0.882,
95.000=0.661,
96.000=0.220,
97.000=0.221,
98.000=0.220,
99.000=0.221,
100.000=0.220,
101.000=0.221,
102.000=0.220,
103.000=0.221,
104.000=0.220,
105.000=0.221,
106.000=0.220,
107.000=0.221,
108.000=0.220,
109.000=0.221,
110.000=0.220,
111.000=0.221,
136.000=0.882,
148.000=0.441,
152.000=1.916;
#DELAYS:;
#WARPS:195.500=12.000,
208.000=12.000,
220.500=8.000,
242.500=12.000,
255.500=4.000;
#TIMESIGNATURES:0.000=4=4;
#TICKCOUNTS:0.000=4;
#COMBOS:0.000=1;
#SPEEDS:0.000=1.000=0.000=0,
170.000=8.000=8.000=0,
180.000=1.000=0.000=0;
#SCROLLS:0.000=1.000;
#FAKES:;
#LABELS:0.000=Song Start;
#BGCHANGES:0.000=ppap2020mv.mp4=1.000=1=0=0=StretchNoLoop==CrossFade==,
99999=-nosongbg-=1.000=0=0=0 // don't automatically add -songbackground-
;
#KEYSOUNDS:;
#ATTACKS:
;

//---------------dance-single - ----------------
#NOTEDATA:;
#CHARTNAME:;
#STEPSTYPE:dance-single;
#DESCRIPTION:;
#CHARTSTYLE:;
#DIFFICULTY:Challenge;
#METER:19;
#RADARVALUES:0.337535,0.632398,0.537496,0.078385,0.000000,211.000000,163.000000,48.000000,7.000000,64.000000,2.000000,2.000000,13.000000,3.000000,0.337535,0.632398,0.537496,0.078385,0.000000,211.000000,163.000000,48.000000,7.000000,64.000000,2.000000,2.000000,13.000000,3.000000;
#CREDIT:;
#DISPLAYBPM:*;
#NOTES:
// measure 0
0000
0000
0000
0000
,  // measure 1
0000
0000
0000
0000
,  // measure 2
0000
0000
0000
0000
,  // measure 3
0000
0000
1001
0000
,  // measure 4
L000
1000
000L
0001
,  // measure 5
L000
1000
000L
0001
,  // measure 6
L000
1000
000L
0001
,  // measure 7
L000
1000
0000
0000
,  // measure 8
0000
0100
0020
0200
1000
0000
0330
0000
,  // measure 9
0000
0010
0010
0001
0001
0000
0000
0000
,  // measure 10
1000
0001
0110
MM11
,  // measure 11
MM11
MM11
MM11
11MM
,  // measure 12
11MM
11MM
11MM
M1M1
,  // measure 13
M1M1
M1M1
M1M1
1M1M
,  // measure 14
1M1M
1M1M
1M1M
1010
,  // measure 15
1000
0010
0000
0010
0001
0000
0001
0100
,  // measure 16
0000
0100
1000
0000
0000
0000
1100
0000
,  // measure 17
1000
0100
0000
0100
0001
0000
0001
0010
,  // measure 18
0000
0010
1000
0000
0000
0000
0101
0000
,  // measure 19
0001
0100
0000
0100
1000
0000
1000
0010
,  // measure 20
0000
0010
0001
0000
0000
0000
1001
0000
,  // measure 21
0010
0000
0000
1000
1000
0010
0010
0000
,  // measure 22
0000
0000
0000
0100
0020
0200
0001
0000
,  // measure 23
0330
1000
0001
0110
,  // measure 24
11MM
M1M1
1M1M
M1M1
,  // measure 25
11MM
MM11
MM11
MM11
,  // measure 26
11MM
M11M
1MM1
1M1M
,  // measure 27
M11M
1MM1
M1M1
M1M1
,  // measure 28
0101
0000
0001
0100
0000
0100
1000
0000
,  // measure 29
1000
0010
0000
0010
0001
0000
0000
0000
,  // measure 30
0011
0000
0001
0010
0000
0010
1000
0000
,  // measure 31
1000
0100
0000
0100
0001
0000
0000
0000
,  // measure 32
1010
0000
1000
0010
0000
0010
0001
0000
,  // measure 33
0001
0100
0000
0100
1000
0000
0000
0000
,  // measure 34
1001
0000
0010
0000
1000
0100
1000
0002
,  // measure 35
0000
0000
1003
0000
0001
0100
0001
2000
,  // measure 36
0000
3001
0110
1001
,  // measure 37
0110
0000
0001
0100
0010
1000
0200
0000
,  // measure 38
1300
1001
0000
L000
,  // measure 39
1000
000L
0001
L000
,  // measure 40
1000
000L
0001
L000
,  // measure 41
1000
000L
0001
0010
,  // measure 42
0100
0010
4004
0000
,  // measure 43
0000
0000
0000
0000
,  // measure 44
0000
0000
0000
3003
,  // measure 45
0000
0000
0000
0000
,  // measure 46
0000
0000
0000
0000
,  // measure 47
0000
0000
0000
0000
,  // measure 48
0000
0000
0000
0000
,  // measure 49
0000
0000
0000
0000
,  // measure 50
0000
0000
0000
0000
,  // measure 51
0000
0000
0000
0000
,  // measure 52
0000
0000
0M00
0000
,  // measure 53
0000
0000
0000
0000
,  // measure 54
0000
0000
0000
0000
,  // measure 55
0000
0000
0000
0000
0000
00M0
0000
0000
,  // measure 56
0000
0000
0000
0000
,  // measure 57
0000
0000
0000
0000
,  // measure 58
0000
0000
0000
0000
,  // measure 59
0000
0000
0000
0000
,  // measure 60
0000
0000
0000
0000
,  // measure 61
0000
0000
0000
0000
,  // measure 62
0000
0000
0000
00M0
;
