#VERSION:0.83;
#TITLE:POP TEAM EPIC;
#SUBTITLE:;
#ARTIST:上坂すみれ;
#TITLETRANSLIT:;
#SUBTITLETRANSLIT:;
#ARTISTTRANSLIT:;
#GENRE:;
#CREDIT:;
#MUSIC:POP TEAM EPIC.ogg;
#BANNER:POP TEAM EPIC.png;
#BACKGROUND:POP TEAM EPIC-bg.png;
#CDTITLE:;
#SAMPLESTART:46.164;
#SAMPLELENGTH:15.000;
#SELECTABLE:YES;
#OFFSET:1.688;
#BPMS:0.000=142.000;
#STOPS:;
#SPEEDS:0.000=1.000=0.000=0;
#SCROLLS:0.000=1.000;
#TICKCOUNTS:0.000=4;
#TIMESIGNATURES:0.000=4=4;
#LABELS:0.000=Song Start;
#COMBOS:0.000=1;
#ORIGIN:;
#PREVIEWVID:;
#JACKET:POP TEAM EPIC-jacket.png;
#CDIMAGE:;
#DISCIMAGE:;
#BGCHANGES:0.000=POP TEAM EPIC.avi=1.000=0=0=0=StretchNoLoop====,
99999.000=-nosongbg-=1.000=0=0=0=StretchNoLoop====
;
#FGCHANGES:;

//--------------- dance-single - Talkion ----------------
#NOTEDATA:;
#STEPSTYPE:dance-single;
#DESCRIPTION:Talkion;
#DIFFICULTY:Beginner;
#METER:2;
#RADARVALUES:0.11777,0.180475,0.044562,0.066843,0,74,70,4,6,0,0,0,0,0,0.11777,0.180475,0.044562,0.066843,0,74,70,4,6,0,0,0,0,0;
#CHARTNAME:;
#CHARTSTYLE:;
#CREDIT:;
#NOTES:
0000
0000
0000
0000
,
0000
0000
0000
0000
,
0000
0000
0000
0000
,
0000
0000
0000
0000
,
0000
0000
0000
0000
,
1000
0000
0000
0000
,
1000
0000
0000
0000
,
0001
0000
0000
0000
,
0001
0000
0000
0000
,
1000
0000
0000
0000
,
1000
0000
0000
0000
,
0001
0000
0000
0000
,
0001
0000
0000
0000
,
0100
0000
0100
0000
,
0100
0000
0100
0000
,
0020
0000
0000
0030
,
0000
0000
0000
0000
,
0010
0000
0010
0000
,
0010
0000
0010
0000
,
0200
0000
0000
0300
,
0000
0000
0000
0000
,
0000
0000
1001
0000
,
0000
0000
1001
0000
,
0000
0000
0110
0000
,
0000
0000
0110
0000
,
1000
0000
0001
0000
,
1000
0000
0001
0000
,
0200
0000
0000
0000
0000
0000
0000
0300
,
0000
0000
0000
0000
,
0001
0000
0001
0000
,
0001
0000
0001
0000
,
1000
0000
1000
0000
,
1000
0000
1000
0000
,
0010
0000
0010
0000
,
0010
0000
0010
0000
,
0100
0000
0100
0000
,
0200
0000
0000
0300
0000
0000
0000
0000
,
0001
0000
0001
0000
,
0001
0000
0001
0000
,
1000
0000
1000
0000
,
1000
0000
1000
0000
,
0100
0000
0100
0000
,
0100
0000
0100
0000
,
0010
0000
0010
0000
,
0020
0000
0000
0030
0000
0000
0000
0000
,
0001
0000
0000
0001
,
0000
0000
0001
0000
,
0000
0001
0000
0000
,
0001
0000
0100
0000
,
0010
0000
0000
0010
,
0000
0000
0010
0000
,
0000
0010
0000
0000
,
1000
0000
0000
0001
0000
0000
0000
0000
,
2000
0000
0000
0000
,
3000
0000
0000
0000
;

//--------------- dance-single - Talkion ----------------
#NOTEDATA:;
#STEPSTYPE:dance-single;
#DESCRIPTION:Talkion;
#DIFFICULTY:Easy;
#METER:5;
#RADARVALUES:0.210077,0.240634,0.033421,0.189388,0,132,129,3,17,0,0,0,0,0,0.210077,0.240634,0.033421,0.189388,0,132,129,3,17,0,0,0,0,0;
#CHARTNAME:;
#CHARTSTYLE:;
#CREDIT:;
#NOTES:
0000
0000
0000
0000
,
0000
0000
0000
0000
,
0000
0000
0000
0000
,
0000
0000
0000
0000
,
0000
0000
0000
0000
,
2000
0000
3100
0000
,
0020
0000
0130
0000
,
2000
0000
3100
0000
,
0020
0000
0000
0000
0031
1000
0000
0000
,
0002
0000
0103
0000
,
0020
0000
0130
0000
,
0002
0000
0103
0000
,
0010
0010
1000
1000
,
0001
0000
0001
0000
,
1000
0100
1000
0001
,
0100
0000
0000
0100
0000
0000
0100
0000
,
0000
0000
0010
0010
,
1000
0000
1000
0000
,
0001
0001
0010
0010
,
0100
0000
0000
0100
0000
0000
0100
0000
,
0000
0000
0010
0010
,
0002
0003
2000
3000
,
0020
0030
0200
0300
,
0002
0003
0020
0030
,
0200
0300
2000
3000
,
0001
0000
0001
0001
,
0100
0000
0100
0100
,
0010
0000
1000
0000
0001
0000
0000
1001
,
0000
0000
0000
0000
,
1000
0100
0001
0000
,
0001
0100
1000
0000
,
0001
0100
1000
0000
,
1000
0100
0001
0000
,
1000
0100
0001
0000
,
0001
1000
0010
0000
,
0010
0001
1000
0010
,
0100
0000
0000
0110
0000
0000
0000
0000
,
1000
0010
0001
0000
,
0001
0010
1000
0000
,
0001
0010
1000
0000
,
1000
0010
0001
0000
,
1000
0010
0001
0000
,
0001
1000
0100
0000
,
0100
0000
0010
0000
,
1000
0000
0000
1001
0000
0000
0000
0000
,
0001
0000
0000
0010
0000
0000
1000
0000
,
0000
0010
0000
0000
0001
0000
0000
0010
,
0000
0000
1000
0000
0000
0010
0000
0000
,
0001
1000
0100
1000
,
0001
0000
0000
0100
0000
0000
1000
0000
,
0000
0100
0000
0000
0001
0000
0000
0100
,
0000
0000
1000
0000
0000
0100
0000
0000
,
0001
0000
0000
1000
0000
0000
0200
0000
,
0020
0000
0000
0000
,
0330
0000
0000
0000
;

//--------------- dance-single - Talkion ----------------
#NOTEDATA:;
#STEPSTYPE:dance-single;
#DESCRIPTION:Talkion;
#DIFFICULTY:Medium;
#METER:8;
#RADARVALUES:0.318299,0.39103,0.155966,0.712989,0.00557,200,186,14,64,0,0,0,0,0,0.318299,0.39103,0.155966,0.712989,0.00557,200,186,14,64,0,0,0,0,0;
#CHARTNAME:;
#CHARTSTYLE:;
#CREDIT:;
#NOTES:
0000
0000
0000
0000
,
0000
0000
0000
0000
,
0000
0000
0000
0000
,
0000
0000
0000
0000
,
0000
0000
0000
0000
,
0002
0000
0000
0013
0001
0000
0000
0000
,
2000
0000
0000
3010
1000
0000
0000
0000
,
0002
0000
0000
0013
0001
0000
0000
0000
,
2000
0000
0000
3010
0100
0101
0000
0000
,
0002
0000
0000
0103
0001
0000
0000
0000
,
2000
0000
0000
3100
1000
0000
0000
0000
,
0002
0000
0000
0103
0001
0000
0000
0000
,
1000
0100
0100
0000
0010
0100
1000
0100
,
0010
0000
0001
0000
1000
0001
0100
0000
,
0010
0000
0100
0000
0010
1000
0001
0000
,
2000
0000
0000
0001
0000
3100
0010
0000
,
0001
0000
1000
0000
0002
0203
0301
0000
,
0100
0000
0001
0000
1000
0001
0010
0000
,
0100
0000
0010
0000
0100
1000
0001
0000
,
0200
0000
0000
0320
0000
0000
1030
0000
,
0001
0000
0010
0000
0002
2003
3001
0000
,
0200
0300
0220
0330
,
2020
3030
2002
3003
,
0022
0033
0220
0330
,
2200
3300
2002
3003
,
0001
0001
0100
0100
,
0010
0010
1000
1000
,
2002
0000
0000
0000
0000
0000
3003
1001
,
0000
0000
0000
0110
,
2000
0010
0001
0100
,
3002
0000
1000
0000
0103
0001
1000
0000
,
0002
0010
1000
0100
,
2003
0000
0001
0000
3100
1000
0001
0000
,
0200
0010
1000
0001
,
0320
0000
0100
0000
1030
0010
0100
0000
,
0001
1000
0100
0000
0010
0001
1000
0000
,
0020
0000
0030
0210
0000
0000
0301
0000
,
2000
0100
0010
0100
,
3002
0000
0100
0000
1003
0001
0010
0000
,
0002
0010
0100
0010
,
2003
0000
0100
0000
3001
1000
0010
0000
,
0200
1000
0001
1000
,
0320
0000
1000
0000
0130
0010
1000
0000
,
0001
0010
0100
0000
1000
0010
0100
0000
,
0020
0000
0030
2001
0000
0000
3100
0000
,
0020
0000
0000
0032
0000
0000
0203
0000
,
0000
2300
0000
0000
3020
0000
0000
0032
,
0000
0000
0203
0000
0000
2300
0000
0000
,
3020
1000
0100
0031
,
0200
0000
0000
0302
0000
0000
0023
0000
,
0000
2030
0000
0000
3200
0000
0000
0302
,
0000
0000
0013
0000
0001
1000
0001
0000
,
0100
0000
0010
0000
1000
0000
0000
1001
0000
0000
0001
0000
0020
0000
0000
0000
,
0200
0000
0000
0000
,
0330
0000
0000
0000
;

//--------------- dance-single - Talkion ----------------
#NOTEDATA:;
#STEPSTYPE:dance-single;
#DESCRIPTION:Talkion;
#DIFFICULTY:Hard;
#METER:12;
#RADARVALUES:0.474265,0.571505,0.111404,0.902376,0.116975,298,288,10,81,0,0,0,0,0,0.474265,0.571505,0.111404,0.902376,0.116975,298,288,10,81,0,0,0,0,0;
#CHARTNAME:;
#CHARTSTYLE:;
#CREDIT:;
#NOTES:
0000
0000
0000
0000
,
0000
0000
0000
0000
,
0000
0000
0000
0000
,
0000
0000
0000
0000
,
1000
0000
0000
0100
1000
0000
0001
0000
0000
0000
0201
0000
0000
0000
0000
0000
,
0310
0000
0010
2000
0000
3200
0000
0000
,
0310
0000
0010
0002
0000
0203
0000
0000
,
0310
0000
0010
2000
0000
3002
0000
0000
,
0013
0000
1000
0010
0001
2001
0000
0000
,
3010
0000
0010
2000
0000
3200
0000
0000
,
0310
0000
0010
0002
0000
0203
0000
0000
,
1300
0000
0000
0000
1000
0000
0200
0000
0000
0000
0302
0000
0000
0000
1003
0001
,
0010
0000
0001
0000
0001
0000
0000
0100
0001
0000
0100
0000
0010
0000
1000
0000
,
0001
0000
0001
0000
0001
0010
1000
0010
,
0100
0000
0000
0100
0010
0000
0002
0000
0000
0000
1003
0000
0020
0000
0000
0000
,
0230
0000
1000
0320
0000
0001
0130
0000
,
0010
0000
0000
0000
0100
0000
0000
0000
0001
1000
0001
0000
0010
0000
0100
0000
,
1000
0000
1000
0000
1000
0100
0001
0100
,
0010
0000
0000
0010
0100
0000
2000
0000
0000
0000
3001
0000
0200
0000
0000
0000
,
0302
0000
0010
2003
0000
0100
3001
0000
,
1000
0000
0000
0000
0100
0000
0000
0000
1000
0100
1000
0000
0001
0000
0100
0000
,
0020
0030
2002
3003
,
2200
3300
0202
0303
,
0220
0330
2020
3030
,
2002
0000
0000
0000
3003
0000
0001
0200
0020
0000
0000
0000
0330
0000
0000
0000
,
1000
0000
0010
0000
1000
0010
0010
1000
,
0001
0000
0000
0000
0010
0000
0000
0000
0001
0000
0010
0001
1000
0000
0010
0000
,
0200
0000
0000
0000
0310
1000
0001
0020
,
0000
0130
0000
0000
0000
0000
1001
0000
,
0002
0010
2003
0000
3002
0100
2003
0000
,
3001
0001
1000
0010
0001
1000
0100
0001
,
2000
0100
3002
0000
2003
0010
3002
0000
,
1003
1000
0100
0010
0001
0010
0100
1000
,
0020
0100
0032
0000
0023
0100
2030
0000
,
3001
1000
0100
0001
0100
1000
0100
0010
,
0001
0000
0000
0000
1000
0001
0000
0001
0100
0000
0001
0000
1000
0100
0010
0000
,
0002
0000
0000
0000
1003
0001
0200
0000
0000
0000
0310
0000
0100
0000
0001
0000
,
2000
0010
3200
0000
0320
0100
0032
0000
,
1003
1000
0001
0100
1000
0001
0010
1000
,
0002
0100
0023
0000
0230
0010
2300
0000
,
3001
0001
0100
0010
1000
0010
0100
0001
,
0020
1000
0032
0000
0203
1000
0302
0000
,
1003
0001
0010
1000
0010
0001
0010
0100
,
1000
0000
0001
0000
1000
0010
0000
0010
0100
0000
0001
0000
1000
0000
0100
0000
,
0010
0000
0010
0000
0001
1000
0020
0000
0000
0000
0000
0000
0130
0000
0000
0000
,
0002
0000
0103
2000
0000
3010
0002
0000
,
0103
2000
0000
3010
0001
0000
1000
0200
,
0000
0301
0020
0000
1030
0200
0000
0301
,
0020
0000
1030
0001
0010
0001
0100
0000
,
0020
0000
0031
0200
0000
1300
0020
0000
,
0031
0200
0000
1300
0020
0000
0130
0010
,
1000
0000
0000
0000
0001
0000
1000
0001
0000
0001
0010
0000
0001
0010
0100
0000
,
1000
0000
0001
0000
0001
0000
0100
0010
0000
0010
1000
0000
0001
0000
0000
0000
,
0022
0000
0000
0000
0000
0000
0000
0033
;

//--------------- dance-double - Talkion ----------------
#NOTEDATA:;
#STEPSTYPE:dance-double;
#DESCRIPTION:Talkion;
#DIFFICULTY:Edit;
#METER:12;
#RADARVALUES:0.466307,0.571505,0.100264,0.679567,0.111404,293,284,9,61,0,0,0,0,0,0.466307,0.571505,0.100264,0.679567,0.111404,293,284,9,61,0,0,0,0,0;
#CHARTNAME:;
#CHARTSTYLE:;
#CREDIT:;
#NOTES:
00000000
00000000
00000000
00000000
,
00000000
00000000
00000000
00000000
,
00000000
00000000
00000000
00000000
,
00000000
00000000
00000000
00000000
,
10000000
00000000
00000000
01000000
10000000
00000000
00010000
00000000
00000000
00000000
02010000
00000000
00000000
00000000
00000000
00000000
,
03001000
00000000
00000100
00000001
00000000
00000020
00000000
00000000
,
00001030
00000000
00100000
00010000
00000000
02000000
00000000
00000000
,
03001000
00000000
00000100
00000001
00000000
00000020
00000000
00000000
,
00001030
00000000
00100000
00010000
10000000
10200000
00000000
00000000
,
00310000
00000000
00000010
00001000
00000000
00000200
00000000
00000000
,
00010300
00000000
01000000
10000000
00000000
00200000
00000000
00000000
,
00310000
00000000
00000000
00000000
00000010
00000000
00001000
00000000
00000000
00000000
00000200
00000000
00000000
00000000
00000310
00000100
,
00000010
00000000
00000001
00000000
00001000
00000000
00000000
00000100
00010000
00000000
00001000
00000000
01000000
00000000
00100000
00000000
,
10000000
00000000
00010000
00000000
01000000
00001000
00010000
00000100
,
00001000
00000000
00000000
00000001
00001000
00000000
00000020
00000000
00000000
00000000
00000130
00000000
00000001
00000000
00000000
00000000
,
00002000
00000000
00000000
00023000
00000000
01030000
00010000
00000000
,
00100000
00000000
00000000
00000000
00001000
00000000
00000000
00000000
00010000
00001000
00010000
00000000
00000100
00000000
00001000
00000000
,
00000001
00000000
00001000
00000000
00000010
00010000
00001000
00100000
,
00010000
00000000
00000000
10000000
00010000
00000000
02000000
00000000
00000000
00000000
03100000
00000000
10000000
00000000
00000000
00000000
,
00020000
00000000
00000000
00032000
00000000
00000000
00003010
00000000
,
00000100
00000000
00000000
00000000
00000001
00000000
00000000
00000000
00001000
00000100
00010000
00000000
00001000
00000000
01000000
00000000
,
00200000
00300000
00022000
00033000
,
00000220
00000330
00002002
00003003
,
00020200
00030300
00202000
00303000
,
20020000
00000000
00000000
00000000
30030000
00000000
10000000
00200000
02000000
00000000
00000000
00000000
03300000
00000000
00000000
00000000
,
00001000
00000000
00010000
00000000
00000100
00000010
00000001
00000100
,
00001000
00000000
00010000
00000000
01000000
10000000
00100000
01000000
,
00020000
00000000
00000000
00000000
00030100
00000010
00001000
00000002
,
00000000
00000013
00000000
00000000
00000000
00000000
00001001
00000000
,
00000001
00000100
00002000
00000000
01003000
00100000
20000000
00000000
,
30010000
00001000
00000100
00000010
00000001
00000100
00000010
00001000
,
00000001
00000010
00002000
00000000
00103000
01000000
20000000
00000000
,
30010000
00001000
00000010
00000100
00000010
00010000
00001000
00100000
,
01000000
10000000
00020000
00000000
00031000
00000100
00000020
00000000
,
00000031
00001000
00000010
00010000
00100000
01000000
00001000
00010000
,
00000100
00000000
00000000
00000000
00000010
00000100
00000000
00000100
00001000
00000000
00000001
00000000
00001000
00000100
00010000
00000000
,
00002000
00000000
00000000
00000000
01003000
00001000
00020000
00000000
00000000
00000000
01030000
00000000
00100000
00000000
00010000
00000000
,
10000000
00100000
00020000
00000000
00030100
00000010
00002000
00000000
,
00103000
00001000
00010000
00000010
00000100
00010000
00001000
00100000
,
10000000
01000000
00020000
00000000
00030010
00000100
00002000
00000000
,
00013000
00000100
00001000
00000010
00010000
00000100
00000010
00000001
,
00000100
00000010
00020000
00000000
01030000
00100000
00002000
00000000
,
00003100
00000010
00001000
00100000
01000000
00010000
10000000
01000000
,
00100000
00000000
00010000
00000000
01000000
00001000
00000000
00001000
00010000
00000000
00000100
00000000
00001000
00000000
00000001
00000000
,
00000100
00000000
00000010
00000000
00001000
00000010
00020000
00000000
00000000
00000000
00000000
00000000
00031000
00000000
00000000
00000000
,
00200000
00000000
00301000
00000020
00000000
00000130
00020000
00000000
,
01030000
00200000
00000000
00301000
00000020
00000000
00000031
00000200
,
00000000
00010300
02000000
00000000
13000000
00020000
00000000
00031000
,
00000100
00000000
00000010
00000100
00010000
00001000
00100000
00000000
,
02000000
00000000
03001000
00000200
00000000
00000310
00020000
00000000
,
00130000
02000000
00000000
03001000
00000200
00000000
00000310
00000001
,
00001000
00000000
00000000
00000000
00000010
00000000
00010000
00001000
00000000
00001000
00100000
00000000
00010000
10000000
00100000
00000000
,
01000000
00000000
00001000
00000000
00010000
00000000
00000100
00001000
00000000
00001000
00000001
00000000
00000200
00000000
00000000
00000000
,
00000020
00000000
00000000
00000000
,
00000330
00000000
00000000
00000000
;
