#TITLE:P-qoq;
#SUBTITLE:;
#ARTIST:owl*tree;
#TITLETRANSLIT:;
#SUBTITLETRANSLIT:;
#ARTISTTRANSLIT:;
#GENRE:Future Bass;
#CREDIT:Torpak;
#BANNER:bn.png;
#BACKGROUND:bg.png;
#LYRICSPATH:;
#CDTITLE:cd.png;
#MUSIC:song.mp3;
#OFFSET:-0.843000;
#SAMPLESTART:22.750000;
#SAMPLELENGTH:24.500000;
#SELECTABLE:YES;
#BPMS:0.000000=175.000000
;
#STOPS:
;
#BGCHANGES:;
#KEYSOUNDS:;
#ATTACKS:;

//---------------dance-single - ----------------
#NOTES:
     dance-single:
     :
     Hard:
     12:
     0.540138,0.604645,0.471654,0.293817,0.015464,489.000000,428.000000,61.000000,38.000000,0.000000,0.000000,0.540138,0.604645,0.471654,0.293817,0.015464,489.000000,428.000000,61.000000,38.000000,0.000000,0.000000:
0000
0000
0000
0000
,
0000
0000
0000
0000
,
0000
0000
0000
0000
,
0000
0000
0000
0000
,
1002
0000
0103
0000
0000
0000
0100
0001
,
0000
0001
0000
0001
0000
0001
0100
0000
,
2001
0000
3100
0000
0000
0000
0100
1000
,
0000
1000
0000
0010
0000
1000
0100
0000
,
0120
1030
0120
0031
,
0210
1300
0210
0301
,
0012
1003
2010
3001
,
0102
1003
2100
3001
,
0100
0010
0100
0000
0100
0001
0100
0000
,
1000
0100
1000
0000
0010
0100
0010
0000
,
0001
0100
0001
0100
0001
1000
0001
1000
,
0010
0000
0000
1001
,
0200
0301
0200
1300
,
0001
0010
1000
0010
0001
0000
0011
0000
,
0002
0103
2000
3100
,
0001
0100
1000
0100
0000
0010
1000
0010
,
0200
0310
0020
0130
,
0001
0100
1000
0100
0001
0000
0101
0000
,
2000
3010
0002
0013
,
0100
0010
0100
1000
0000
0001
0010
0100
,
1000
0100
1000
0000
0001
0010
0001
0010
,
0000
0110
0000
0100
0000
1000
0010
1000
,
0010
0100
0010
0000
1000
0001
1000
0001
,
0000
1001
0000
1000
0000
0001
0100
0001
,
0010
0010
0000
0001
0001
0000
1000
1000
,
0000
0010
0010
0000
0001
0010
1000
0100
,
0010
0110
0000
1001
,
0000
1100
0000
1100
,
0000
1000
0100
0010
0001
0100
1000
0010
,
0001
0100
0100
0000
,
0000
0110
0000
1001
,
0000
0101
0000
0101
,
0000
0001
0010
0100
1000
0010
0001
0100
,
1000
0010
0010
0000
,
2002
0000
0000
3003
,
0000
0000
0011
0000
0000
0110
0000
0000
,
0202
0000
0000
0303
,
0000
0000
1010
0000
0000
0110
0000
0000
,
2200
0000
0000
3300
,
0000
0000
0011
0000
0000
1001
0000
0000
,
2200
0000
0000
3300
0000
0000
0000
0000
1100
0000
0101
0000
,
0022
0000
0033
0000
0001
0100
0101
0000
,
0010
0000
1000
0001
1000
0001
0010
0001
,
0000
1000
0010
0100
0010
0100
0000
0100
,
0001
0010
0010
0000
1000
0010
0010
0000
,
0000
0010
0100
0010
0100
0001
0000
1000
,
0001
0000
0010
0001
0010
0001
0100
0010
,
0000
0010
1000
0010
0100
0001
0010
0001
,
0010
0000
0000
1000
0000
0000
0010
0000
0000
0000
0000
0000
0001
0000
0000
0000
0011
0000
0000
0000
1010
0000
0000
0000
,
2200
0000
3300
0000
0010
0100
0010
0000
,
1000
1000
1010
0000
1000
1000
0010
0100
,
0000
0100
0000
0100
0010
1000
0010
1000
,
0001
0001
0011
0000
0001
0001
0010
0100
,
0000
0100
0000
0100
0010
0001
0010
0001
,
1000
1000
1100
0000
1000
1000
0100
0010
,
0000
0010
0000
0010
0001
0100
0001
0100
,
0020
0000
0000
0000
0230
0000
0000
0301
,
0000
0001
0010
0100
1000
0001
1000
0001
,
0100
0100
0000
0010
0010
0000
1000
1000
,
0000
0001
0001
0000
0010
0010
0100
0000
,
0001
0001
0000
0010
0010
0000
0100
0100
,
0000
1000
1000
0000
0010
0010
0100
0100
,
0001
0011
0010
0110
,
1000
0100
0010
0100
1000
0000
1100
0000
,
0010
0110
0010
1010
,
0001
0100
0010
0100
0001
0000
1001
0000
,
1000
1100
0100
0110
,
1000
0010
0100
0001
0100
0010
1000
0000
,
0001
0101
0100
0110
,
0001
0100
1000
0100
0000
0010
0001
0010
,
0200
0000
0301
0000
0200
0000
0310
0100
,
0000
0100
0000
0100
0000
0100
0001
1000
,
0020
0000
1030
0000
0020
0000
0130
0010
,
0000
0010
0000
0010
0000
0010
1000
0010
,
1000
1000
0000
0100
0100
0000
0010
0010
,
0000
0001
0001
0100
0001
1000
0100
0000
,
0010
0010
0000
0001
0001
0000
1000
1000
,
0000
0100
0100
0000
0010
0001
0010
1000
,
0010
0100
0010
0001
1000
0001
0100
0010
,
0000
0100
0001
0100
1000
0100
0010
1000
,
0100
0110
0000
0110
,
0000
1001
0000
0011
,
0000
0001
0010
1000
0100
0001
0010
0100
,
0010
0001
0002
0000
,
0003
0110
0000
0110
,
0000
1001
0000
1010
,
0000
0010
1000
0100
0001
0010
0100
1000
,
0100
0001
0002
0000
,
0003
0000
0000
0000
;

//---------------dance-single - ----------------
#NOTES:
     dance-single:
     :
     Beginner:
     5:
     0.216497,0.318367,0.123713,0.154641,0.000000,196.000000,180.000000,16.000000,20.000000,0.000000,0.000000,0.216497,0.318367,0.123713,0.154641,0.000000,196.000000,180.000000,16.000000,20.000000,0.000000,0.000000:
0000
0000
0000
0000
,
0000
0000
0000
0000
,
0000
0000
0000
0000
,
0000
0000
0000
0000
,
0100
0100
0000
0001
,
0000
0001
0000
0001
,
1000
1000
0000
0001
,
0000
0001
0000
0100
,
0200
0000
0000
0300
,
0200
0000
0000
0300
,
0020
0000
0000
0030
,
0020
0000
0000
0030
,
0100
0000
0100
0000
,
0010
0000
0010
0000
,
1000
0000
0001
0000
,
0000
0000
0000
1001
,
0000
0000
0000
0001
,
0000
0001
0001
0001
,
0000
1000
0000
1000
,
0000
1000
1000
1000
,
0000
0010
0000
0010
,
0000
0010
0010
0010
,
0000
0100
0000
0100
,
0000
0100
0100
0100
,
0002
0000
1000
0000
,
1000
0000
1003
0000
,
2000
0000
0010
0000
,
0010
0000
3010
0000
,
0001
0000
1001
0000
,
1000
0000
1001
0000
,
0110
0000
0100
0000
,
0100
0000
0000
0000
,
0110
0000
0010
0000
,
0010
0000
0100
0000
,
1001
0000
0001
0000
,
0001
0000
1000
0000
,
0001
0000
0001
0000
,
1000
0000
1000
0000
,
0020
0000
0000
0030
,
0000
0001
0000
0000
,
0002
0000
0000
0003
,
0000
1000
0000
0000
,
2000
0000
0000
3000
,
0000
0010
0000
0000
,
0020
0000
0000
0130
,
0100
0000
0100
0100
,
0010
0000
1000
0000
,
0000
0010
0000
1000
,
0001
0000
0100
0000
,
0000
0001
0000
0100
,
0001
0000
0010
0000
,
0000
0001
0000
0010
,
0100
0000
0000
0010
,
0110
0000
0110
0110
,
0000
0001
0000
0001
,
0000
1000
1000
1000
,
0000
1000
0000
1000
,
0000
0100
0100
0100
,
0000
0100
0000
0100
,
0000
0010
0010
0010
,
0000
0010
0000
0001
,
0000
0010
0000
1000
,
2000
0000
0000
3000
,
0002
0000
0000
0003
,
2000
0000
0000
0000
,
3002
0000
1003
1001
,
0000
0100
0000
0100
,
0000
0100
0100
0100
,
0000
0001
0000
0001
,
0000
0001
0001
0001
,
0000
1000
0000
1000
,
0000
1000
1000
1000
,
0000
0010
0000
0010
,
0000
0010
0010
0010
,
2000
0000
3020
0000
,
2030
0000
0000
3000
,
0002
0000
0023
0000
,
0032
0000
0000
0003
,
1000
1000
0000
1000
,
0000
1000
1000
1000
,
0001
0001
0000
0001
,
0000
0001
0001
0001
,
0010
0010
0000
0010
,
0000
0010
0010
0010
,
0000
0100
0000
0110
,
0000
0100
0000
0110
,
0000
1000
0000
1001
,
0000
1000
0000
1001
,
0000
0001
0000
1001
,
0000
0001
0000
1001
,
0000
0100
0000
0010
,
0000
0100
0100
0000
;
