#TITLE:Open Your Heart;
#SUBTITLE:;
#ARTIST:Morona;
#TITLETRANSLIT:;
#SUBTITLETRANSLIT:;
#ARTISTTRANSLIT:;
#CREDIT:Pika-Vix;
#BANNER:banner.PNG;
#BACKGROUND:background.PNG;
#LYRICSPATH:;
#CDTITLE:cdtitle.PNG;
#MUSIC:Open.ogg;
#OFFSET:-0.085;
#SAMPLESTART:60.300;
#SAMPLELENGTH:12.000;
#SELECTABLE:YES;
#BPMS:0.000=127.560;
#STOPS:30.000=0.470
,219.000=0.470
;
#BGCHANGES:;

//---------------dance-single - Pika-Vix----------------
#NOTES:
     dance-single:
     Pika-Vix:
     Hard:
     12:
     0.457,0.494,0.104,0.066,0.251: // measure 1
0000
0000
0000
0000
,  // measure 2
0000
0000
0000
0000
,  // measure 3
0000
0000
0000
0000
,  // measure 4
0000
0000
0000
0000
,  // measure 5
0001
0000
1000
0000
0001
0000
0000
0000
0001
0000
0000
0100
0000
0000
0010
0000
,  // measure 6
0000
0000
1000
0000
0001
0000
0000
0000
1000
0010
0000
0001
0000
0010
1000
0000
,  // measure 7
0000
0000
0001
0000
0010
0000
0000
0000
0100
0000
0000
1000
0000
0000
0010
0000
,  // measure 8
1000
0001
1000
0001
1000
0001
1000
0001
2000
0000
3000
0000
0001
1000
0010
0000
,  // measure 9
0100
0000
0000
0001
0000
0000
0100
0000
0010
0000
1000
0000
0100
1000
0010
0000
,  // measure 10
1000
0000
0000
0001
0000
0000
0100
0000
0010
0000
0100
0000
0001
1000
0100
0000
,  // measure 11
1000
0000
0000
0010
0000
0000
0100
0000
0001
0000
0010
0000
0000
0100
0010
0000
,  // measure 12
0001
0000
1000
0000
0010
0000
0100
0001
0000
0000
0000
0000
0001
1000
0010
0000
,  // measure 13
1000
0000
0000
0100
0000
0000
0010
0000
0001
0000
1000
0000
0010
1000
0010
0000
,  // measure 14
0100
0000
0000
0001
0000
0000
0010
0000
0100
0000
0010
0000
0001
1000
0001
0000
,  // measure 15
1000
0000
0000
0010
0000
0000
0100
0000
0001
0000
0100
0000
0000
0010
1000
0000
,  // measure 16
0100
0000
0010
0000
0001
0000
1000
0001
0000
0000
0000
0000
MMMM
0000
0000
0000
,  // measure 17
0001
0100
0010
0000
1000
0100
0000
0010
,  // measure 18
0000
0001
0000
1000
0000
0010
0000
0000
,  // measure 19
0010
1000
0100
0000
0010
0001
1000
0010
,  // measure 20
0000
0100
0000
0001
0000
1000
0000
0001
,  // measure 21
0100
0001
0010
1000
0000
0000
1000
0010
,  // measure 22
0000
0001
0000
1000
0000
0001
0000
0001
,  // measure 23
1000
0010
0100
0001
0100
0000
1000
0000
,  // measure 24
0100
0001
0000
0000
0001
0100
1000
0100
,  // measure 25
0010
0100
0001
0100
0000
0001
0000
1000
,  // measure 26
0001
0100
0000
0000
0010
1000
0100
0010
,  // measure 27
0000
0001
0000
0000
0000
0001
0100
1000
,  // measure 28
0000
0001
0000
0000
0001
0100
0010
1000
,  // measure 29
0001
1000
0100
0010
0000
0100
0000
1000
,  // measure 30
0100
0001
0000
0000
0100
0010
0001
1000
,  // measure 31
0000
0010
0000
0100
0000
0001
0000
0000
,  // measure 32
0000
0001
0010
0000
0100
0000
0000
0001
,  // measure 33
1000
0010
1000
0000
1100
0000
0000
1000
,  // measure 34
0100
0010
0001
0000
0101
0000
0000
1000
,  // measure 35
0010
0100
0001
0000
0010
0100
2000
0000
,  // measure 36
3001
0000
2000
0000
0000
0000
3001
1000
0001
1000
0000
0000
0001
0000
0100
0000
,  // measure 37
1000
0000
0100
0010
0000
0000
0000
0000
0110
0000
0000
0000
0000
0000
1000
0000
,  // measure 38
0010
0000
0100
0001
0000
0000
0000
0000
0011
0000
0000
0000
0000
0000
0001
0000
,  // measure 39
0010
0100
1000
0000
0010
0001
0020
0000
,  // measure 40
0000
0000
2000
0000
0000
0000
0000
0000
3030
0000
0000
0000
1000
0010
1000
0000
,  // measure 41
0001
0000
0000
0100
0000
0000
0010
0000
0100
0000
0001
0000
0010
0100
0010
0000
,  // measure 42
0100
0000
0000
0010
0000
0000
0001
0000
1000
0000
0010
0000
0100
0001
0100
0000
,  // measure 43
0001
0000
0000
0100
0000
0000
0010
0000
1000
0000
0100
0000
0000
1000
0100
0000
,  // measure 44
1000
0000
0010
0000
0100
0000
0001
0100
0000
0000
0000
0000
0001
0100
0010
0000
,  // measure 45
1000
0000
0000
0100
0000
0000
1000
0000
0001
0000
0010
0000
0100
0010
0100
0000
,  // measure 46
0010
0000
0000
0001
0000
0000
1000
0000
0010
0000
0100
0000
0001
0100
0001
0000
,  // measure 47
0100
0000
0000
0010
0000
0000
1000
0000
0100
0000
0010
0000
0000
0100
0010
0000
,  // measure 48
0001
0000
0100
0000
0010
0000
1000
0100
0000
0000
0000
0000
0010
0000
0001
0000
,  // measure 49
0010
0100
1000
0010
0110
0000
0001
1000
,  // measure 50
0010
1000
0100
0010
0011
0000
0010
0001
,  // measure 51
0010
0100
1000
0010
1010
0000
1000
0010
,  // measure 52
0100
0000
0001
0000
0010
0000
0100
0000
0110
0000
0000
0000
0010
0000
0000
0001
,  // measure 53
0000
1000
0000
0010
0000
0100
0000
0000
0110
0000
0000
0000
0010
0000
0000
1000
,  // measure 54
0000
0010
0000
0100
0000
0001
0000
0000
1001
0000
0000
0000
0001
0000
0000
0000
,  // measure 55
0010
0000
0000
0000
0100
0000
0000
0000
1000
0000
0000
0000
2002
3003
0000
0000
;

//---------------dance-single - Pika-Vix----------------
#NOTES:
     dance-single:
     Pika-Vix:
     Medium:
     8:
     0.327,0.286,0.066,0.019,0.000: // measure 1
0000
0000
0000
0000
,  // measure 2
0000
0000
0000
0000
,  // measure 3
0000
0000
0000
0000
,  // measure 4
0000
0000
0000
0000
,  // measure 5
0001
1000
0010
0000
1000
0001
0000
0100
,  // measure 6
0000
0010
1000
0000
0100
0000
0010
0001
,  // measure 7
0000
1000
0010
0000
1000
0100
0000
0010
,  // measure 8
0000
0001
1000
0010
0000
0000
1000
0001
,  // measure 9
1000
0000
0010
0000
0100
0000
0001
0100
,  // measure 10
0001
0000
0010
0000
0100
0000
1000
0010
,  // measure 11
1000
0000
0010
0000
0100
0000
0000
0001
,  // measure 12
0100
0000
0010
0000
1000
0000
1000
0100
,  // measure 13
0010
0000
0010
0000
0100
0000
1000
0010
,  // measure 14
0100
0000
0001
0000
0010
0000
0001
0010
,  // measure 15
0001
0000
0010
0000
0100
0000
1000
0010
,  // measure 16
0100
0001
0100
0000
0010
0000
1000
0000
,  // measure 17
1000
0001
1000
0000
0010
0000
0100
0000
,  // measure 18
0001
0010
0000
0000
,  // measure 19
0001
1000
0001
0000
0100
0000
0010
0000
,  // measure 20
1000
0100
0000
0000
,  // measure 21
1000
0100
1000
0000
0100
0000
0010
0000
,  // measure 22
0100
0001
0000
0000
,  // measure 23
0001
0100
0001
0000
0100
0000
0010
0000
,  // measure 24
1000
0000
0100
0000
0010
0100
0010
0000
,  // measure 25
0001
0100
0010
1000
,  // measure 26
0001
0000
1000
0000
0010
1000
0010
0000
,  // measure 27
0100
0000
0001
0000
0100
0001
0100
0000
,  // measure 28
0010
0000
1000
0000
0100
0010
0100
0000
,  // measure 29
1000
0000
0010
0000
0100
0000
0001
0100
,  // measure 30
0001
0000
0100
0000
0010
1000
0010
0000
,  // measure 31
1000
0000
0100
0000
0010
0000
0100
0010
,  // measure 32
0100
0000
1000
0010
1000
0000
0000
0001
,  // measure 33
0100
0001
0100
0000
0000
0000
0000
0010
,  // measure 34
1000
0010
1000
0000
0000
0000
0000
1000
,  // measure 35
0100
1000
0100
0000
0010
0000
0001
0000
,  // measure 36
0100
0000
0010
0000
1000
0000
0000
0001
,  // measure 37
1000
0001
1000
0000
0000
0000
0000
0010
,  // measure 38
0100
0010
0100
0000
0000
0000
0000
0001
,  // measure 39
1000
0001
1000
0000
0100
0000
0010
0000
,  // measure 40
0001
0000
1000
0000
0000
0000
0010
1000
,  // measure 41
0010
0000
0100
0000
0001
0000
0010
0001
,  // measure 42
0010
0000
0001
0000
0010
0000
0100
0010
,  // measure 43
0100
0000
0010
0000
0100
0000
1000
0010
,  // measure 44
0100
0000
0001
0000
0100
0000
0010
1000
,  // measure 45
0010
0000
0100
0000
0001
0000
0010
0100
,  // measure 46
0010
0000
0001
0000
0100
0000
0010
1000
,  // measure 47
0010
0000
1000
0000
0100
0000
0010
0100
,  // measure 48
0010
0000
0001
1000
0001
0000
0100
0000
,  // measure 49
0010
1000
1010
1000
,  // measure 50
0100
0010
0011
0010
,  // measure 51
0100
1000
1010
0100
,  // measure 52
0001
0010
0011
0001
,  // measure 53
0100
0010
1010
1000
,  // measure 54
0100
0010
0011
0001
,  // measure 55
0100
0000
0010
0000
1000
0000
2002
3003
;

//---------------dance-single - Pika-Vix----------------
#NOTES:
     dance-single:
     Pika-Vix:
     Easy:
     5:
     0.247,0.234,0.019,0.000,0.000: // measure 1
0000
0000
0000
0000
,  // measure 2
0000
0000
0000
0000
,  // measure 3
0000
0000
0000
0000
,  // measure 4
0000
0000
0000
0000
,  // measure 5
0001
1000
0001
0000
,  // measure 6
1000
0001
1000
0000
,  // measure 7
0010
0100
0010
0000
,  // measure 8
0001
1000
1001
0001
,  // measure 9
1000
0010
1000
0001
,  // measure 10
1000
0010
0100
0001
,  // measure 11
1000
0100
0010
0100
,  // measure 12
1000
0010
0100
0001
,  // measure 13
1000
0100
0010
0001
,  // measure 14
1000
0010
0100
0001
,  // measure 15
0100
0010
1000
0001
,  // measure 16
1000
0100
0010
0001
,  // measure 17
1000
1000
0010
0100
,  // measure 18
0001
0010
0000
0000
,  // measure 19
0001
0001
1000
0010
,  // measure 20
0100
0010
0000
0000
,  // measure 21
1000
1000
0100
0010
,  // measure 22
0001
0100
0000
0000
,  // measure 23
0001
0001
1000
0010
,  // measure 24
0100
0010
0010
1000
,  // measure 25
0100
0010
0001
0100
,  // measure 26
0010
0000
0010
1000
,  // measure 27
0100
0010
0000
0010
,  // measure 28
0100
1000
0000
0010
,  // measure 29
0100
0001
0100
0010
,  // measure 30
1000
0000
1000
0001
,  // measure 31
0010
0100
1000
0001
,  // measure 32
1000
0010
0100
0000
,  // measure 33
0001
0001
0000
0000
,  // measure 34
1000
1000
0000
0000
,  // measure 35
0010
0010
0100
0001
,  // measure 36
0010
0001
0000
0000
,  // measure 37
0010
0010
0000
0000
,  // measure 38
1000
1000
0000
0000
,  // measure 39
0001
0001
0100
0010
,  // measure 40
1000
0100
0010
0001
,  // measure 41
1000
0001
0100
0010
,  // measure 42
1000
0100
0010
0001
,  // measure 43
0010
0100
1000
0010
,  // measure 44
1000
0100
1000
0010
,  // measure 45
1000
0100
0010
0010
,  // measure 46
0100
1000
0010
0100
,  // measure 47
0010
1000
0001
0100
,  // measure 48
0001
0010
0100
1000
,  // measure 49
0001
1000
0010
1000
,  // measure 50
0001
1000
0100
1000
,  // measure 51
0001
1000
0010
1000
,  // measure 52
0001
1000
0100
1000
,  // measure 53
0010
0100
0001
0001
,  // measure 54
0100
0010
1000
1000
,  // measure 55
0010
0001
0100
1001
;

//---------------dance-single - Pika-Vix----------------
#NOTES:
     dance-single:
     Pika-Vix:
     Beginner:
     2:
     0.077,0.130,0.019,0.000,0.000: // measure 1
0000
0000
0000
0000
,  // measure 2
0000
0000
0000
0000
,  // measure 3
0000
0000
0000
0000
,  // measure 4
0000
0000
0000
0000
,  // measure 5
0010
0000
0000
0000
,  // measure 6
0010
0000
0000
0000
,  // measure 7
0010
0000
0000
0000
,  // measure 8
0010
0000
0110
0000
,  // measure 9
0000
0000
0000
0001
,  // measure 10
0000
0000
0000
1000
,  // measure 11
0000
0000
0000
0010
,  // measure 12
0000
0000
0000
1000
,  // measure 13
0000
0000
0000
0001
,  // measure 14
0000
0000
0000
1000
,  // measure 15
0000
0000
0000
0100
,  // measure 16
0000
0000
0000
0000
,  // measure 17
0001
0000
0000
0000
,  // measure 18
0000
0000
0000
0000
,  // measure 19
0010
0000
0000
0000
,  // measure 20
0000
0000
0000
0000
,  // measure 21
0100
0000
0000
0000
,  // measure 22
0000
0000
0000
0000
,  // measure 23
1000
0000
0000
0000
,  // measure 24
0000
0000
0000
0010
,  // measure 25
0000
0000
0000
0010
,  // measure 26
0000
0000
0000
0100
,  // measure 27
0000
0000
0000
0100
,  // measure 28
0000
0000
0000
1000
,  // measure 29
0000
0000
0000
1000
,  // measure 30
0000
0000
0000
0001
,  // measure 31
0000
0000
0000
0001
,  // measure 32
0000
0000
0000
0000
,  // measure 33
0010
0010
0000
0000
,  // measure 34
0100
0100
0000
0000
,  // measure 35
0001
0001
0000
0000
,  // measure 36
1000
1000
0000
0000
,  // measure 37
1000
1000
0000
0000
,  // measure 38
0100
0100
0000
0000
,  // measure 39
0010
0010
0000
0000
,  // measure 40
0001
0001
0000
1000
,  // measure 41
0000
0000
0000
0001
,  // measure 42
0000
0000
0000
1000
,  // measure 43
0000
0000
0000
0100
,  // measure 44
0000
0000
0000
1000
,  // measure 45
0000
0000
0000
0001
,  // measure 46
0000
0000
0000
1000
,  // measure 47
0000
0000
0000
0010
,  // measure 48
0000
0000
0000
1000
,  // measure 49
0000
0000
0000
1000
,  // measure 50
0000
0000
0000
1000
,  // measure 51
0000
0000
0000
1000
,  // measure 52
0000
0000
0000
0001
,  // measure 53
0000
0000
0000
1000
,  // measure 54
0000
0000
0000
0000
,  // measure 55
0000
0000
0000
1001
;
