#TITLE:Oom Zigga;
#SUBTITLE:;
#ARTIST:Papa Ya feat. Malcolm Anthony;
#TITLETRANSLIT:;
#SUBTITLETRANSLIT:;
#ARTISTTRANSLIT:;
#GENRE:;
#CREDIT:;
#BANNER:Oom Zigga.png;
#BACKGROUND:Oom Zigga-bg.png;
#LYRICSPATH:;
#CDTITLE:;
#MUSIC:Oom Zigga.ogg;
#OFFSET:-0.257980;
#SAMPLESTART:51.297607;
#SAMPLELENGTH:20.425529;
#SELECTABLE:YES;
#BPMS:0.000000=188.018997
;
#STOPS:253.833328=0.319000
;
#BGCHANGES:;
#KEYSOUNDS:;
#ATTACKS:;

//---------------dance-single - ----------------
#NOTES:
     dance-single:
     :
     Hard:
     13:
     0.613162,0.641700,0.534396,0.152685,0.004241,506.000000,443.000000,63.000000,18.000000,0.000000,0.000000,0.613162,0.641700,0.534396,0.152685,0.004241,506.000000,443.000000,63.000000,18.000000,0.000000,0.000000:
// measure 0
0000
0000
0000
0000
,  // measure 1
0000
0000
0000
0000
,  // measure 2
0000
0000
0000
0000
,  // measure 3
0000
0000
0000
0000
,  // measure 4
0000
0000
0000
0000
,  // measure 5
0000
0000
0000
0000
,  // measure 6
0000
0000
0000
0000
,  // measure 7
0000
0000
0000
0000
,  // measure 8
1000
0000
0100
1000
0100
0010
0001
1000
,  // measure 9
0001
0100
0010
2000
0000
0000
3001
0000
,  // measure 10
0000
0000
0100
0001
0100
0010
1000
0001
,  // measure 11
1000
0100
0010
0002
0000
0000
1003
0000
,  // measure 12
0000
0000
0100
0010
0100
1000
0001
0100
,  // measure 13
1000
0100
0001
0020
0000
0000
0130
0000
,  // measure 14
1000
0000
0100
0010
0001
0000
1000
0000
,  // measure 15
0010
0000
0000
1000
0001
0000
1001
0000
,  // measure 16
0100
0000
0001
0100
0001
0010
0100
1000
,  // measure 17
0100
0010
0001
0200
0000
0000
0310
0000
,  // measure 18
0000
0000
1000
0100
1000
0010
0100
0001
,  // measure 19
0100
0010
1000
0200
0000
0000
0310
0000
,  // measure 20
0000
0000
0100
0010
0001
1000
0010
0100
,  // measure 21
1000
0100
0001
0020
0000
0000
0130
0000
,  // measure 22
1000
0000
0001
1000
0000
0000
0100
0000
0000
0101
0000
0000
,  // measure 23
1010
0000
0000
1000
0001
0000
0100
0000
,  // measure 24
0110
0000
0010
0100
0001
0000
0101
0000
,  // measure 25
0001
0100
0010
0000
1100
0000
0010
0000
,  // measure 26
0101
0000
0001
0010
0100
0000
0011
0000
,  // measure 27
0010
0100
1000
0000
1010
0000
0100
0000
,  // measure 28
1001
0000
0001
1000
0100
0000
0011
0000
,  // measure 29
1000
0101
1010
0100
,  // measure 30
1001
0000
1000
0001
0100
0000
1100
0000
,  // measure 31
0010
0000
1000
0001
0010
0000
0100
0000
,  // measure 32
0110
0000
0010
0100
1000
0000
1100
0000
,  // measure 33
1000
0100
0010
0000
0101
0000
0010
0000
,  // measure 34
1100
0000
1000
0010
0100
0000
1010
0000
,  // measure 35
0010
0100
0001
0000
0011
0000
0100
0000
,  // measure 36
1001
0000
1000
0001
0100
0000
1010
0000
,  // measure 37
0001
1100
0011
0100
,  // measure 38
1001
0000
0100
0001
1000
0000
0010
0000
,  // measure 39
1000
0100
1000
0001
0010
0100
1000
0000
,  // measure 40
1100
0000
0100
1000
0001
0000
0001
1000
,  // measure 41
0100
0101
1200
0310
,  // measure 42
0110
0000
0010
0100
1000
0000
1000
0100
,  // measure 43
0010
0011
2001
3100
,  // measure 44
0110
0000
0100
0010
0001
0000
0001
0010
,  // measure 45
0100
1100
0201
0310
,  // measure 46
0110
0000
0010
1000
0001
0000
0001
1000
,  // measure 47
0010
0000
1010
0000
0010
1000
1000
1000
,  // measure 48
0001
0000
0100
1000
0100
0001
1000
0000
,  // measure 49
0100
0001
0100
0000
1001
0000
0000
0000
,  // measure 50
1000
0000
0100
0001
0100
1000
0001
0000
,  // measure 51
0100
1000
0100
0000
1001
0000
0000
0000
,  // measure 52
0101
0000
0100
0010
1000
0000
1000
0010
,  // measure 53
0100
0110
0102
0013
,  // measure 54
0110
0000
0100
1000
0001
0000
0001
1000
,  // measure 55
0100
0000
0110
0000
0010
0100
0010
0100
,  // measure 56
1000
0010
0100
0001
1000
0010
0100
0001
,  // measure 57
0010
0000
0000
0100
0010
0100
0010
0000
,  // measure 58
0001
0010
0100
1000
0001
0010
0100
1000
,  // measure 59
0010
0000
0000
0000
1000
0001
1000
0000
,  // measure 60
0010
0000
1000
0010
0100
0010
0001
1000
,  // measure 61
0100
0000
0000
0000
0001
1000
0001
1000
,  // measure 62
0010
1000
0001
0010
0100
0010
1000
0001
,  // measure 63
0100
0000
1000
0000
0000
0000
0001
0100
,  // measure 64
0010
1000
0100
0010
0001
0100
0010
1000
,  // measure 65
0100
0010
0001
0010
0100
0010
0100
1000
,  // measure 66
0100
1000
0010
0100
0001
0010
0001
0010
,  // measure 67
0100
0010
0001
0100
0010
1000
0010
0100
,  // measure 68
0001
0010
0100
0010
0001
0100
0010
1000
,  // measure 69
0010
0100
0010
1000
0010
0100
0010
1000
,  // measure 70
0010
0100
0001
0010
0100
1000
0010
1000
,  // measure 71
0100
0010
0000
0000
0001
0000
1001
0000
,  // measure 72
0001
0100
1000
0000
1000
0100
0001
0000
,  // measure 73
0011
2100
3001
1001
,  // measure 74
1000
0010
0001
0000
0001
0010
1000
0000
,  // measure 75
2020
3030
0000
0000
1001
0000
0000
0000
0022
0033
0000
0000
0110
0000
0000
0000
,  // measure 76
0100
1000
0010
0000
0010
1000
0100
0000
,  // measure 77
1010
0012
1003
1100
,  // measure 78
1000
0010
0001
0000
0001
0010
1000
0000
,  // measure 79
0011
0000
1000
0001
0001
0001
0010
0000
,  // measure 80
0100
0001
0100
1000
0010
0000
0001
0010
,  // measure 81
1000
1010
0000
0010
,  // measure 82
0100
1000
0100
0001
0010
0000
1000
0010
,  // measure 83
0001
0011
0100
1010
,  // measure 84
1000
0010
0001
0000
0001
0010
1000
0000
,  // measure 85
0011
2100
3010
0101
,  // measure 86
0001
0100
1000
0000
1000
0100
0001
0000
,  // measure 87
0011
0000
0001
1000
1000
2000
0000
0000
,  // measure 88
0000
0000
0000
0000
,  // measure 89
3000
0000
0000
0000
;

//---------------dance-single - ----------------
#NOTES:
     dance-single:
     :
     Medium:
     11:
     0.437454,0.489333,0.093307,0.050895,0.000000,361.000000,350.000000,11.000000,6.000000,0.000000,0.000000,0.437454,0.489333,0.093307,0.050895,0.000000,361.000000,350.000000,11.000000,6.000000,0.000000,0.000000:
0000
0000
0000
0000
,
0000
0000
0000
0000
,
0000
0000
0000
0000
,
0000
0000
0000
0000
,
0000
0000
0000
0000
,
0000
0000
0000
0000
,
0000
0000
0000
0000
,
0000
0000
0000
0000
,
0000
0000
1000
0100
1000
0000
0100
0000
,
0010
0000
0000
0001
0000
0000
0001
0000
,
1000
0000
0001
0100
0001
0000
0100
0000
,
0010
0000
0000
1000
0000
0000
1000
0000
,
0001
0000
0010
0100
0010
0000
0001
0000
,
1000
0000
0000
0010
0000
0000
0100
0000
,
0001
1000
0100
1000
,
0001
0000
0000
1000
0010
0000
0010
0000
,
1000
0000
0001
0010
0001
0000
0010
0000
,
0100
0000
0000
1000
0000
0000
1000
0000
,
0001
0000
1000
0010
1000
0000
0010
0000
,
0100
0000
0000
0001
0000
0000
0001
0000
,
1000
0000
0100
0010
0100
0000
1000
0000
,
0001
0000
0000
0100
0000
0000
0010
0000
,
1000
0100
0010
0001
,
1001
0000
0000
1000
0010
0000
1000
0000
,
0001
0000
0001
1000
0000
0000
0010
0000
,
0010
1000
0010
0000
0100
0000
0001
0000
,
1000
0000
1000
0001
0000
0000
0010
0000
,
0010
0001
0010
0000
0100
0000
1000
0000
,
0010
0000
0010
0100
0000
0000
0010
0000
,
0000
0010
1000
0001
,
0010
0000
0010
0100
0000
0000
0100
0000
,
0000
0000
0100
1000
0001
0000
0100
0000
,
0010
0000
0010
1000
0000
0000
0001
0000
,
0001
1000
0001
0000
0010
0000
0100
0000
,
0010
0000
0010
0001
0000
0000
1000
0000
,
1000
0001
1000
0000
0010
0000
0100
0000
,
0001
0000
0001
0010
0000
0000
0100
0000
,
0000
0100
1000
0010
,
1000
0000
1000
0010
0000
0000
1000
0000
,
0100
0000
0010
0000
0001
1000
0001
0000
,
1001
0000
0001
1000
0001
0000
0001
1000
,
0010
0010
2000
3010
,
1000
0000
1000
0001
1000
0000
1000
0001
,
0100
0100
0002
1003
,
0001
0000
0001
1000
0001
0000
0001
1000
,
0100
0100
0020
0031
,
1000
0000
1000
0001
1000
0000
1000
0001
,
0010
0000
0010
0000
0100
0010
0100
0010
,
0100
0000
0000
0011
0000
0000
0100
0000
,
2000
0010
3001
0000
,
0100
0000
0000
1010
0000
0000
0100
0000
,
0002
0010
1003
0000
,
0010
0000
1000
0010
1000
0000
0010
1000
,
0010
0010
0100
0001
,
0010
0000
0001
0010
0001
0000
0010
0001
,
0010
0100
1000
0001
,
0010
0000
0001
0000
1000
0000
1000
0001
,
0000
0000
0000
0001
0100
0000
0010
0000
,
1000
0000
0001
0000
1000
0000
1000
0010
,
0000
0000
0010
1000
,
0001
0000
0010
0000
0100
0000
0100
1000
,
0000
0000
0000
0000
0001
1000
0001
0000
,
0100
0010
1000
0100
,
0110
0110
0000
1000
,
0001
1000
0001
0000
1000
0001
1000
0000
,
0010
0001
0010
1000
,
0001
1000
0001
0000
1000
0001
1000
0000
,
0100
0001
0100
1000
,
0001
0010
0001
0000
1000
0010
1000
0000
,
0001
0010
0100
1000
,
0001
1000
0100
0010
,
0010
0100
0000
0100
1000
0000
1001
0000
,
0001
0100
0001
0000
1000
0100
1000
0000
,
0001
0010
0001
1000
,
0010
1000
0010
0000
0100
0001
0100
0000
,
0001
0010
0100
1000
,
0001
0010
0001
0000
1000
0010
1000
0000
,
0100
0010
0001
1000
,
0100
1000
0100
0000
0010
0001
0010
0000
,
0100
0000
0010
0100
0010
0100
0010
0000
,
0000
0110
0000
0000
1000
0000
0001
1000
,
0001
1001
0000
0100
,
0000
0110
0000
0000
0010
0000
1000
0001
,
1000
1001
0000
0010
,
0100
0010
0100
0000
0010
0100
0010
0000
,
0010
1000
0001
0010
,
0100
0010
0100
0000
0010
0001
1000
0000
,
0001
0000
1000
0100
0010
0002
0000
0000
,
0000
0000
0000
0003
;

//---------------dance-single - ----------------
#NOTES:
     dance-single:
     :
     Easy:
     7:
     0.318699,0.371639,0.093307,0.033930,0.000000,263.000000,252.000000,11.000000,4.000000,0.000000,0.000000,0.318699,0.371639,0.093307,0.033930,0.000000,263.000000,252.000000,11.000000,4.000000,0.000000,0.000000:
0000
0000
0000
0000
,
0000
0000
0000
0000
,
0000
0000
0000
0000
,
0000
0000
0000
0000
,
0000
0000
0000
0000
,
0000
0000
0000
0000
,
0000
0000
0000
0000
,
0000
0000
0000
0000
,
0010
1000
0010
0000
,
1000
0000
0000
0001
0000
0000
0001
0000
,
0010
0001
0010
0000
,
0001
0000
0000
1000
0000
0000
1000
0000
,
0100
1000
0100
0000
,
1000
0000
0000
0001
0000
0000
0001
0000
,
0100
0001
0100
0001
,
1000
0000
0010
0010
,
1000
0100
0010
0000
,
0001
0000
0000
0001
0000
0000
1000
0000
,
0001
0100
0010
0000
,
1000
0000
0000
0001
0000
0000
0001
0000
,
1000
0010
0100
0000
,
0001
0000
0000
0010
0000
0000
0001
0000
,
1000
0000
0010
0010
,
0010
0000
1000
0100
,
0010
0000
0000
0010
0000
0000
0001
0000
,
0001
1000
1000
0001
,
0100
0000
0000
0100
0000
0000
0010
0000
,
0010
0100
0010
1000
,
0001
0000
0000
1000
0000
0000
1001
0000
,
0000
0000
0010
0100
,
0010
0000
0000
0001
0000
0000
1001
0000
,
0000
0000
1000
0010
,
1000
0000
0000
1000
0000
0000
0010
0000
,
0010
0100
0001
0100
,
0001
0000
0000
0001
0000
0000
0010
0000
,
0010
0100
1000
0100
,
1000
0000
0000
0001
0000
0000
0011
0000
,
0000
0001
0010
0100
,
1000
0000
0000
0010
0000
0000
1010
0000
,
0000
0100
1001
0000
,
1000
0001
1000
0001
,
0010
0010
0010
0000
,
0001
1000
0001
1000
,
0100
0100
0100
0000
,
0010
0001
0010
0001
,
0100
0100
0100
0000
,
0010
1000
0010
1000
,
0100
0100
0100
0000
,
0020
0000
0000
0001
0000
0000
0130
0000
,
1000
0001
0001
0000
,
0200
0000
0000
0010
0000
0000
0301
0000
,
1000
0010
0010
0000
,
1000
0100
1000
0100
,
0010
0010
0010
0000
,
0001
0100
0001
0100
,
0010
0010
0010
0000
,
1000
0000
0001
0010
,
0010
0000
0001
0000
,
1000
0000
0001
0100
,
0100
0000
0001
1000
,
0001
0000
1000
0010
,
0010
0000
1000
0000
,
0001
0000
1000
0100
,
0100
0000
0000
0010
,
0001
0010
0001
1000
,
0001
1000
0001
1000
,
0100
1000
0100
1000
,
0010
1000
0010
0100
,
0010
0100
0010
0100
,
0001
0100
0001
1000
,
0001
1000
0001
0010
,
0000
0000
0000
1001
,
0000
0001
0000
0010
,
0010
0011
0000
0100
,
0000
0100
0000
1000
,
1000
1100
0000
1000
,
0010
1000
0000
0001
,
0001
0101
0000
0010
,
0001
0010
0000
0100
,
0100
1100
0000
2000
,
0000
0001
0000
0000
3010
0000
0100
0000
,
0001
0001
0000
0002
,
0000
0010
0000
0000
1003
0000
0100
0000
,
0010
0010
0000
0001
,
0100
1000
0100
0001
,
1000
1001
0000
1000
,
0100
0001
0100
1000
,
0001
0000
1000
0001
1000
0001
0000
0000
;

//---------------dance-single - ----------------
#NOTES:
     dance-single:
     :
     Beginner:
     4:
     0.197521,0.260518,0.025447,0.000000,0.000000,163.000000,160.000000,3.000000,0.000000,0.000000,0.000000,0.197521,0.260518,0.025447,0.000000,0.000000,163.000000,160.000000,3.000000,0.000000,0.000000,0.000000:
0000
0000
0000
0000
,
0000
0000
0000
0000
,
0000
0000
0000
0000
,
0000
0000
0000
0000
,
0000
0000
0000
0000
,
0000
0000
0000
0000
,
0000
0000
0000
0000
,
0000
0000
0000
0000
,
1000
0000
0001
0000
,
0010
0000
0000
0000
,
0001
0000
0100
0000
,
1000
0000
0000
0000
,
0001
0000
1000
0000
,
0010
0000
0000
0000
,
1000
0000
0100
0000
,
0001
0000
0010
0010
,
0010
0000
0100
0000
,
0010
0000
0000
0000
,
0001
0000
1000
0000
,
0001
0000
0000
0000
,
0100
0000
0010
0000
,
0100
0000
0000
0000
,
0010
0000
1000
1000
,
1000
0000
0001
0000
,
1001
0000
0001
0000
,
0000
0000
0010
0000
,
0100
0000
0010
0000
,
0000
0000
0010
0000
,
1000
0000
0010
0000
,
0000
0000
0001
0000
,
1000
0000
0001
0000
,
0000
0000
0100
0100
,
0100
0000
0010
0000
,
0000
0000
0010
0000
,
1000
0000
0010
0000
,
0000
0000
0010
0000
,
0001
0000
0010
0000
,
0000
0000
1000
0000
,
0001
0000
1000
0000
,
0000
0000
0000
0000
,
1001
0000
1000
0000
,
0010
0010
0010
0000
,
1000
0000
0001
0000
,
0010
0010
0010
0000
,
0001
0000
1000
0000
,
0100
0100
0100
0000
,
1000
0000
0001
0000
,
0100
0100
0100
0000
,
0010
0000
0010
0000
,
0010
0100
0100
0000
,
0100
0000
0100
0000
,
0100
0010
0010
0000
,
1000
0000
0001
0000
,
0010
0010
0010
0000
,
0001
0000
1000
0000
,
0010
0010
0010
0000
,
1000
0000
0001
0000
,
0001
0000
0000
0000
,
0001
0000
0010
0000
,
0010
0000
0000
0000
,
0010
0000
0100
0000
,
0100
0000
0000
0000
,
0100
0000
1000
0000
,
1000
0000
0000
0001
,
0000
1000
0000
0010
,
0000
1000
0000
0100
,
0000
0010
0000
0001
,
0000
0100
0000
0010
,
0000
1000
0000
0001
,
0000
0010
0000
0100
,
0000
1000
0000
0001
,
0000
0000
0000
1001
,
0000
0001
0000
0010
,
0010
0010
0000
0100
,
0000
1000
0000
0100
,
0100
0100
0000
1000
,
0000
0010
0000
1000
,
1000
1000
0000
0001
,
0000
0100
0000
0001
,
0001
0001
0000
1000
,
0000
0010
0000
1000
,
0001
0001
0000
0010
,
0000
0001
0000
0010
,
0100
0100
0000
0000
,
1000
0000
0001
0000
,
1000
1000
0001
0000
,
0010
0000
0100
0000
,
0010
0010
0010
0010
;
