#TITLE:お願いマッスル;
#SUBTITLE:;
#ARTIST:ファイルーズあい & 石川界人;
#TITLETRANSLIT:Onegai Muscle;
#SUBTITLETRANSLIT:;
#ARTISTTRANSLIT:Fairuz Ai & Ishikawa Kaito;
#GENRE:Anime;
#CREDIT:loodee;
#BANNER:bn.png;
#BACKGROUND:bg.png;
#LYRICSPATH:;
#CDTITLE:loodeecdtitle.png;
#MUSIC:music.ogg;
#OFFSET:0.448000;
#SAMPLESTART:1.370000;
#SAMPLELENGTH:29.084000;
#SELECTABLE:YES;
#BPMS:0.000000=132.000000
;
#STOPS:
;
#BGCHANGES:;
#KEYSOUNDS:;
#ATTACKS:;

//---------------dance-single - loodee----------------
#NOTES:
     dance-single:
     loodee:
     Challenge:
     16:
     0.856408,0.840174,0.464069,0.433638,0.882492,788.000000,725.000000,61.000000,57.000000,6.000000,3.000000,0.856408,0.840174,0.464069,0.433638,0.882492,788.000000,725.000000,61.000000,57.000000,6.000000,3.000000:
// measure 0
0000
0000
0000
0000
,  // measure 1
1010
0000
1000
0000
0100
0010
0100
1000
0010
0000
0100
0000
0001
0000
0020
0000
,  // measure 2
0130
0000
0010
0000
0001
0000
0100
0010
2000
0000
3200
0000
0320
0000
0130
0000
,  // measure 3
1000
0000
0001
0000
0100
0010
0100
0001
0010
0000
0100
0000
1000
0000
0002
0000
,  // measure 4
0103
0000
0001
0000
0010
0000
0100
0000
0002
0000
0000
0003
0101
0000
0100
1000
,  // measure 5
0010
0000
0100
0000
0001
0010
0100
1000
0010
0000
0100
0000
0010
0000
2000
0000
,  // measure 6
3001
0000
1000
0000
0100
0000
0010
0100
1000
0000
1000
0010
0200
0000
0301
0000
,  // measure 7
0011
0M00
0010
1000
0001
0010
0100
0000
1100
00M0
0100
0001
1000
0100
0010
0000
,  // measure 8
2000
0000
0000
3020
0000
0031
1000
0000
1001
0000
0001
1000
0100
0010
0001
0000
,  // measure 9
0101
0000
0100
0000
0001
1000
0001
0000
0020
0000
0130
1000
0001
0000
0010
0000
,  // measure 10
0011
0000
0001
0000
1000
0010
0100
0010
0002
0000
0023
0000
1030
0000
0001
0000
,  // measure 11
0011
0000
0010
0100
1000
0000
0010
0000
0110
0000
0101
0000
1001
0000
1000
0000
,  // measure 12
0100
0010
0000
0010
0100
0000
1000
0000
0010
0100
0001
0000
0011
0000
0010
0100
,  // measure 13
1100
0000
1000
0000
0001
0100
0001
0000
1001
0000
1000
0100
0010
0000
0100
0010
,  // measure 14
1000
0010
0001
1000
0010
0100
0001
1000
0010
0100
0001
0010
0100
0000
0010
0000
,  // measure 15
0001
1000
0010
0000
0010
1000
0100
0000
1000
0001
0100
0000
0100
0001
0010
0000
,  // measure 16
0100
0000
0100
1000
0001
1000
0010
1000
0100
0000
0100
0010
0001
1000
0010
0100
,  // measure 17
0001
1000
0000
1000
0100
0010
0000
0010
0100
1000
0001
0100
0010
0000
0010
1000
,  // measure 18
0010
0001
0010
0100
0001
1000
0100
0010
0100
0000
1100
0000
1010
0000
1001
0001
,  // measure 19
0010
0100
0010
0001
1000
0000
0010
0100
0001
0000
0001
1000
0010
1000
0100
1000
,  // measure 20
0010
0000
0010
0100
0001
0000
0001
1000
0100
0000
0110
0000
0011
0000
0101
0000
,  // measure 21
1010
0010
0100
0001
1000
0000
1000
0100
0010
0001
0000
0001
0100
0000
0100
0010
,  // measure 22
0100
1000
0100
0010
1000
0001
0001
0010
0100
0000
1100
0000
1010
0000
1001
0000
,  // measure 23
0001
0000
0110
0000
1000
0000
0110
0000
0001
0001
1000
1000
0010
0000
1001
0000
,  // measure 24
1100
0000
1000
0000
0101
0000
0001
1000
0100
0000
0010
0100
0000
0010
0100
0010
,  // measure 25
0001
0000
0001
0000
0100
0001
0000
0000
0101
0000
0001
0000
1000
0000
0100
0000
,  // measure 26
0010
0000
0010
0000
0100
0010
0000
0000
0210
0000
0000
2300
0000
0000
3001
0100
,  // measure 27
0010
0000
0010
0000
1000
0010
0000
0000
1010
0000
1000
0000
0100
0000
0010
0000
,  // measure 28
2000
0000
0000
0000
3002
0000
0000
0000
0203
0000
0000
0000
1300
0001
0100
0000
,  // measure 29
1010
0000
0010
0000
1000
0010
0000
0000
0110
0000
0100
0000
0001
0000
0010
0000
,  // measure 30
0100
0000
0100
0000
1000
0100
0000
0000
2100
0000
0000
3002
0103
0010
0100
0001
,  // measure 31
2000
0000
0000
0000
0200
0000
0000
0000
0020
0000
0000
0000
0002
0000
0000
3333
,  // measure 32
1111
0000
0000
0000
0000
0000
0000
0000
0000
0000
0000
0000
0000
0000
0000
0001
0000
0000
0001
1000
0010
0100
0001
0010
,  // measure 33
0100
0000
0010
0000
0001
1000
0010
1000
0100
0000
0010
0000
0001
0000
0200
0000
,  // measure 34
0010
0000
1000
0000
0010
0000
0310
1000
0002
0000
0023
0000
0230
0000
0310
0000
,  // measure 35
0001
0000
1000
0000
0001
0100
0010
1000
0100
0000
0010
0000
0001
0000
0020
0000
,  // measure 36
0100
0000
0100
0000
0031
0000
0100
0000
2000
0000
0000
3000
1100
0000
0100
0010
,  // measure 37
1000
0000
0001
0000
0010
0100
0010
0001
0100
0000
0010
0000
1000
0000
0200
0000
,  // measure 38
0010
0000
0001
0000
0010
0000
0310
0100
1000
0000
1000
0010
0100
0000
0001
0000
,  // measure 39
0101
00M0
0100
1000
0001
0100
0010
0000
1010
0M00
0010
0001
0010
0100
0010
0000
,  // measure 40
2000
0000
0000
3020
0000
0031
1000
0000
0010
0000
0001
0010
0100
0001
1000
0000
,  // measure 41
2200
0000
0000
0000
0000
0000
0000
0000
3300
0000
0010
0001
1000
0000
1000
0100
,  // measure 42
0010
0001
0100
0001
1000
0100
0000
0100
0010
0100
1000
0001
0100
0010
0100
0001
,  // measure 43
1000
0100
1000
0000
0001
0100
0010
0010
1000
0000
0100
0010
0000
0100
1000
0000
,  // measure 44
0010
0000
0100
0001
1000
1000
0100
0010
0001
0100
0010
1000
0001
0010
0100
0000
,  // measure 45
0010
0001
0000
0100
0001
1000
0010
0100
0001
0100
0010
0010
1000
0000
0100
0010
,  // measure 46
0001
0000
0100
0000
2000
0000
3100
0010
0100
0000
0001
1000
0100
0000
0010
0000
,  // measure 47
0100
0010
0001
0000
0011
0000
1001
0000
1000
0010
0100
0000
0101
0001
1000
0000
,  // measure 48
0100
0000
0000
0010
0001
0200
0000
0310
1000
0000
1100
0000
1001
0000
0000
0000
,  // measure 49
0001
0000
0001
0010
1000
0000
1000
0010
0001
0000
0001
0100
1000
0000
1000
0100
,  // measure 50
0010
0000
1000
0100
0010
0000
0010
0001
0100
0000
2000
0000
3100
0010
1000
0000
,  // measure 51
0001
0000
0010
0001
1000
0000
1000
0100
0010
0000
1000
0010
0002
0000
1003
0000
,  // measure 52
1010
0000
0101
0000
0011
0000
0110
0000
0100
1000
0010
1000
0001
1000
0100
1000
,  // measure 53
2002
0000
0000
0000
0000
0000
0000
3003
,  // measure 54
0001
0000
0001
0000
0100
0010
0100
0010
2000
0000
3002
0000
0013
0000
0200
0000
,  // measure 55
0000
0000
0000
2300
0000
0000
0000
0000
0000
0000
0000
0000
3001
0000
0000
0100
0000
0000
0010
0000
0000
0100
0000
0000
1000
0000
0000
0000
0000
0000
1000
0000
0000
0100
0000
0000
0010
0000
0100
0000
0001
0000
1000
0000
0100
0000
0010
0000
,  // measure 56
0001
0000
0010
0000
1000
0010
1000
0010
0100
0000
1000
0000
0001
0000
0200
0000
,  // measure 57
0310
0000
1000
0000
0001
0000
0010
0000
2000
0000
0000
3000
1010
0000
0010
0100
,  // measure 58
1000
0000
0010
0000
0001
0010
0001
0010
0100
0000
0001
0000
1000
0000
0200
0000
,  // measure 59
0310
0000
0100
0000
1000
0000
0010
0100
0001
0000
0001
0010
0100
0000
1000
0000
,  // measure 60
1010
000M
0010
0100
1000
0010
0100
0000
0101
M000
0100
0010
0001
1000
0010
0000
,  // measure 61
0002
0000
0000
0023
0000
0130
0001
0000
1001
0000
1000
0100
0010
0100
0000
0000
,  // measure 62
2000
0000
0000
0000
0000
0000
0000
0000
0000
0000
0000
0000
0000
0000
0000
0001
3100
0000
0001
0000
0010
0000
0000
0000
0010
0000
1000
0000
0010
0000
0100
0000
,  // measure 63
1000
0000
0010
0100
0001
0000
0010
0000
0200
0000
0310
0001
0100
0000
0010
0000
,  // measure 64
1010
0000
1000
0000
0001
1000
0100
0010
0001
0100
0000
1000
0200
0000
0310
0000
,  // measure 65
1000
0000
1000
0100
0010
0000
0100
0000
1100
0000
1010
0000
1001
0000
0001
0000
,  // measure 66
0100
0010
1000
0000
0100
0010
0000
0010
0100
0000
0100
0001
0100
1000
0100
0010
,  // measure 67
0011
0000
0001
0200
0000
0310
0000
0000
1010
0000
1000
0100
0010
0000
0100
0000
,  // measure 68
1000
0001
1000
0010
0100
2000
0000
3100
0001
0010
0000
0010
0100
0000
1000
0000
,  // measure 69
0001
0100
0010
0000
0010
1000
0100
0000
0010
0001
0100
0000
0100
0001
0010
0000
,  // measure 70
0100
0000
0100
1000
0001
0100
0010
1000
0100
0000
0001
1000
0010
0100
1000
0001
,  // measure 71
2002
3003
0000
0000
;

//---------------dance-single - loodee----------------
#NOTES:
     dance-single:
     loodee:
     Hard:
     13:
     0.561882,0.569150,0.296700,0.639046,0.266269,517.000000,477.000000,39.000000,84.000000,0.000000,7.000000,0.561882,0.569150,0.296700,0.639046,0.266269,517.000000,477.000000,39.000000,84.000000,0.000000,7.000000:
0000
0000
0000
0000
,
1001
0000
0000
0000
1000
0001
1000
0000
0100
0000
0100
0000
0000
0000
1000
0000
,
0000
0010
0100
0010
0002
0000
0000
0000
,
0013
0000
0000
0000
1000
0001
1000
0000
0100
0000
0100
0000
0000
0000
0010
0000
,
0000
0001
1000
0100
0002
0000
0203
1300
,
0010
0000
0000
0000
1000
0010
1000
0000
0001
0000
0001
0000
0000
0000
1000
0000
,
0000
0001
0010
0100
0020
0000
0130
1000
,
2002
3013
2002
3103
,
0021
0000
0000
0230
0000
0000
1300
0000
0010
0000
0010
0000
0200
0000
0000
0300
,
0001
0000
0001
1000
0000
0000
0001
0000
0020
0000
0130
1000
0000
0000
1000
0000
,
0001
0000
0100
0000
0010
1000
0010
1000
0020
0000
0230
0000
0301
0000
0000
0000
,
0010
0010
0022
0033
1010
1001
2002
3003
,
1000
0100
0000
0100
0010
0000
0100
0000
1000
0001
1000
0000
0001
0000
0000
0000
,
0002
0000
0103
0001
0000
0000
0001
0000
0020
0000
0130
0010
0000
0000
0010
0000
,
0001
0000
0001
0000
0010
0000
0010
0000
0001
1000
0000
1000
0001
0000
0100
0000
,
0010
0010
0100
1000
0100
0100
0010
1000
,
0100
0000
0100
0000
0010
0000
0010
0000
0100
0000
0100
1000
0001
1000
0001
1000
,
0002
0000
0000
0000
0103
0000
0000
0000
0010
1000
0010
0000
0100
0000
0100
0000
,
0001
0010
1000
0010
0002
1000
1003
0000
,
1000
0001
1000
0001
1000
0000
0000
0000
0100
0000
0000
0000
0010
0001
0010
0001
,
0010
0100
0001
0100
2000
0001
3001
0000
,
0010
0100
0010
0000
0001
0000
0001
0000
1000
0000
0000
0000
1000
0000
0010
0000
,
0100
0001
0100
0001
0100
0000
0010
0000
2000
0000
0001
0000
3001
0000
0000
0000
,
0010
0010
0100
0100
0001
0001
1000
0010
,
0001
0000
0000
0000
1001
0000
0000
0000
1001
0000
0220
0000
0000
0330
0000
0000
,
1000
0000
1000
0000
0001
1000
0000
0000
1100
0000
0000
0000
0100
0000
0010
0000
,
0001
0000
0001
0000
0010
0001
0000
0000
2001
0000
0000
0000
0000
0000
0000
0000
,
3010
0000
0010
0000
0100
0010
0000
0000
0101
0000
0000
0000
0001
0000
0100
0000
,
2000
3002
0023
2030
,
3100
0000
0100
0000
0010
0100
0000
0000
1100
0000
0000
0000
1000
0000
0001
0000
,
0100
0000
0100
0000
0001
0100
0000
0000
0120
0000
0000
0000
0000
0000
0000
0000
,
2030
0000
0000
0000
0002
0000
0000
3000
2000
0000
0000
0003
0002
0000
0000
3003
,
1011
0000
0000
0000
0000
0001
1000
0000
,
1001
0000
0000
0000
0001
0100
0001
0000
1000
0000
1000
0000
0000
0000
0010
0000
,
0000
1000
0100
0010
2000
0000
0000
0000
,
3010
0000
0000
0000
0001
0010
0001
0000
1000
0000
1000
0000
0000
0000
0010
0000
,
0000
0100
1000
0100
0002
0000
2003
3100
,
0010
0000
0000
0000
0100
1000
0100
0000
0010
0000
0010
0000
0000
0000
0001
0000
,
0000
0100
0010
1000
0002
0000
0013
0100
,
2200
3301
0202
1303
,
2001
0000
0000
3200
0000
0000
0310
0000
0001
0000
0001
0000
0020
0000
0030
0000
,
2002
0000
3003
0000
,
1000
0000
1000
0000
1000
0000
1000
0000
0010
0000
1000
0000
0001
0010
0001
0010
,
0100
0000
0000
0000
1001
0000
0001
0000
0020
0000
0000
0031
0000
0000
0011
0000
,
0000
0000
0001
0000
1000
0001
0000
0000
0100
0000
0000
0100
0010
0000
1000
0000
,
0001
0000
0000
0000
0011
0000
0001
0000
2000
0000
0000
3010
0000
0000
1010
0000
,
1000
0100
0100
0010
2000
3001
0200
1300
,
0001
0000
0000
0000
0101
0000
0100
0000
0020
0000
0000
1030
0000
0000
1010
0000
,
0000
0000
1000
0000
0001
1000
0000
0000
0100
0000
0000
0100
0010
0000
0001
0000
,
0100
0000
0000
0000
0110
0000
0010
0000
2000
0000
0000
3001
0000
0000
0010
0000
,
0200
1300
0200
0310
0200
1300
0010
0100
,
0020
1030
0020
0130
0020
1030
0020
0130
,
1000
0100
0001
0100
1000
0100
0001
1000
,
0200
0000
0000
0000
0000
0000
0000
0000
0000
0000
0000
0000
0000
0000
0000
0300
,
0110
0000
0000
0000
0001
1000
0001
0000
0100
0000
0100
0000
0000
0000
0010
0000
,
0000
0000
1000
0000
0010
0000
1000
0001
1000
0000
0100
0010
0100
0000
0000
0000
,
1100
0000
0000
0000
1000
0001
1000
0000
0010
0000
0010
0000
0100
0000
0001
0000
,
0010
0100
1000
0100
0002
0000
0103
0010
,
0001
0000
0000
0000
0100
0010
0100
0000
0001
0000
0001
0000
0010
0000
0100
0000
,
0010
0001
0100
0010
2000
0000
3001
1000
,
2200
3301
0202
1303
,
1200
0000
0000
0320
0000
0000
0130
0000
1000
0000
1000
0000
0020
0000
0000
0000
,
0032
0000
0000
0000
0000
0000
0000
0000
0013
0000
0000
1000
0001
0010
0001
0010
,
0100
0000
1000
0100
0000
0000
1000
0000
0020
0000
0130
0010
0000
0000
0100
0000
,
0001
0000
0010
0000
0001
1000
0001
0000
0100
0010
0000
0010
2000
0000
0000
0000
,
3100
0100
2002
3003
0110
0110
2002
3003
,
0001
0100
0001
0000
1000
0100
0000
0100
1000
0000
0100
0000
0010
0000
0001
0000
,
0010
0000
0100
0020
0000
0030
0001
0000
0100
0000
0010
1000
0020
0000
0030
0000
,
1000
0001
1000
0000
0100
0010
0000
0010
0001
0000
0100
0000
0010
0000
1000
0000
,
0100
0100
0010
1000
0010
0010
0001
0100
,
0010
0000
1000
0000
0001
0010
0001
0010
0100
0000
0100
2000
0000
0000
3000
0000
,
2002
3003
0000
0000
;
