#VERSION:0.83;
#TITLE:One The Love;
#SUBTITLE:;
#ARTIST:xxdbxx;
#TITLETRANSLIT:;
#SUBTITLETRANSLIT:;
#ARTISTTRANSLIT:;
#GENRE:;
#ORIGIN:;
#CREDIT:;
#BANNER:One The Love.png;
#BACKGROUND:One The Love-bg.png;
#PREVIEWVID:;
#JACKET:One The Love-jacket.png;
#CDIMAGE:;
#DISCIMAGE:;
#LYRICSPATH:;
#CDTITLE:;
#MUSIC:One The Love.ogg;
#OFFSET:-0.010000;
#SAMPLESTART:9.578000;
#SAMPLELENGTH:12.000000;
#SELECTABLE:YES;
#BPMS:0.000=125.000;
#STOPS:;
#DELAYS:;
#WARPS:;
#TIMESIGNATURES:0.000=4=4;
#TICKCOUNTS:0.000=4;
#COMBOS:0.000=1;
#SPEEDS:0.000=1.000=0.000=0;
#SCROLLS:0.000=1.000;
#FAKES:;
#LABELS:0.000=Song Start;
#BGCHANGES:0.000=One The Love.avi=1.000=1=0=1===CrossFade==,
99999=-nosongbg-=1.000=0=0=0 // don't automatically add -songbackground-
;
#KEYSOUNDS:;
#ATTACKS:
;

//---------------dance-single - OrangeRight----------------
#NOTEDATA:;
#CHARTNAME:OrangeRight;
#STEPSTYPE:dance-single;
#DESCRIPTION:OrangeRight;
#CHARTSTYLE:;
#DIFFICULTY:Beginner;
#METER:3;
#RADARVALUES:0.171661,0.203901,0.045061,0.000000,0.000000,160.000000,154.000000,6.000000,0.000000,0.000000,0.000000,0.000000,0.000000,0.000000,0.171661,0.203901,0.045061,0.000000,0.000000,160.000000,154.000000,6.000000,0.000000,0.000000,0.000000,0.000000,0.000000,0.000000;
#CREDIT:OrangeRight;
#NOTES:
0000
0000
0000
0000
,
0000
0000
0000
0000
,
0000
0000
0000
0000
,
0000
0000
0000
0000
,
0000
0001
1000
0001
,
1000
0000
1000
0000
,
0001
0000
0001
1000
,
0001
0000
0001
0000
,
1000
0000
1000
0001
,
1000
0000
1000
0000
,
0001
0000
0001
0100
,
0001
0000
0001
0000
,
1000
0001
1000
0001
,
1000
0000
0100
0000
,
0010
0000
0001
0001
,
1000
0000
0010
0000
,
0100
0000
0001
0001
,
1000
0000
0001
0000
,
0010
0000
0100
0100
,
1000
0000
0001
0000
,
0100
0000
0010
0010
,
1000
1000
0000
0000
,
0001
0001
0000
0000
,
1000
1000
0000
0000
,
0001
0001
0000
0000
,
0100
0100
0000
0000
,
0010
0010
0000
0000
,
1000
0001
1000
0000
,
0001
1000
0001
1000
,
0001
0000
0001
0000
,
1000
0000
1000
0010
,
1000
0000
1000
0000
,
0001
0000
0001
0010
,
0001
0000
0100
0000
,
0010
0000
1000
0001
,
1000
0000
0100
0000
,
0010
0000
0001
1000
,
0001
0000
0001
0000
,
1000
0000
1000
0001
,
1000
0000
1000
0000
,
0001
0000
0001
1000
,
0001
0000
0100
0000
,
0010
0000
1000
0001
,
1000
0000
0100
0010
,
0100
0000
1000
0000
,
1000
1000
0000
0000
,
1000
1000
0000
0000
,
0100
0100
0000
0000
,
0100
0100
0000
0000
,
1001
0000
0000
0000
,
1001
0000
0000
0000
,
0001
0001
0000
0000
,
0001
0001
0000
0000
,
0100
0000
0100
0000
,
0010
0000
0010
0100
,
0010
0000
0010
0000
,
0100
0000
0100
0010
,
0100
0000
0001
0000
,
1000
0000
0100
1000
,
0001
0000
0100
0000
,
0001
1000
0001
1000
,
1001
0000
0000
0000
,
1000
0001
1000
0001
,
1001
0000
0000
0000
,
0001
1000
0001
1000
,
1001
0000
0000
0000
,
1000
0100
0010
0001
,
0000
0000
0000
0000
0000
0000
0000
1001
;

//---------------dance-single - OrangeRight----------------
#NOTEDATA:;
#CHARTNAME:OrangeRight;
#STEPSTYPE:dance-single;
#DESCRIPTION:OrangeRight;
#CHARTSTYLE:;
#DIFFICULTY:Easy;
#METER:5;
#RADARVALUES:0.249981,0.280364,0.060081,0.120163,0.000000,233.000000,225.000000,8.000000,16.000000,0.000000,0.000000,0.000000,0.000000,0.000000,0.249981,0.280364,0.060081,0.120163,0.000000,233.000000,225.000000,8.000000,16.000000,0.000000,0.000000,0.000000,0.000000,0.000000;
#CREDIT:OrangeRight;
#NOTES:
0000
0000
0000
0000
,
0000
0000
0000
0000
,
0000
0000
0000
0000
,
0000
0000
0000
0000
,
0000
1000
0001
1000
,
2002
3003
1000
0100
,
0010
0001
0010
0001
,
0100
0000
0010
0000
,
1000
0100
1000
0010
,
0200
0300
0001
1000
,
0100
0010
0001
0100
,
0002
0003
2000
3000
,
0001
0100
0010
1000
,
0001
0000
0001
0000
,
1000
1000
0100
0010
,
0001
0000
0001
0000
,
1000
1000
0010
0100
,
0001
0000
0001
0000
,
1000
0100
0010
0001
,
1000
0000
1000
0000
,
0001
1000
0001
1000
,
1001
1000
0100
0001
,
0100
1000
0100
0001
,
0100
1000
0010
0100
,
0001
0100
1000
0100
,
0002
0003
1000
0100
,
0010
0100
1000
0001
,
0100
0000
0010
0000
1000
0001
1000
0000
,
0001
1000
0001
1000
,
2002
3003
0001
0100
,
0010
1000
0010
1000
,
0100
0000
0010
0000
,
0001
0100
0001
0010
,
0100
0000
1000
0001
,
0100
0010
1000
0100
,
2000
3000
0002
0003
,
1000
0100
0010
0001
,
1000
0001
1000
0000
0001
0000
0100
0000
,
0010
1000
0100
0010
,
0002
0000
0003
0000
1000
0001
1000
0000
,
0001
0100
0010
1000
,
0002
0003
0100
0010
,
1000
0001
1000
0100
,
0010
0000
0001
0000
1000
0001
0000
1001
,
0000
0000
0000
0000
,
1000
0010
0100
0001
,
0001
0010
0100
1000
,
0001
0100
0001
0100
,
1000
0100
0001
0100
,
0010
1000
0100
0000
0000
0000
0100
0000
,
0010
0001
0100
1000
,
0001
1000
0100
0100
,
0001
0010
1000
0100
,
1001
0000
1000
0001
,
0100
1000
0100
0010
,
0110
0000
0010
1000
,
0001
0010
1000
0010
,
0001
0000
0100
0010
,
1000
0100
0001
0100
,
2000
3000
0002
0003
,
1000
0001
1000
0000
0100
0000
0010
0000
,
0001
1000
0000
0000
1000
0000
0100
0000
,
0010
0001
0100
1000
,
0200
0300
0000
0100
,
0001
0010
0100
1000
,
1001
0000
0100
0010
,
1000
0001
0010
0100
,
2000
0000
3000
0000
0001
1000
0000
1001
;

//---------------dance-single - OrangeRight----------------
#NOTEDATA:;
#CHARTNAME:OrangeRight;
#STEPSTYPE:dance-single;
#DESCRIPTION:OrangeRight;
#CHARTSTYLE:;
#DIFFICULTY:Medium;
#METER:7;
#RADARVALUES:0.366925,0.407802,0.180244,0.247835,0.011265,342.000000,318.000000,24.000000,33.000000,0.000000,0.000000,0.000000,0.000000,0.000000,0.366925,0.407802,0.180244,0.247835,0.011265,342.000000,318.000000,24.000000,33.000000,0.000000,0.000000,0.000000,0.000000,0.000000;
#CREDIT:OrangeRight;
#NOTES:
0000
0000
0000
0000
,
0000
0000
0000
0000
,
0000
0000
0000
0000
,
0000
0000
0000
0000
,
0000
0110
1001
0110
,
2001
0000
3100
0000
1002
0000
0103
0020
,
0000
1030
0000
2000
0000
3100
0000
0200
,
0000
0310
0001
0100
0010
0000
1000
0001
,
1000
0000
0100
0000
0010
0000
0000
0000
0001
0000
0000
0001
0000
0000
0002
0000
,
0000
0000
1003
0000
0100
0000
0010
0001
,
0100
0000
0001
1000
0000
0100
0000
0020
,
0000
0000
0000
0031
0000
0001
0000
0000
,
2000
0000
3200
0000
0320
0000
0031
1000
,
0002
0100
1000
0013
,
0010
0000
0100
0000
1000
0100
1000
0000
,
0001
0010
0100
1000
,
0010
0000
0100
0000
0001
0100
0001
0000
,
1000
0000
0100
0000
1000
0001
1000
0000
,
0001
0100
0001
0000
0100
0010
0100
0000
,
0010
1000
0100
0010
,
0001
1000
0001
0000
0001
0100
0010
0000
,
0110
0000
0010
1000
0000
1000
0100
0010
,
0000
0001
1000
0000
0010
0100
0001
1000
,
0000
1100
0000
0001
0000
0100
0001
1000
,
0000
0000
0100
1000
0000
0001
0100
0010
,
1000
0010
0100
0000
0010
1000
0100
0010
,
0000
0001
1000
0000
0100
0000
1100
0000
,
1001
0000
1010
0000
1000
0001
0000
0110
,
0000
0010
0001
0010
0100
1000
0100
0000
,
1002
0000
0013
0000
2001
0000
3010
0200
,
0000
0301
0000
0002
0000
0013
0000
0020
,
0000
0130
1000
0010
0100
0000
0001
1000
,
0001
0000
0010
0000
0100
0000
0000
0000
1000
0000
0000
1000
0000
0000
2000
0000
,
0000
0000
3001
0000
0010
0000
0100
1000
,
0010
0100
0001
1000
0000
0010
0000
0200
,
0000
0000
0000
0301
0000
0001
0010
0100
,
1000
0001
1000
0000
0010
0000
0100
0010
,
0100
0001
0000
1000
0100
0000
1000
0002
,
0000
0000
1000
0013
,
1000
0100
1000
0000
0001
0100
0001
0000
,
1000
0100
0010
0100
0000
1000
0000
1000
,
0001
0100
0110
1001
,
0110
0000
0010
1000
0000
0001
0010
0100
,
0000
0000
1000
0001
1000
0001
0000
2000
,
0001
0001
3001
1000
,
0010
1000
0100
0000
0001
0000
0100
0000
,
0010
0001
0100
0000
1000
0000
0100
0000
,
0001
0100
0001
0100
,
1000
0100
0001
0100
,
0010
1000
0001
0000
0100
0000
0100
0000
,
0010
0001
0100
1000
,
0001
1100
0100
0100
,
0001
0010
1000
0100
,
2100
0000
3010
0000
0210
0000
0301
0020
,
0000
0130
0000
2000
0000
3001
0000
0001
,
1000
0100
1000
0000
0001
0100
0001
0010
,
0100
0000
1000
0000
0100
0000
0000
0000
1000
0000
0000
1000
0000
0000
2000
0000
,
0000
0000
3001
0000
0100
0010
1000
0000
,
0001
0010
0100
1000
0000
0001
0000
2000
,
0000
3010
0000
0002
0000
0013
0000
0100
,
1000
0001
0100
0010
0000
1000
0000
0001
,
1000
0010
0000
0001
0010
0000
1000
0002
,
0100
0000
1000
0000
0013
0100
1000
0020
,
0100
0000
0100
0000
0130
0001
0000
0001
,
0010
0100
1000
0001
0000
1000
0000
0100
,
2002
3003
1100
0101
,
1000
0001
0100
0010
0000
1000
0001
2002
,
0000
3003
0001
1000
0001
1000
0000
1001
;

//---------------dance-single - OrangeRight----------------
#NOTEDATA:;
#CHARTNAME:OrangeRight;
#STEPSTYPE:dance-single;
#DESCRIPTION:OrangeRight;
#CHARTSTYLE:;
#DIFFICULTY:Hard;
#METER:11;
#RADARVALUES:0.504253,0.509752,0.217795,0.255345,0.112652,470.000000,441.000000,29.000000,34.000000,0.000000,0.000000,0.000000,0.000000,0.000000,0.504253,0.509752,0.217795,0.255345,0.112652,470.000000,441.000000,29.000000,34.000000,0.000000,0.000000,0.000000,0.000000,0.000000;
#CREDIT:OrangeRight;
#NOTES:
0000
0000
0000
0000
,
0000
0000
0000
0000
,
0000
0000
0000
0000
,
0000
0000
0000
0000
,
0000
0000
1000
0100
0010
0001
1000
0010
,
0210
0000
0301
0010
1000
0010
0001
0100
,
0010
0100
1000
0100
0010
0100
0001
1000
,
0002
0000
0100
0000
0000
1000
0000
0000
0013
0000
0000
0001
0010
0000
0100
0000
,
1000
0000
0001
0000
0100
0000
0000
0000
0101
0000
0000
0110
0000
0000
2010
0000
,
0000
3100
0010
0001
0100
0010
0100
0001
,
0010
0100
1000
0001
1000
0010
1000
0100
,
0000
1100
0000
0010
0000
0011
0200
0000
,
0301
0000
1000
0000
0010
0000
0100
0000
0001
0000
1000
0000
0001
1000
0001
0000
,
1002
0000
0000
0000
0103
0000
0000
0000
0001
0000
0000
0100
0001
0000
0010
0000
,
0001
0000
0000
1000
0010
0000
0100
0000
0002
0000
0000
0000
1003
0000
0200
0000
,
0000
0000
1300
0000
0010
0000
0000
0000
1000
0000
0000
0100
1000
0000
0010
0000
,
1000
0000
0000
0001
0010
0000
0100
0000
2000
0000
0000
0000
3001
0000
0200
0000
,
0000
0000
0301
0000
0010
0000
0000
0000
0001
0000
0000
0010
0100
0000
1000
0000
,
0010
0000
0000
1000
0001
0000
0100
0000
0002
0000
0000
0000
1003
0000
0020
0000
,
0000
0000
0130
0000
0001
0000
0000
0000
0010
0000
0000
0100
1000
0000
0010
0000
,
0100
0000
0000
0100
0001
0000
0010
0000
0100
0000
1000
0000
0001
0000
0000
0000
,
1001
0000
0000
0000
0100
0000
0010
0000
1000
0000
0100
0000
1000
0000
0001
0100
,
0001
0010
0100
0000
1000
0010
0100
0001
,
0010
0100
0010
0001
0100
0010
1000
0100
,
2000
0000
3001
0200
0000
0310
1000
0001
,
0010
0000
0100
0000
2000
0000
0000
0000
3001
0000
0100
0000
0010
0000
1000
0010
,
1000
0100
1000
0000
0001
0100
0101
0000
,
1001
0000
0011
0000
0010
0110
0000
1001
,
1000
0100
0000
0000
0010
0000
0000
0001
0100
0000
0010
0000
1000
0001
1000
0000
,
0210
0000
1300
0010
0001
0010
1000
0100
,
0010
0100
0001
0100
0010
0100
1000
0001
,
2000
0000
0001
0000
0000
0001
0000
0000
3010
0000
0000
1000
0010
0000
0100
0000
,
0001
0000
1000
0000
0100
0000
0000
0000
1100
0000
0000
0110
0000
0000
0012
0000
,
0000
0103
0010
1000
0100
0010
0100
1000
,
0010
0100
0001
1000
0001
0010
0001
0100
,
0000
0101
0000
0010
0000
1010
0200
0000
,
1300
0000
0001
0000
0010
0000
0100
0000
1000
0000
0001
0000
1000
0001
1000
0000
,
0001
0200
0001
0301
2000
0100
3100
0020
,
0001
0000
0100
0000
1030
0010
0001
0100
,
0010
1000
0001
0000
0100
0001
1000
0100
,
0010
0001
0100
0010
0000
1010
0000
0102
,
0000
1000
0000
0013
0001
0100
0010
1000
,
0100
0001
0100
1000
0010
0100
0001
1000
,
0001
0000
0001
0100
1000
0100
0001
1000
,
0002
0000
0000
0000
1000
0000
0000
0000
1003
0000
0000
0000
1000
0001
0100
0000
,
0010
1000
0100
0010
0001
0100
0100
0000
,
0010
0001
0100
0010
1000
0100
0100
0000
,
0001
0010
1000
0000
0001
0010
1000
0000
,
0001
0100
1000
0000
0001
0010
1000
0000
,
0010
1000
0001
0000
0100
0010
0100
0000
,
0010
0001
0001
0000
0100
0100
1000
0000
,
0001
1000
0100
0000
0100
0010
0100
0000
,
0001
0010
0010
0000
1000
1000
0100
0000
,
1200
0000
0310
0100
1000
0001
0100
0010
,
1000
0010
0100
0010
0001
0010
1000
0001
,
0010
0100
1000
0010
0100
0001
0010
1000
,
0010
0000
0001
0000
0100
0000
0000
0000
1010
0000
0000
0110
0000
0000
0102
0000
,
0000
0013
0001
0100
0010
0100
0001
0100
,
1000
0100
0010
1000
0100
0010
0001
2000
,
0001
0000
3001
0000
0010
0000
0200
0000
0010
0000
0310
0000
0001
0000
0100
0010
,
1000
0000
0001
0000
1001
0000
0000
0001
1000
0000
0100
0000
1000
0001
1000
0000
,
0001
0200
0001
0301
2000
0100
3010
0010
,
1000
0100
1000
0010
1000
0001
0010
0002
,
0100
0000
0010
0000
1003
0010
0100
0001
,
0010
0000
0100
0000
1000
0000
0001
1000
0000
1000
0001
0000
0100
0000
0010
0000
,
2002
0000
0000
0000
3003
0000
0001
1000
,
0100
0000
0010
0000
0001
0000
1000
0001
0000
0001
1000
0000
0001
0000
2002
0000
,
0000
3003
0001
0100
0010
1000
0000
0110
;

//---------------dance-single - OrangeRight----------------
#NOTEDATA:;
#CHARTNAME:OrangeRight;
#STEPSTYPE:dance-single;
#DESCRIPTION:OrangeRight;
#CHARTSTYLE:;
#DIFFICULTY:Challenge;
#METER:15;
#RADARVALUES:0.710246,0.790115,0.375508,0.090122,0.679669,662.000000,612.000000,50.000000,12.000000,0.000000,0.000000,0.000000,0.000000,0.000000,0.710246,0.790115,0.375508,0.090122,0.679669,662.000000,612.000000,50.000000,12.000000,0.000000,0.000000,0.000000,0.000000,0.000000;
#CREDIT:OrangeRight;
#NOTES:
0000
0000
0000
0000
,
0000
0000
0000
0000
,
0000
0000
0000
0000
,
0000
0000
0000
0000
,
0000
0000
0000
0000
0000
0000
0000
0000
0000
0000
0000
0000
1001
0000
0000
0000
0000
0000
1000
0000
0000
0100
0000
0000
0010
0000
0000
0001
0000
0000
0100
0000
0000
0010
0000
0000
1000
0000
0000
0000
0000
0000
0001
0000
0000
0000
1000
0000
,
0001
0000
0100
0000
0001
0100
0000
0001
0100
0000
0001
0100
0000
0001
1000
0000
,
0010
0000
0100
0000
0001
0010
0000
0100
1000
0000
0100
1000
0000
0100
1000
0000
,
0010
0000
0100
0000
0010
0100
0000
0010
0100
0000
0010
0100
0000
0001
1000
0000
,
0100
0000
1000
0000
0010
0100
0000
0001
0010
0000
0100
0000
1100
0000
0000
0000
,
1000
0000
0100
0000
1000
0100
0000
1000
0100
0000
1000
0100
0000
1000
0001
0000
,
0010
0000
0100
0000
1000
0010
0000
0100
0001
0000
0100
0001
0000
0100
0001
0000
,
0010
0000
0100
0000
0010
0100
0000
0010
0100
0000
0010
0100
0000
1000
0001
0000
,
0100
0000
0001
0000
0010
0100
0000
1000
0010
0000
0100
0000
0001
0100
0001
0000
,
1000
0000
0100
0000
1100
0000
1000
0000
0001
0000
0100
0001
0000
0010
0001
0000
,
1000
0000
0100
1000
0000
0010
1000
0000
0010
0000
0100
0000
0001
0000
0021
0000
,
0000
0000
1030
0000
0010
0000
0001
0000
1000
0000
0100
1000
0000
0010
1000
0000
,
0001
0000
0100
0001
0000
0010
0001
0000
0010
0000
0100
0000
1000
0000
1020
0000
,
0000
0000
0031
0000
0010
0000
1000
0000
0100
0000
1000
0010
0000
0100
0001
0000
,
0010
0000
0001
0100
0000
0010
1000
0000
0100
0000
0010
0000
0001
0000
0201
0000
,
0000
0000
1300
0000
0100
0000
0001
0000
0010
0000
0100
1000
0000
0001
0100
0000
,
0001
0000
0010
0001
0000
1000
0010
0000
0100
0000
0010
0000
0110
0000
0000
0000
,
1000
0000
0100
0000
1010
0000
0001
0000
0100
0000
0010
0000
1100
0000
0010
0001
,
1000
0010
0101
1000
0001
0010
1100
0001
,
0010
1000
0010
0001
0100
1000
0100
0001
,
0010
0000
0100
0000
1100
0000
1000
0000
0001
0000
1000
0100
0010
0001
0100
0010
,
1000
0001
1000
0100
1000
0000
0010
0000
0100
0000
0001
0000
0010
0000
0001
0100
,
0001
1000
0100
0010
0001
0100
0101
0010
,
1001
0100
0110
0000
1010
0010
0100
0101
,
1000
0001
0000
0000
0101
0000
0100
0010
1000
0001
0010
0100
1000
0001
1000
0000
,
1100
0000
0010
0000
0100
0001
0000
0010
0001
0000
0100
0001
0000
0010
0001
0000
,
0100
0000
0010
0000
1000
0001
0000
0010
0100
0000
1000
0001
0000
0001
1000
0000
,
0001
0000
0010
0000
0100
1000
0000
0010
1000
0000
0100
1000
0000
0010
1000
0000
,
0100
0000
1000
0000
0010
0100
0000
0001
0010
0000
0000
0110
0000
0000
1100
0000
,
1000
0000
0010
0000
1000
0100
0000
0010
0001
0000
0100
0010
0000
1000
0001
0000
,
0010
0000
0100
0000
1000
0010
0000
0100
0001
0000
0010
0100
0000
1000
0001
0000
,
0100
0000
0010
0000
0100
0001
0000
0010
0100
0000
1000
0010
0000
0100
0010
1000
,
0001
0000
1000
0000
1001
0000
0000
0001
1000
0001
0000
0001
0100
0010
1000
0000
,
1000
0100
0001
0000
0100
0000
1000
0010
0001
0000
0010
0000
1000
0001
1000
0000
,
0001
0010
1000
0010
0002
0100
2003
0100
,
3001
0000
0100
0000
1000
0100
0000
0001
0100
0000
0010
0100
0000
0100
0010
0000
,
1000
0100
0010
0001
0200
0010
0302
1000
,
0013
0000
0001
0000
0010
0001
0000
0100
0010
0000
1000
0100
0000
1000
0001
0000
,
1000
0010
0100
0110
0000
1001
0000
0220
,
0000
0330
1100
0101
1010
0011
0010
1001
,
1000
0100
1000
0010
0100
0001
0010
0100
1000
0001
0100
0010
1000
0001
1000
0001
,
1000
0000
0001
0100
0001
0000
1000
0100
0001
0000
0100
1000
0001
0000
0100
0000
,
0010
0000
1000
0100
1000
0000
0001
0100
1000
0000
0100
0001
1000
0000
0100
0000
,
1000
0000
0001
0010
0001
0000
1000
0010
0001
0000
0010
1000
0001
0000
0010
0000
,
0100
0000
1000
0010
1000
0000
0001
0010
1000
0000
0010
0001
0010
0100
1000
0000
,
0001
0000
0010
0001
0100
0000
0010
1000
0100
0000
0001
0100
0010
0000
0100
0000
,
1000
0000
0010
1000
0100
0000
0001
0100
1000
0000
0010
0100
0010
0000
0100
0000
,
0001
1000
0001
0000
0000
0000
0001
1000
0100
0000
0010
0100
1000
0000
0001
0000
,
1001
0000
0100
0010
0001
0000
0100
0010
1000
0000
0100
0000
0011
0000
1001
0000
,
0101
0000
0100
0000
0010
0100
0000
0100
0001
0000
0001
0010
0000
0010
1000
0000
,
0010
0000
0001
0000
0100
1000
0000
1000
0100
0000
0100
0001
0000
0001
1000
0000
,
0001
0000
0100
0000
1000
0100
0000
0010
0100
0000
0001
0100
0000
0100
0010
0000
,
1000
0000
0100
0000
0010
0001
0000
0100
0010
0000
0000
1010
0000
0000
0101
0000
,
1100
0000
0100
0000
0010
0100
0000
0100
1000
0000
1000
0010
0000
0010
0001
0000
,
0010
0000
1000
0000
0100
0001
0000
0001
0100
0000
0100
1000
0000
1000
0001
0000
,
1000
0000
0100
0000
0001
0100
0000
0010
0100
0000
1000
0100
0000
0100
0010
0000
,
0001
0000
0101
0000
1010
0000
0010
1000
0001
0100
0010
0000
1000
0001
1000
0000
,
0001
0100
1000
0000
0100
0000
0001
0010
1000
0000
0010
0000
0001
1000
0001
0000
,
1000
0010
0001
0010
2000
0100
3002
0100
,
1003
0000
0100
0000
0001
0100
0000
1000
0100
0000
0010
0100
0000
0100
0010
0000
,
0001
0000
1000
0000
1100
0000
0000
1000
0100
0010
0000
0001
0100
0010
1000
0000
,
1002
0000
0100
0000
0000
0100
0000
0000
0010
0000
0003
0010
0001
0000
0101
0000
,
1001
0000
1000
0000
1100
0000
1000
0010
0000
0100
0001
0000
1000
0000
1001
0000
,
0000
0001
1100
0101
0011
1010
0100
1001
;

//---------------dance-double - OrangeRight----------------
#NOTEDATA:;
#CHARTNAME:OrangeRight;
#STEPSTYPE:dance-double;
#DESCRIPTION:OrangeRight;
#CHARTSTYLE:;
#DIFFICULTY:Easy;
#METER:5;
#RADARVALUES:0.234961,0.254876,0.037551,0.180244,0.000000,219.000000,214.000000,5.000000,24.000000,0.000000,0.000000,0.000000,0.000000,0.000000,0.234961,0.254876,0.037551,0.180244,0.000000,219.000000,214.000000,5.000000,24.000000,0.000000,0.000000,0.000000,0.000000,0.000000;
#CREDIT:OrangeRight;
#NOTES:
00000000
00000000
00000000
00000000
,
00000000
00000000
00000000
00000000
,
00000000
00000000
00000000
00000000
,
00000000
00000000
00000000
00000000
,
00000000
10000000
00010000
10000000
,
20020000
30030000
01000000
00100000
,
00010000
00100000
00010000
00100000
,
00002000
00003000
00010000
00000000
,
00001000
00010000
00000100
00001000
,
00000002
00000003
00001000
00000000
,
00000001
00000100
00000010
00001000
,
00000200
00000300
00020000
00030000
,
00001000
00010000
00001000
00010000
,
00002000
00003000
01000000
00000000
,
00010000
00000000
00100000
00001000
,
00010000
00000000
00000100
00000000
,
00001000
00000000
00000010
00010000
,
00001000
00000000
00100000
00000000
,
00010000
00000000
01000000
00001000
,
00010000
00000000
00000010
00000000
,
00001000
00000100
00010000
00001000
,
00100000
01000000
10000000
00010000
,
01000000
00010000
01000000
00000000
,
00001000
00001000
00010000
00010000
,
00000100
00001000
00000010
00000000
,
00000010
00000100
00000001
00001000
,
00000100
00001000
00000100
00000000
,
00001001
00000000
00000000
00000000
00001000
00000001
00000000
00001000
,
00000000
00000001
00001000
00000001
,
00002002
00003003
00000100
00000010
,
00001000
00000010
00001000
00000010
,
00020000
00030000
00001000
00000000
,
00010000
00001000
01000000
00010000
,
20000000
30000000
00010000
00000000
,
10000000
01000000
00100000
00010000
,
02000000
03000000
00002000
00003000
,
00010000
00001000
00010000
00001000
,
00010000
00000000
00000100
00001000
,
00000002
00000003
00000010
00000010
,
00000001
00000100
00000010
00010000
,
00001000
00100000
00010000
01000000
,
00200000
00000000
01300000
01000000
,
00010000
10000000
01000000
10000000
,
00010000
10000000
00100000
01000000
,
00010000
00000000
00000000
00000000
,
00100000
00010000
10000000
01000000
,
00010000
00001000
00000100
00010000
,
00000100
00010000
00000100
00010000
,
00100000
00001000
00100000
00001000
,
00000100
00001000
00010000
00000000
00100000
00000000
10000000
00000000
,
01000000
00010000
01000000
10000000
,
01000000
01000000
00010000
00001000
,
00000100
00000001
00001000
00000001
,
00002002
00003003
00000010
00001000
,
00000100
00010000
00000100
00010000
,
00002000
00003000
00010000
00001000
,
00100000
00010000
01000000
00100000
,
20000000
30000000
00010000
10000000
,
01000000
00100000
00010000
01000000
,
00002000
00003000
00020000
00030000
,
00001000
00010000
00001000
00010000
,
00010000
00001000
00000000
00000000
00010000
00000000
00001000
00000000
,
01000000
00100000
10000000
01000000
,
00200000
00300000
00010000
01000000
,
00001000
00010000
00000100
00001000
,
00000020
00000030
00001000
00000001
,
00001000
00000100
00010000
00001000
,
00200000
00000000
00300000
00000000
00010000
10000000
00000000
10010000
;

//---------------dance-double - OrangeRight----------------
#NOTEDATA:;
#CHARTNAME:OrangeRight;
#STEPSTYPE:dance-double;
#DESCRIPTION:OrangeRight;
#CHARTSTYLE:;
#DIFFICULTY:Medium;
#METER:8;
#RADARVALUES:0.349759,0.382314,0.127673,0.232815,0.011265,326.000000,309.000000,17.000000,31.000000,0.000000,0.000000,0.000000,0.000000,0.000000,0.349759,0.382314,0.127673,0.232815,0.011265,326.000000,309.000000,17.000000,31.000000,0.000000,0.000000,0.000000,0.000000,0.000000;
#CREDIT:OrangeRight;
#NOTES:
00000000
00000000
00000000
00000000
,
00000000
00000000
00000000
00000000
,
00000000
00000000
00000000
00000000
,
00000000
00000000
00000000
00000000
,
00000000
10000000
01000000
00010000
,
02000000
00000000
13000000
00000000
00100000
00000000
01000000
00010000
,
00000000
00100000
00000000
00001000
00000000
00010000
00000000
00000100
,
00000000
00001000
00000100
00000010
00000001
00000000
00000100
00000001
,
00000100
00000000
00000001
00000000
00000100
00000000
00000000
00000000
00000010
00000000
00000000
00000010
00000000
00000000
00000020
00000000
,
00000000
00000030
00001000
00000000
00000001
00000000
00001000
00000000
,
00000100
00000000
00010000
00001000
00000000
00100000
00000000
00020000
,
00000000
00000000
00000000
01030000
00000000
00100000
10000000
00000000
,
00020000
00000000
02030000
00000000
23000000
00000000
31000000
00010000
,
20010000
31000000
10020000
01030000
,
00100000
00010000
01000000
00001000
00010000
00000000
00000100
00000000
,
00001002
00000103
00002001
00003100
,
00000010
00001000
00000100
00010000
00001000
00000000
01000000
00000000
,
20100000
31000000
00120000
01030000
,
01000000
00010000
00100000
00001000
00010000
00000000
00000100
00000000
,
00002100
00003010
00000102
00000013
,
00000001
00000010
00000100
00010000
00001000
00000000
00010000
00000000
,
00011000
00000000
01000000
00000000
00001000
00000000
00010000
00000100
,
00010000
00000000
00000010
00000000
00010000
00000000
00001000
00100000
,
00000000
01000000
00000000
10000000
00000000
00100000
01000000
00010000
,
10000000
00000000
01000000
00100000
00010000
00000000
00010000
10000000
,
00010000
00000000
01000000
00000000
00100000
10000000
00100000
10000000
,
00000000
00010000
01000000
00000000
00001000
00000000
00010000
00000000
,
00011000
00000000
00011000
00000000
00010000
00001000
00000000
00011000
,
00000000
00010000
00001000
00010000
00000100
00001000
00000001
00000000
,
00000200
00000000
00000301
00000000
00000010
00000000
00000100
00001000
,
00000000
00000010
00000000
00010000
00000000
00001000
00000000
01000000
,
00000000
00010000
01000000
00100000
10000000
00000000
01000000
10000000
,
01000000
00000000
10000000
00000000
01000000
00000000
00000000
00000000
00100000
00000000
00000000
00100000
00000000
00000000
00200000
00000000
,
00000000
00300000
00010000
00000000
10000000
00000000
00010000
00000000
,
01000000
00000000
00001000
00010000
00000000
00000010
00000000
00002000
,
00000000
00000000
00000000
00003100
00000000
00000010
00000001
00000000
,
00002000
00000000
00003200
00000000
00000302
00000000
00000103
00001000
,
00000001
00000100
00000000
00001000
00000100
00000000
00000010
00000100
,
00000001
00000010
00000100
00001000
,
00000100
00001000
00000100
00000000
01000000
00010000
01000000
00000000
,
00001000
00010000
00001000
00000000
00100000
00000000
00010000
00000000
,
02000000
03000000
00100000
10000000
,
00010000
00000000
00100000
01000000
00000000
10000000
00000000
10010000
,
00000000
00000000
10000000
00010000
10000000
00010000
00000000
00020000
,
10000000
10000000
10030000
00000000
,
10000000
01000000
00010000
00000000
10000000
00100000
00010000
00000000
,
00010000
00001000
00000100
00000000
00000100
00001000
00010000
00000000
,
01000000
00001000
01000000
00001000
,
00000100
00010000
00000100
00010000
,
00000100
00000001
00000010
00000000
00001000
00000000
00010000
00000000
,
01000000
10000000
00010000
10000000
,
00100000
01000000
00010000
00001000
,
00000010
00000001
00000100
00001000
,
00000200
00000000
00000301
00000000
00000010
00000000
00001000
00000010
,
00000000
00000001
00000000
00000100
00000000
00000010
00000000
00002000
,
00000000
00003100
00001000
00000100
00001000
00000000
00000100
00010000
,
00001000
00000000
00010000
00000000
00001000
00000000
00000000
00000000
00010000
00000000
00000000
00001000
00000000
00000000
00012000
00000000
,
00000000
00000000
01003000
00000000
00010000
00000000
00100000
01000000
,
10000000
00000000
00100000
01000000
00000000
00010000
00000000
10020000
,
00000000
00000000
00000000
00130000
00000000
01000000
10000000
00000000
,
10000000
01000000
00010000
00000000
10000000
00100000
00010000
00000000
,
10000000
01000000
00000000
00010000
01000000
00000000
01000000
00100000
,
00010000
00000000
01000000
00000000
00001000
00010000
00000100
00001000
,
00000002
00000000
00000203
00000000
00000310
00001000
00000000
00000100
,
00010000
00001000
00100000
00020000
00000000
02030000
00000000
03200000
,
00000000
00300000
00000000
00000000
10000000
00000000
00010000
00000000
,
10000000
00100000
01000000
00010000
00000000
00010000
10000000
10010000
,
00000000
00000000
10000000
01000000
00100000
00010000
00000000
10010000
;

//---------------dance-double - OrangeRight----------------
#NOTEDATA:;
#CHARTNAME:OrangeRight;
#STEPSTYPE:dance-double;
#DESCRIPTION:OrangeRight;
#CHARTSTYLE:;
#DIFFICULTY:Hard;
#METER:12;
#RADARVALUES:0.487087,0.484264,0.300406,0.292896,0.108897,454.000000,414.000000,40.000000,39.000000,0.000000,0.000000,0.000000,0.000000,0.000000,0.487087,0.484264,0.300406,0.292896,0.108897,454.000000,414.000000,40.000000,39.000000,0.000000,0.000000,0.000000,0.000000,0.000000;
#CREDIT:OrangeRight;
#NOTES:
00000000
00000000
00000000
00000000
,
00000000
00000000
00000000
00000000
,
00000000
00000000
00000000
00000000
,
00000000
00000000
00000000
00000000
,
00000000
00000000
00100000
01000000
00010000
01000000
00001000
00010000
,
00021000
00000000
01030000
00000000
00012000
00000000
00003100
00001000
,
00010000
01000000
00000000
00010000
00001000
00000100
00000000
00001002
,
00000000
00000000
00000010
00000000
00000000
00001000
00000000
00000000
00000103
00000000
00000000
00000001
00000010
00000000
00000100
00000000
,
00001000
00000000
00000100
00000000
00010000
00000000
00000000
00000000
00010100
00000000
00000000
00011000
00000000
00000000
00102000
00000000
,
00000000
01003000
00010000
01000000
00100000
20000000
00010000
30010000
,
00200000
01000000
01300000
10000000
00100000
01000000
00010000
01000000
,
00000000
01001000
00000000
00010000
00000000
00010100
00002000
00000000
,
00003001
00000000
00001000
00000000
00000010
00000000
00000100
00000000
00000001
00000000
00001000
00000000
00000001
00001000
00000001
00000000
,
00001002
00000000
00000000
00000000
00000103
00000000
00000000
00000000
00000100
00000000
00000000
00000100
00000010
00000000
00001000
00000000
,
00000100
00000000
00000000
00000100
00010000
00000000
00001000
00000000
00020000
00000000
00000000
00000000
01030000
00000000
20000000
00000000
,
00000000
00000000
30100000
00000000
10000000
00000000
00000000
00000000
01000000
00000000
00000000
01000000
00100000
00000000
00010000
00000000
,
01000000
00000000
00000000
01000000
00001000
00000000
00010000
00000000
00002000
00000000
00000000
00000000
00003100
00000000
00000002
00000000
,
00000000
00000000
00000013
00000000
00000001
00000000
00000000
00000000
00001000
00000000
00000000
00001000
00000010
00000000
00000100
00000000
,
00000001
00000000
00000000
00000001
00000010
00000000
00000100
00000000
00020000
00000000
00000000
00000000
00031000
00000000
02000000
00000000
,
00000000
00000000
03100000
00000000
10000000
00000000
00000000
00000000
00100000
00000000
00000000
01000000
00010000
00000000
00100000
00000000
,
01000000
00000000
00000000
10000000
00010000
00000000
00100000
00000000
01000000
00000000
10000000
00000000
00010000
00000000
00000000
00000000
,
20010000
00000000
00000000
00000000
30100000
00000000
01000000
00000000
00010000
00000000
00100000
00000000
00001000
00000000
00010000
00000100
,
00010000
00001000
01000000
00000000
00001000
00010000
00000100
00001000
,
00000010
00000001
00000010
00001000
00000100
00010000
00001000
00020000
,
00000000
00031000
02000000
00000000
03100000
10000000
00010000
00100000
,
01000000
00000000
10000000
00000000
00100000
00000000
00000000
00000000
01000000
00000000
00001000
00000000
00010000
00000000
00000010
00010000
,
00000010
00001000
00000001
00000000
00001000
00000100
00001100
00000000
,
00011000
00000000
00110000
00000000
00100000
00010000
01000000
00100000
,
10000000
01000000
00000000
00000000
00100000
00000000
00000000
00010000
00100000
00000000
00001000
00000000
00010000
00001000
00010000
00000000
,
00021000
00000000
00130000
00000000
00012000
00000000
00003010
00001000
,
00010000
00100000
00000000
00010000
00001000
00000010
00000000
00001002
,
00000000
00000000
00000100
00000000
00000000
00001000
00000000
00000000
00000013
00000000
00000000
00000001
00000100
00000000
00000010
00000000
,
00001000
00000000
00000010
00000000
00010000
00000000
00000000
00000000
00010010
00000000
00000000
00011000
00000000
00000000
01002000
00000000
,
00000000
00103000
00010000
00100000
01000000
20000000
00010000
30010000
,
02000000
00100000
03100000
10000000
01000000
00100000
00010000
00100000
,
00000000
00101000
00000000
00010000
00000000
00010010
00002000
00000000
,
00003001
00000000
00001000
00000000
00000100
00000000
00000010
00000000
00000001
00000000
00001000
00000000
00000001
00001000
00000001
00000000
,
00001000
00000002
00000100
00000103
00000020
00001000
00001030
00000200
,
00000001
00000000
00000010
00000000
00001300
00000100
00010000
00001000
,
01000000
00100000
10000000
00000000
01000000
00100000
00010000
10000000
,
00100000
01000000
00010000
00110000
00000000
00011000
00000000
00001200
,
00000000
00000010
00000000
00000001
00000310
00000001
00000100
00000010
,
00001000
00000100
00010000
00101000
00000000
00011000
00000000
00010200
,
00000000
00000000
00001300
00000100
00000001
00000100
00001000
00000010
,
00010000
00000000
00000000
00000000
00001000
00000000
00000000
00000000
00010000
00000000
00000000
00000000
00001000
00010000
00001000
00000000
,
00010000
00000000
00000010
00001000
00000100
00010000
00001000
00000000
,
00100000
00010000
01000000
00001000
00010000
00000000
00110000
00000000
,
00001000
01000000
00010000
00000000
00100000
00000000
00001000
00000000
,
00010000
00000000
00000100
00000000
00000010
00000001
00000100
00000000
,
00000000
00000010
00010000
00000000
00001000
00000000
00100000
00000000
,
00000000
01000000
10000000
00000000
00010000
00000000
01000000
00000000
,
00001000
00100000
00010000
00000000
01000000
00001000
00010000
00000000
,
00000010
00001000
00000100
00000010
00000001
00000100
00000010
00000000
,
00021000
00000000
01030000
00010000
00001000
00010000
01000000
10000000
,
00100000
00010000
00100000
10000000
01000000
00100000
00010000
01000000
,
00001000
00010000
00001000
00010000
00000100
00000000
00001000
00000100
,
00000010
00000000
00000001
00000000
00000100
00000000
00000000
00000000
00001010
00000000
00000000
00011000
00000000
00000000
01020000
00000000
,
00000000
10030000
00010000
00100000
00010000
01000000
10000000
01000000
,
00100000
10000000
01000000
00100000
00001000
00010000
00100000
00010000
,
00000000
00010100
00000000
00001000
00000000
00101000
00020000
00000000
,
01030000
00000000
00100000
00000000
10100000
00000000
00000000
00100000
10000000
00000000
00010000
00000000
01000000
00010000
01000000
00000000
,
00010000
20000000
01000000
31000000
00200000
00010000
00310000
02000000
,
10000000
00000000
00100000
00000000
03010000
01000000
00001000
00010000
,
00000100
00000010
00000001
00000000
00000100
00000010
00001000
00000001
,
00000010
00000000
00000100
00000000
00001000
00000000
00000010
00010000
00000000
00010000
00001000
00000000
01000000
00000000
02020000
00000000
,
00000000
00000000
00000000
03030000
00110000
00000000
11000000
00000000
,
00100000
00000000
01000000
00000000
00010000
00000000
00100000
00001000
00000000
00001000
00010000
00000000
00000100
00000000
00002200
00000000
,
00000000
00003300
00000100
00010000
00001000
01000000
00000000
00011000
;

//---------------dance-double - OrangeRight----------------
#NOTEDATA:;
#CHARTNAME:OrangeRight;
#STEPSTYPE:dance-double;
#DESCRIPTION:OrangeRight;
#CHARTSTYLE:;
#DIFFICULTY:Challenge;
#METER:15;
#RADARVALUES:0.639436,0.764628,0.375508,0.127673,0.458120,596.000000,546.000000,50.000000,17.000000,0.000000,0.000000,0.000000,0.000000,0.000000,0.639436,0.764628,0.375508,0.127673,0.458120,596.000000,546.000000,50.000000,17.000000,0.000000,0.000000,0.000000,0.000000,0.000000;
#CREDIT:OrangeRight;
#NOTES:
// measure 0
00000000
00000000
00000000
00000000
,  // measure 1
00000000
00000000
00000000
00000000
,  // measure 2
00000000
00000000
00000000
00000000
,  // measure 3
00000000
00000000
00000000
00000000
,  // measure 4
00000000
00000000
00000000
00000000
10010000
00000000
01000000
00000000
00101000
00000000
00010000
00000000
00001100
00000000
00000010
00001000
,  // measure 5
00000001
00000000
00000010
00000000
00000100
00001000
00000000
00000100
00010000
00000000
00000100
00001000
00000000
00000100
00010000
00000000
,  // measure 6
00001000
00000000
00100000
00000000
00010000
01000000
00000000
00010000
10000000
00000000
00010000
01000000
00000000
00010000
10000000
00000000
,  // measure 7
00100000
00000000
10000000
00000000
00100000
01000000
00000000
00100000
00010000
00000000
00100000
01000000
00000000
00100000
10000000
00000000
,  // measure 8
00010000
01000000
00010000
00000000
10000000
00000000
01000000
00000000
00100000
00010000
00100000
00000000
01000000
00000000
10000000
00000000
,  // measure 9
00100000
00000000
01000000
00000000
00001000
00100000
00000000
00100000
00010000
00000000
01010000
00000000
00001000
00000000
00010000
00000000
,  // measure 10
00010100
00001000
00000010
00000100
00000001
00000100
00001000
00001200
,  // measure 11
00000000
00000301
00000010
00001020
00000000
00000031
00000100
00000010
,  // measure 12
00001000
00000010
00001000
00000000
00000001
00000000
00000100
00000000
00000010
00000000
00001000
00000000
00000001
00001000
00000001
00000000
,  // measure 13
00001000
00000000
00000100
00000000
00010100
00000000
00001000
00000000
00100000
00000000
00001000
00010000
00000000
00001000
00010000
00000000
,  // measure 14
00000010
00000000
00010000
00001000
00000000
00010000
00001000
00000000
00100000
00000000
00001000
00000000
00010000
00000000
00020100
00000000
,  // measure 15
00000000
00000000
01030000
00000000
00010000
00000000
00001000
00000000
00000100
00000000
00001000
00010000
00000000
00001000
00010000
00000000
,  // measure 16
01000000
00000000
00010000
00001000
00000000
00010000
00001000
00000000
00000100
00000000
00001000
00000000
00010000
00000000
00021000
00000000
,  // measure 17
00000000
00000000
00030010
00000000
00001000
00000000
00000100
00000000
00010000
00000000
00001000
00100000
00000000
00001000
00010000
00000000
,  // measure 18
00001000
00000000
01000000
00001000
00000000
00010000
00001000
00000000
00010000
00000000
00001000
00000000
01000000
00000000
02100000
00000000
,  // measure 19
00000000
00000000
03010000
00000000
00100000
00000000
00001000
00000000
00010000
00000000
00000100
00010000
00000000
00001000
00010000
00000000
,  // measure 20
00001000
00000000
01000000
00001000
00000000
00010000
00001000
00000000
00100000
00000000
00010000
00000000
01010000
00000000
00000000
00000000
,  // measure 21
00010000
00000000
01000000
00000000
10100000
00000000
00010000
00000000
00100000
00000000
01000000
00000000
00110000
00000000
10000000
01000000
,  // measure 22
10000000
00100000
01010000
00100000
00001000
00010000
00001010
00000100
,  // measure 23
00000001
00000010
00001000
00000010
00000001
00000100
00001000
00000100
,  // measure 24
00000010
00000000
00001000
00000000
00001100
00000000
00000010
00000000
00000001
00000000
00001000
00000100
00000010
00000001
00000100
00000010
,  // measure 25
00001000
00000100
00010000
00001000
00010000
00000000
00001000
00000000
01000000
00000000
00100000
00000000
10000000
00000000
00100000
00000000
,  // measure 26
00010000
00100000
10000000
01000000
00100000
00010000
01010000
00100000
,  // measure 27
10010000
10000000
11000000
00000000
01100000
00100000
00010000
00101000
,  // measure 28
00010000
00001000
00000000
00000000
01001000
00000000
01000000
00100000
10000000
00010000
00100000
01000000
10000000
00010000
10000000
00000000
,  // measure 29
10000000
00000000
00100000
00000000
01000000
00010000
00000000
01000000
00001000
00000000
01000000
00010000
00000000
01000000
00001000
00000000
,  // measure 30
00010000
00000000
00000010
00000000
00001000
00000100
00000000
00001000
00000001
00000000
00001000
00000100
00000000
00001000
00000001
00000000
,  // measure 31
00000010
00000000
00000001
00000000
00000010
00000100
00000000
00000010
00001000
00000000
00000010
00000100
00000000
00000010
00000001
00000000
,  // measure 32
00001000
00000100
00001000
00000000
00000001
00000000
00000100
00000000
00000101
00000000
00000000
00001010
00000000
00000000
00001001
00000000
,  // measure 33
00000010
00000000
00000100
00000000
00010000
00000010
00000000
00000010
00001000
00000000
00001100
00000000
00010000
00000000
00001000
00000000
,  // measure 34
01001000
00010000
00100000
01000000
10000000
01000000
00010000
02010000
,  // measure 35
00000000
13000000
00100000
00210000
00000000
10300000
01000000
00100000
,  // measure 36
00010000
00000000
00100000
00000000
00110000
00000000
01000000
00100000
10000000
00010000
01000000
00000000
00010000
10000000
00010000
00000000
,  // measure 37
10000000
01000000
00010000
00000000
01000000
00000000
10000000
00100000
00010000
00000000
00100000
00000000
01000000
00001000
00010000
00000000
,  // measure 38
00000100
00001000
00000010
00000100
00000002
00000010
00002003
00000010
,  // measure 39
00003001
00000100
00000010
00001000
00000100
00000001
00000100
00001000
,  // measure 40
00000010
00010000
00001000
01000000
00020000
01000000
20030000
01000000
,  // measure 41
30200000
01000000
01300000
00010000
00100000
00001000
00010000
01000000
,  // measure 42
00010000
00001000
00000100
00000110
00000000
00001001
00000000
00000220
,  // measure 43
00000000
00000330
00001100
00000101
00001010
00000011
00000000
00001001
,  // measure 44
00000001
00000010
00000001
00000100
00000010
00001000
00000100
00010000
00001000
00010000
00000100
00001000
00000010
00000100
00000001
00001000
,  // measure 45
00000010
00000000
00001000
00000100
00001000
00000000
00000001
00000000
00000100
00000000
00001000
00010000
00001000
00000000
00100000
00000000
,  // measure 46
00010000
00000000
10000000
01000000
10000000
00000000
00100000
00000000
00010000
00000000
00001000
00010000
00001000
00000100
00000010
00000000
,  // measure 47
00001000
00000000
00000001
00000100
00000001
00000000
00000010
00000000
00000001
00000000
00000100
00000010
00000100
00000000
00001000
00000000
,  // measure 48
00100000
00000000
01000000
10000000
01000000
00000000
00010000
00000000
00001000
00000000
00000010
00000001
00001000
00000001
00000010
00000000
,  // measure 49
00000001
00000000
00000100
00001000
00010000
00000000
00000100
00000000
00010000
00000000
00001000
00100000
01000000
00000000
10000000
00000000
,  // measure 50
00010000
00000000
10000000
01000000
00100000
00000000
00010000
00000000
10000000
00000000
00100000
00010000
00001000
00010000
00000100
00000000
,  // measure 51
00001000
00000001
00000010
00000000
00000011
00000000
00000001
00000000
00000100
00000000
00001000
00100000
00010000
00000000
01000000
00000000
,  // measure 52
00010000
00100000
00010000
00000000
10000000
00000000
01000000
00010000
00000100
00001000
00000010
00000000
00000100
00000000
00000001
00000000
,  // measure 53
00001000
00000000
00000010
00000000
00000001
00000010
00000000
00001000
00000100
00000000
00010000
00001000
00000000
00100000
00010000
00000000
,  // measure 54
10000000
00000000
00100000
00000000
00010000
00100000
00000000
00100000
10000000
00000000
10000000
01000000
00000000
01000000
00100000
00000000
,  // measure 55
00010000
00000000
00100000
00000000
10000000
00100000
00000000
00010000
01000000
00000000
00001000
00010000
00000000
00000010
00001000
00000000
,  // measure 56
00000001
00000000
00000010
00000000
00001000
00000010
00000000
00000010
00000001
00000000
00000000
00000101
00000000
00000000
00001010
00000000
,  // measure 57
00000010
00000000
00000000
00000000
,  // measure 58
00000000
00000000
00000000
00000000
,  // measure 59
00000000
00000000
00000000
00000000
,  // measure 60
00000000
00000000
00000000
00000000
,  // measure 61
00000001
00000100
00001000
00000000
00000100
00000000
00000001
00000010
00001000
00000000
00000010
00000000
00000100
00010000
00001000
00000000
,  // measure 62
01000000
00010000
00100000
01000000
20000000
00100000
30020000
00100000
,  // measure 63
10030000
01000000
00100000
00010000
01000000
00001000
00010000
00000100
,  // measure 64
00001000
00000000
00000100
00000000
00001100
00000000
00000000
00000100
00000010
00000001
00000000
00000100
00000010
00001000
00000001
00000000
,  // measure 65
00000012
00000000
00000010
00000000
00000000
00000100
00000000
00000000
00001000
00000000
00000003
00001000
00000001
00000000
00001000
00000000
,  // measure 66
00000100
00000000
00010000
00000000
00001000
00000000
01000000
00001000
00000000
00010000
00000100
00000000
00010000
00000000
00011000
00000000
,  // measure 67
00000000
00001000
00101000
00010100
01001000
00010010
00000100
00011000
;
