#TITLE:One More Time;
#SUBTITLE:;
#ARTIST:Sara;
#TITLETRANSLIT:;
#SUBTITLETRANSLIT:;
#ARTISTTRANSLIT:;
#CREDIT:;
#BANNER:;
#BACKGROUND:;
#LYRICSPATH:;
#CDTITLE:;
#MUSIC:One More Time.ogg;
#OFFSET:-0.146;
#SAMPLESTART:57.840;
#SAMPLELENGTH:12.000;
#SELECTABLE:YES;
#BPMS:0.000=158.003;
#STOPS:;
#BGCHANGES:;

//---------------dance-single - ----------------
#NOTES:
     dance-single:
     :
     Hard:
     13:
     0.682,0.648,0.440,0.088,0.250:
0000
0000
0000
0000
,
0000
0000
0000
0000
,
0000
0000
0000
0000
,
0000
0000
0000
0000
,
1100
0000
1001
0000
0011
0000
0000
0001
,
0100
0100
0010
1000
0000
1000
0010
0100
,
0101
0000
1001
0000
1100
0000
0000
0100
,
1000
1000
0010
0100
0000
0100
0001
1000
,
1100
0000
0110
0000
0011
0000
0000
0010
,
0001
0001
1000
0010
0000
0010
1000
0100
,
1100
0000
0110
0000
0011
0000
0001
0100
,
0000
0100
0001
0100
0000
0010
1000
0010
0000
0000
0000
0100
0001
0000
0000
0000
,
1000
0000
0100
0000
1000
0000
0010
0100
0000
0100
0001
0000
1000
0000
0100
0000
,
0010
0001
0010
0000
0001
0000
0100
0010
0000
0010
1000
0000
0100
0000
0010
0000
,
0001
0000
1000
0000
0100
0000
0010
0001
0000
0001
1000
0000
0010
0000
0100
0000
,
0001
0000
1000
0000
0100
0000
0010
0100
1000
0000
0010
0000
0100
0000
0001
0000
,
0010
0000
1000
0000
0010
0000
0100
1000
0000
1000
0010
0000
0100
0000
0001
0000
,
1000
0100
1000
0000
0001
0000
0100
0010
0000
0010
1000
0000
0100
0000
0010
0000
,
0001
0000
1000
0000
0010
0000
0100
0001
0000
0001
1000
0000
0100
0000
0010
0000
,
0001
0000
0010
0000
0100
0000
1000
0001
0100
0000
0010
0000
0100
0000
0001
0000
,
1001
0000
0000
0000
1000
0000
0100
0000
0010
0000
0001
0100
0010
0000
0000
0000
,
1002
0000
1003
0000
1000
0001
0100
0000
,
0010
1000
0100
0010
0100
1000
0010
0100
,
0001
0000
1000
0001
1000
0000
0001
1000
0002
0000
0000
0000
0003
0000
0000
0000
,
0010
0000
0001
0000
1000
0000
0010
0000
0100
0000
0001
0010
0001
0000
0000
0000
,
1002
1003
1000
0010
,
0010
0100
0001
1000
0100
0010
0001
0100
,
0010
0110
0000
0101
0000
2020
0000
3030
,
0010
0100
0001
0100
0010
1000
0100
0010
,
0001
1000
1000
0010
0010
0100
0100
0000
,
0010
0100
0001
0100
0010
1000
0100
0010
,
0001
1000
1000
0100
0100
0010
0010
0000
,
0010
0001
1000
1000
0100
0010
0001
0100
,
0010
1000
1000
0001
0001
0100
0000
0001
,
0100
1000
0100
0001
0010
1000
0010
0001
,
0100
1000
0100
0001
0010
1000
0010
0001
,
0100
0010
1000
0100
0010
0001
1000
0010
,
0101
0000
1010
1010
,
1001
0000
0101
0000
0110
0000
0000
1000
,
0100
0010
0001
0100
0010
0100
0001
1000
,
1100
0000
0110
0000
0011
0000
0000
1000
,
0100
0100
0010
0001
0100
1000
0100
0010
,
1010
0000
1001
0000
0011
0000
0000
0100
,
1000
1000
0001
0100
0010
1000
0001
0001
,
0101
0000
1001
0000
1010
0000
0010
0100
,
0000
0100
0001
0000
1000
1000
0100
0100
,
1100
0000
0110
0000
0011
0000
0000
0001
,
0010
0001
0100
0010
1000
0100
1000
0010
,
1010
0000
0101
0000
1001
0000
0000
1000
,
0100
1000
0010
0100
0001
0010
0001
0100
,
0101
0000
0110
0000
1010
0000
0000
1000
,
0001
0001
0010
0100
1000
0010
0100
0100
,
0101
0000
1001
0000
1010
0010
1000
0001
,
0000
0100
0001
0100
0000
0010
1000
0010
0000
0000
0000
0100
0001
0000
0000
0000
,
0010
0000
0001
0000
0010
0000
0100
1000
0000
1000
0001
0000
0100
0000
0010
0000
,
1000
0100
1000
0000
0001
0000
0100
0010
0000
0010
1000
0000
0100
0000
0010
0000
,
0001
0000
1000
0000
0100
0000
0010
0001
0000
0001
0100
0000
0010
0000
1000
0000
,
0001
0000
0010
0000
1000
0000
0010
0001
1000
0000
0010
0000
1000
0000
0001
0000
,
0100
0000
0010
0000
1000
0000
0100
0010
0000
0010
0001
0000
1000
0000
0010
0000
,
0100
0001
0100
0000
0010
0000
1000
0001
0000
0001
0010
0000
0100
0000
1000
0000
,
0001
0000
0100
0000
1000
0000
0100
0001
0000
0001
0010
0000
0100
0000
1000
0000
,
0001
0100
0001
0000
0010
0000
0001
1000
0001
0000
0100
0000
0010
0000
1000
0000
,
0001
0000
0000
0000
0001
0000
0000
0000
0100
0010
0000
0100
0010
0000
0000
0000
,
1000
0000
0000
0000
1000
0000
0000
0000
0100
0010
0000
0100
0010
0000
0000
0000
,
0002
0000
0103
0010
,
0002
0013
0200
2300
,
0000
3000
0000
0000
;

//---------------dance-double - ----------------
#NOTES:
     dance-double:
     :
     Hard:
     13:
     0.656,0.616,0.323,0.147,0.191:
00000000
00000000
00000000
00000000
,
00000000
00000000
00000000
00000000
,
00000000
00000000
00000000
00000000
,
00000000
00000000
00000000
00000000
,
00011000
00000000
01000000
00000000
00010000
00000000
00000000
10000000
,
00010000
01000000
00001000
00010000
01000000
10000000
00100000
00010000
,
00011000
00000000
00000100
00000000
00001000
00000000
00000000
00000001
,
00001000
00000010
00000100
00001000
00010000
01000000
10000000
00100000
,
10100000
00000000
00010000
00000000
01000000
00000000
00000000
00001000
,
00000100
00000001
00000010
00001000
00010000
00100000
10000000
00010000
,
00110000
00000000
10010000
00000000
11000000
00000000
10000000
00100000
,
00000000
00100000
01000000
00100000
00000000
00100000
01000000
00000000
00000000
00000000
00000000
00010000
10000000
00000000
00000000
00000000
,
10000000
00000000
01000000
00000000
00100000
00000000
01000000
10000000
00000000
10000000
00100000
00000000
00010000
00000000
00001000
00000000
,
00000010
00000000
00000001
00000000
00000100
00000000
00000010
00001000
00000000
00001000
00000100
00000000
00010000
00000000
00001000
00000000
,
00100000
00000000
01000000
00000000
10000000
00000000
00100000
01000000
00000000
01000000
00010000
00000000
00100000
00000000
01000000
00000000
,
10000000
00100000
00010000
00001000
00000010
00000001
00000100
00000010
,
00001000
00000000
00000100
00000000
00000010
00000000
00000001
00000100
00000000
00000100
00000010
00000000
00001000
00000000
00000100
00000000
,
00000010
00000000
00001000
00000000
00010000
00000000
00100000
10000000
00000000
10000000
01000000
00000000
00100000
00000000
00010000
00000000
,
01000000
00000000
00100000
00000000
00010000
00000000
00001000
00010000
00000000
00010000
01000000
00000000
10000000
00000000
00100000
00000000
,
01000000
00010000
00100000
01000000
00010000
00001000
00000100
00000001
,
00000020
00000000
00000000
00000000
00001030
00000000
00000010
00000000
00000100
00000000
00001000
00010000
00100000
00000000
00000000
00000000
,
02000000
00000000
13000000
00100000
00010000
00001000
00000010
00000001
,
00000200
00000000
00000310
00001000
00000100
00000010
00001000
00010000
,
00200000
01000000
00000000
10000000
00000000
00000000
00300000
00000000
,
20000000
00000000
00000000
00000000
31000000
00000000
00010000
00000000
00001000
00000000
00000100
00000010
00001000
00000000
00000000
00000000
,
00000002
00000000
00000013
00001000
00010000
00100000
01000000
00010000
,
20000000
00000000
01000000
30100000
00010000
01000000
00100000
00010000
,
00001000
00000010
00001000
00010000
00100000
00020000
00000000
00000000
,
00031000
00000010
00000001
00000100
00000010
00000100
00000001
00000010
,
00000100
00001000
00000010
00001000
00000100
00001000
00000000
00000000
,
00000001
00000100
00001000
00010000
01000000
10000000
00100000
10000000
,
00010000
00100000
01000000
10000000
00010000
01000000
00000000
00000000
,
00100000
01000000
00010000
00100000
01000000
00010000
00001000
00000100
,
00000001
00000010
00000100
00000010
00000001
00001000
00000000
00000001
,
00000010
00000010
00000010
00001000
00010000
00010000
00010000
00100000
,
10000000
10000000
10000000
01000000
00010000
00001000
00000100
00001000
,
00010000
01000000
10000000
00000000
00010000
00000000
01000000
00000000
,
01010000
00000000
00011000
00011000
,
00000110
00000000
00011000
00000000
01100000
00000000
00000000
01000000
,
00100000
00010000
00001000
00000010
00000001
00000100
00001000
00010000
,
00011000
00000000
01010000
00000000
10100000
00000000
00000000
00100000
,
10000000
00010000
01000000
10000000
01000000
00010000
00100000
01000000
,
01010000
00000000
00011000
00000000
00001100
00000000
00000000
00001000
,
00000100
00000001
00000010
00001000
00000010
00000001
00000100
00000010
,
00001010
00000000
00011000
00000000
00110000
00000000
00100000
01000000
,
00000000
00000000
01000000
00000000
10000000
00000000
00000000
00000000
00100000
10000000
00100000
10000000
00100000
10000000
00100000
00000000
,
01100000
00000000
00011000
00000000
00001010
00000000
00000000
00000010
,
00001000
00000100
00010000
00001000
01000000
00100000
10000000
01000000
,
01100000
00000000
00011000
00000000
00001001
00000000
00000000
00000001
,
00000100
00000010
00001000
00000100
00000010
00000001
00001000
00000010
,
00001010
00000000
00011000
00000000
10010000
00000000
00000000
00010000
,
00100000
01000000
00010000
00001000
00000100
00000001
00000010
00000100
,
00001100
00000000
00011000
00000000
00110000
00000000
00100000
01000000
,
00000000
01000000
00100000
01000000
00000000
01000000
00010000
00000000
00000000
00000000
00010000
00000100
00000000
00000000
00000000
00000000
,
00001000
00000000
00000100
00000000
00010000
00000000
00001000
00100000
00000000
00100000
01000000
00000000
10000000
00000000
00010000
00000000
,
01000000
00000000
00100000
00000000
00010000
00000000
00001000
00010000
00000000
00010000
01000000
00000000
10000000
00000000
00100000
00000000
,
00010000
00000000
00001000
00000000
00000010
00000000
00000001
00001000
00000000
00001000
00000010
00000000
00000100
00000000
00000001
00000000
,
00000010
00001000
00010000
00100000
00010000
00001000
00000010
00000001
,
00000100
00000000
00001000
00000000
00010000
00000000
01000000
10000000
00000000
10000000
00100000
00000000
01000000
00000000
00001000
00000000
,
00010000
00000000
01000000
00000000
10000000
00000000
00010000
01000000
00000000
01000000
00100000
00000000
00010000
00000000
00001000
00000000
,
00000010
00000000
00000001
00000000
00001000
00000000
00000010
00000100
00000000
00000100
00000001
00000000
00000010
00000000
00000100
00000000
,
00001000
00000010
00000100
00001000
00010000
01000000
10000000
00010000
,
01000000
00000000
00000000
00000000
01000000
00000000
00000000
00000000
01000000
00100000
00000000
00000000
00010000
00000000
00000000
00000000
,
00001000
00000000
00000000
00000000
00001000
00000000
00000000
00000000
00001000
00000010
00000000
00000000
00001000
00000000
00000000
00000000
,
00200000
00000000
00320000
00032000
,
00003020
00000032
00000023
00002030
,
00000000
00003000
00000000
00000000
;

//---------------dance-double - ----------------
#NOTES:
     dance-double:
     :
     Medium:
     8:
     0.378,0.389,0.000,0.137,0.000:
00000000
00000000
00000000
00000000
,
00000000
00000000
00000000
00000000
,
00000000
00000000
00000000
00000000
,
00000000
00000000
00000000
00000000
,
00010000
00001000
00010000
00000000
,
00001000
00010000
00000100
00000000
00000010
00001000
00010000
00000000
,
00001000
00010000
00001000
00000000
,
00010000
00000000
00001000
00000000
01000000
00010000
01000000
00000000
,
00001000
00010000
00001000
00000000
,
00000100
00000010
00010000
00000000
00001000
00100000
00010000
00000000
,
01000000
00000000
00100000
00000000
10000000
00000000
01000000
00010000
,
00000000
00002000
00000000
00003000
00000000
00000000
00000000
00000000
,
00010000
00100000
00001000
00010000
,
00001000
00000010
00010000
00001000
,
00100000
10000000
00100000
00010000
,
10000000
01000000
00010000
00001000
,
00010000
00100000
00001000
00010000
,
00001000
00000010
00010000
00001000
,
00100000
00100000
01000000
01000000
,
00010000
00001000
00000100
00000001
,
00002000
00000000
00000000
00000010
00003010
00000000
00000000
00000000
,
00000100
00001000
00010000
01000000
,
10000000
00000000
01000000
00100000
00000000
00100000
00010000
01000000
,
00000000
00001000
00000000
00020000
00000000
00000000
00030000
00000000
,
00000020
00000000
00000000
00001000
00001030
00000000
00000000
00000000
,
00000001
00000010
00000100
00001000
,
00000010
00000000
00000100
00001000
00000000
00001000
00010000
01000000
,
00000000
00010000
00000000
00001000
00000000
00000200
00000000
00000300
,
00000001
00000000
00000010
00000000
00001000
00000000
00000010
00000001
,
00000000
00000100
00000000
00001000
00000000
00010000
00000000
00000000
,
00010000
00000000
00100000
00000000
10000000
00000000
00100000
00020000
,
00000000
00031000
00000000
00000020
00000000
00000031
00000000
00000000
,
00000001
00000000
00000100
00000000
00001000
00000000
00010000
01000000
,
00000000
10000000
00000000
00100000
00000000
10000000
00000000
00000000
,
00100000
10000000
01000000
00010000
,
00001000
00000000
00000100
00000001
00000010
00000000
00000100
00001000
,
00000010
00000100
00000000
00000000
,
00000100
00000100
00001000
00001000
,
00010000
00001000
00100000
00000000
,
00010000
10000000
01000000
00000000
00100000
00010000
01000000
00000000
,
01000000
00100000
00010000
00000000
,
00001000
00000000
00000010
00000000
00000100
00001000
00000010
00001000
,
00000100
00010000
00001000
00000000
,
00010000
00001000
00010000
00000000
00100000
01000000
00010000
00000000
,
00010000
00000000
10000000
00000000
01000000
00000000
00010000
00001000
,
00000000
00001000
00010000
00000000
00000010
00001000
00000010
00001000
,
00000100
00000010
00000001
00000000
,
00000100
00000001
00000100
00000000
00000010
00001000
00000010
00000000
,
00000100
00001000
00010000
00000000
,
00100000
00000000
10000000
00000000
01000000
00010000
00001000
00000000
,
00000100
00000001
00000010
00000000
,
00000010
00000001
00000100
00000000
00000010
00001000
00000100
00000000
,
00000010
00000000
00001000
00000000
00010000
00000000
00100000
10000000
,
00000000
10000000
01000000
00000000
00000000
00000000
00010000
00000000
,
00001000
00010000
01000000
00010000
,
00001000
00000010
00010000
00001000
,
00010000
00100000
00001000
00010000
,
00000100
00000010
00000001
00000000
00000100
00000010
00001000
00000000
,
00000001
00000100
00001000
00010000
,
00100000
00010000
00001000
00010000
,
01000000
10000000
00100000
01000000
,
00010000
00100000
01000000
00000000
10000000
01000000
00100000
00000000
,
00020000
00000000
00130000
00001000
,
00000020
00000000
00001030
00010000
,
02000000
00000000
03100000
00010000
,
20000000
30200000
20300000
32000000
,
00000000
03000000
00000000
00000000
;

//---------------dance-double - ----------------
#NOTES:
     dance-double:
     :
     Easy:
     5:
     0.215,0.259,0.000,0.117,0.000: // measure 1
00000000
00000000
00000000
00000000
,  // measure 2
00000000
00000000
00000000
00000000
,  // measure 3
00000000
00000000
00000000
00000000
,  // measure 4
00000000
00000000
00000000
00000000
,  // measure 5
00010000
00001000
00010000
00000000
,  // measure 6
00000000
00000000
00000000
00000000
,  // measure 7
00001000
00010000
00001000
00000000
,  // measure 8
00000000
00000000
00000000
00000000
,  // measure 9
00010000
00001000
00010000
00000000
,  // measure 10
00000000
00000000
00000000
00000000
,  // measure 11
00001000
00000000
00001000
00000000
00002000
00000000
00000000
00003000
,  // measure 12
00000000
00000000
00000000
00000000
,  // measure 13
10000000
00000000
10000000
00000000
,  // measure 14
02000000
00000000
03000000
00000000
,  // measure 15
00010000
00000000
00010000
00000000
,  // measure 16
00002000
00000000
00003000
00000000
,  // measure 17
00000100
00000000
00000100
00000000
,  // measure 18
00000002
00000000
00000003
00000000
,  // measure 19
00000020
00000000
00000030
00000000
,  // measure 20
00000100
00000000
00000100
00000000
,  // measure 21
00010000
00000000
00001000
00000000
,  // measure 22
00000000
00100000
01000000
10000000
,  // measure 23
00010000
00000000
00000000
01000000
00000000
00000000
00000000
00001000
,  // measure 24
00000000
00000000
00000000
00000000
,  // measure 25
00001000
00000000
00010000
00000000
,  // measure 26
00000000
00000010
00000100
00000001
,  // measure 27
00001000
00000000
00000000
00000100
00000000
00000000
00000000
00010000
,  // measure 28
00000000
00000000
00000000
00000000
,  // measure 29
00001000
00000000
01000000
00000000
,  // measure 30
00100000
00000000
10000000
01000000
,  // measure 31
00100000
00000000
00001000
00000000
,  // measure 32
00010000
00000000
00000010
00000100
,  // measure 33
00000001
00000000
00000010
00000000
,  // measure 34
00000100
00010000
00001000
00000000
,  // measure 35
00100000
00000000
00010000
00000000
,  // measure 36
10000000
00000000
00100000
00000000
,  // measure 37
00010000
00010000
00000000
00000000
,  // measure 38
00000001
00000100
00001000
00010000
,  // measure 39
01000000
01000000
00100000
00000000
,  // measure 40
00100000
00000000
00001000
00010000
,  // measure 41
00000100
00000100
00000010
00000000
,  // measure 42
00000100
00000000
00010000
00001000
,  // measure 43
01000000
01000000
00100000
00000000
,  // measure 44
00010000
00000000
10000000
10000000
,  // measure 45
00100000
00100000
01000000
01000000
,  // measure 46
00010000
00000000
00010000
00000000
,  // measure 47
10000000
00010000
10000000
00000000
,  // measure 48
01000000
00000000
00010000
00100000
,  // measure 49
00001000
00010000
00001000
00000000
,  // measure 50
00000100
00000000
00000001
00000001
,  // measure 51
00001000
00000001
00001000
00000000
,  // measure 52
00000001
00000000
00000010
00000010
,  // measure 53
00000100
00000100
00000010
00000010
,  // measure 54
00000001
00000000
00000000
00000000
,  // measure 55
00001000
00000000
00000001
00000100
,  // measure 56
00000002
00000000
00000003
00000000
,  // measure 57
00000100
00000000
00001000
00010000
,  // measure 58
00002000
00000000
00003000
00000000
,  // measure 59
00010000
00000000
01000000
10000000
,  // measure 60
02000000
00000000
03000000
00000000
,  // measure 61
10000000
00000000
00100000
10000000
,  // measure 62
00200000
00000000
00310000
00000000
,  // measure 63
00001000
00000000
00000010
00001000
,  // measure 64
00000020
00000000
00000031
00000100
,  // measure 65
00002000
00000000
00013000
00100000
,  // measure 66
10000000
00010000
10000000
02000000
,  // measure 67
00000000
03000000
00000000
00000000
;

//---------------dance-single - ----------------
#NOTES:
     dance-single:
     :
     Medium:
     8:
     0.387,0.389,0.059,0.108,0.005:
0000
0000
0000
0000
,
0000
0000
0000
0000
,
0000
0000
0000
0000
,
0000
0000
0000
0000
,
1000
1000
0010
0000
,
0100
0000
0001
0000
0010
0100
0010
0000
,
0001
0001
1000
0000
,
1000
0000
0001
0000
0010
0100
0010
0000
,
0001
0001
1000
0000
,
0010
0000
0100
0000
0001
1000
0001
0000
,
0100
0000
0100
0000
0010
0000
1000
0100
,
0000
0000
0020
0000
0000
0000
0030
0000
0000
0000
0000
0001
1000
0000
0000
0000
,
1000
0100
0010
0000
0001
0000
0100
0000
,
0100
0010
1000
0000
0100
0000
0010
0000
,
0010
0001
0100
0000
0010
0000
1000
0000
,
0100
0010
0001
0100
,
0010
1000
0001
0000
1000
0000
0100
0000
,
0010
0001
0100
0000
0010
0000
1000
0000
,
0100
0010
0001
0000
0100
0000
0010
0000
,
1000
0001
1000
0010
,
0200
0000
0300
0100
0002
0000
0010
0000
,
1003
0000
1000
0000
0100
0010
0100
0000
,
1000
0000
1000
0010
0000
0010
0100
0001
,
0000
0010
0000
0010
0000
0000
0000
0000
,
0020
0000
0000
0130
2000
0000
0010
0000
,
3001
0100
0010
1000
,
0001
0000
0001
0010
0000
0010
0100
1000
,
0000
0100
0000
0100
0000
0020
0000
0000
,
0031
0000
0001
0000
1000
0010
1000
0000
,
0100
0000
0100
0000
0010
0001
0010
0000
,
0100
0000
1000
0000
0010
0100
0010
0000
,
1000
0000
0001
0000
0010
0100
0010
0000
,
0001
1000
0100
0010
,
0001
0001
1000
1000
,
0020
0030
0200
0300
,
1001
0000
1000
0010
,
0100
0001
0100
0000
0000
0000
0000
0000
,
0100
0100
0100
0100
,
0010
0010
1000
0000
,
0001
0000
0001
0000
0010
0100
0010
0000
,
0001
0001
1001
0000
,
1000
0000
1000
0000
0010
0100
0010
0000
,
1000
1000
1001
0000
,
0001
0000
0010
0000
0100
1000
0100
0000
,
0010
0000
0010
0000
0001
0000
0001
0100
,
0000
0010
0000
0000
1000
0000
1000
0000
,
0001
0001
0011
0000
,
0010
0000
0100
0000
1000
0010
1000
0000
,
0100
0100
1100
0100
,
0010
0000
0001
0100
0001
0000
0010
0000
,
0010
0011
0000
0010
,
0100
0000
1000
0010
1000
0000
0100
0000
,
0010
0000
0001
0000
1000
0000
0010
0100
,
0000
0002
0000
0000
0003
0000
0000
0000
,
0001
1000
0100
0000
0010
0000
0001
0000
,
0001
0100
1000
0000
0100
0000
0001
0000
,
0001
1000
0100
0000
0010
0000
0001
0000
,
0100
1000
0100
0010
,
0001
0100
1000
0000
0100
0000
0001
0000
,
0010
1000
0010
0000
0001
0000
1000
0000
,
0010
0100
0001
0000
0010
0000
0100
0000
,
1000
0010
0100
0000
0001
1000
0100
0000
,
0010
0000
0001
0100
,
1000
0000
0100
0010
,
0002
0000
0013
1000
,
0100
0001
0100
0020
,
0000
0030
0000
0000
;

//---------------dance-single - ----------------
#NOTES:
     dance-single:
     :
     Beginner:
     3:
     0.134,0.192,0.010,0.000,0.000:
0000
0000
0000
0000
,
0000
0000
0000
0000
,
0000
0000
0000
0000
,
0000
0000
0000
0000
,
1000
1000
1000
0000
,
0000
0000
0000
0000
,
1000
1000
1000
0000
,
0000
0000
0000
0000
,
1000
1000
1000
0000
,
0000
0000
0000
0000
,
0000
1000
1000
1000
,
0000
0000
0000
0000
,
1000
0000
0000
0000
,
0001
0000
0000
0000
,
0010
0000
0000
0000
,
0100
0000
0000
0000
,
1000
0000
0000
0000
,
0001
0000
0000
0000
,
1000
0000
0000
0000
,
0010
0000
0000
0000
,
0100
0000
0000
0000
,
0001
0000
0000
0000
,
0100
0000
0000
0000
,
0010
0000
0000
0000
,
1000
0000
0000
0000
,
0000
0000
0000
0000
,
0100
0000
0010
0000
,
0001
0000
0000
0000
,
1000
0000
1000
0000
,
0100
0000
0100
0000
,
0001
0000
0001
0000
,
0010
0000
0010
0000
,
1000
0000
1000
0000
,
0001
0000
0001
0000
,
0100
0000
0100
0000
,
0010
0000
0000
0000
,
1000
0000
0000
0000
,
1001
0000
0000
0000
,
1000
1000
1000
0000
,
0010
0000
0100
0000
,
0001
0001
0001
0000
,
0010
0000
0100
0000
,
1000
1000
1000
0000
,
0010
0000
0100
0000
,
0001
0001
0001
0000
,
1000
0000
0000
0000
,
0001
0001
0001
0000
,
0010
0000
0100
0000
,
1000
1000
1000
0000
,
0010
0000
0100
0000
,
0001
0001
0001
0000
,
0010
0000
0100
0000
,
1000
1000
1000
0000
,
0000
0000
0000
0000
,
1000
0000
0000
0000
,
0010
0000
0000
0000
,
0100
0000
0000
0000
,
1000
0000
0000
0000
,
0100
0000
0000
0000
,
0001
0000
0000
0000
,
0010
0000
0000
0000
,
0100
0000
0000
0000
,
1000
0000
0000
0000
,
1000
0000
0000
0000
,
1000
0000
0000
0000
,
0001
0000
0001
0000
;

//---------------dance-single - ----------------
#NOTES:
     dance-single:
     :
     Easy:
     5:
     0.201,0.259,0.020,0.049,0.000:
0000
0000
0000
0000
,
0000
0000
0000
0000
,
0000
0000
0000
0000
,
0000
0000
0000
0000
,
0001
1000
0001
0000
,
0000
0000
0000
0000
,
1000
0001
1000
0000
,
0000
0000
0000
0000
,
0001
1000
0001
0000
,
0000
0000
0000
0000
,
0100
0100
0010
0000
,
0000
0000
0000
0000
,
1000
0000
1000
0000
,
0001
0000
0001
0000
,
1000
0000
0001
0000
,
0100
0000
0100
0000
,
0001
0000
0001
0000
,
1000
0000
1000
0000
,
0001
0000
1000
0000
,
0200
0000
0000
0300
,
0010
0000
0001
0000
,
0000
0000
1000
1000
,
0010
0000
0000
0100
0000
0000
0000
0001
,
0000
0000
0000
0000
,
0010
0000
0100
0000
,
1000
0100
0001
0100
,
0010
0000
0000
0001
0000
0000
0000
0100
,
0000
0000
0000
0000
,
0100
0100
0010
0000
,
1000
0000
0001
0000
,
0010
0010
0100
0000
,
1000
0000
0001
0000
,
0100
0100
0010
0000
,
1000
0000
0001
0000
,
1000
0000
0100
0000
,
0010
0000
0000
0000
,
0002
0000
0000
0003
,
1001
0000
1001
0000
,
0001
0001
0001
0000
,
0001
1000
0001
1000
,
0100
0100
0100
0000
,
0010
0000
0001
0000
,
1000
1000
1000
0000
,
0010
0100
0010
0100
,
0001
0000
1000
0000
,
0100
0000
0020
0000
,
0031
0001
0001
0000
,
0100
0010
0100
0010
,
1000
0000
1000
0000
,
0100
0000
0010
0000
,
0001
0001
0001
0000
,
1000
0001
1000
0001
,
0100
0000
0010
0000
,
1000
0000
0000
0000
,
0100
0000
0100
0000
,
0010
0000
0010
0000
,
0100
0000
0010
0000
,
0001
0000
1000
0000
,
0100
0000
0100
0000
,
0010
0000
0010
0000
,
0001
0000
1000
0000
,
0010
0000
0010
0000
,
0100
0000
0100
0010
,
1000
0000
1000
0100
,
0002
0000
0103
0010
,
0001
1000
0001
0200
,
0000
0300
0000
0000
;
