#TITLE:One & Only;
#SUBTITLE:(고원);
#ARTIST:이달의 소녀 (LOOΠΔ);
#TITLETRANSLIT:;
#SUBTITLETRANSLIT:(Go Won);
#ARTISTTRANSLIT:LOONA;
#GENRE:K-POP;
#CREDIT:;
#BANNER:One & Only (Go Won).png;
#BACKGROUND:One & Only (Go Won)-bg.png;
#LYRICSPATH:;
#CDTITLE:;
#MUSIC:One & Only (Go Won).ogg;
#OFFSET:-0.376000;
#SAMPLESTART:35.012001;
#SAMPLELENGTH:15.000000;
#SELECTABLE:YES;
#DISPLAYBPM:110.000000;
#BPMS:0.000000=110.000000
,204.000000=107.000000
,205.000000=102.000000
,206.000000=99.500000
,207.000000=92.500000
;
#STOPS:
;
#BGCHANGES:-0.250=One & Only (Go Won).avi=1.000=0=0=0=StretchNoLoop==CrossFade_Fastest==,
99999=-nosongbg-=1.000=0=0=0 // don't automatically add -songbackground-
;
#KEYSOUNDS:;
#ATTACKS:;

//---------------dance-single - ----------------
#NOTES:
     dance-single:
     :
     Beginner:
     2:
     0.105528,0.128432,0.025183,0.067154,0.000000,88.000000,85.000000,3.000000,8.000000,0.000000,0.000000,0.105528,0.128432,0.025183,0.067154,0.000000,88.000000,85.000000,3.000000,8.000000,0.000000,0.000000:
// measure 0
0000
0000
0000
0000
,  // measure 1
0000
0000
0000
0000
,  // measure 2
0000
0000
0000
0000
,  // measure 3
0000
0000
0000
0000
,  // measure 4
1000
0000
0000
0000
,  // measure 5
1000
1000
1000
0000
,  // measure 6
0010
0000
0000
0000
,  // measure 7
0200
0000
0300
0000
,  // measure 8
0001
0000
0000
0000
,  // measure 9
0001
0001
0001
0000
,  // measure 10
0010
0000
0000
0000
,  // measure 11
0200
0000
0300
0000
,  // measure 12
2000
0000
3000
0000
,  // measure 13
0002
0000
0003
0000
,  // measure 14
0200
0000
0300
0000
,  // measure 15
0020
0000
0030
0000
,  // measure 16
1001
0000
0000
0000
,  // measure 17
0001
0000
0001
0000
,  // measure 18
0100
0100
0100
0000
,  // measure 19
0010
0000
0010
0000
,  // measure 20
1000
0000
0000
0000
,  // measure 21
1000
0000
1000
0000
,  // measure 22
0100
0100
0100
0000
,  // measure 23
0010
0000
0010
0000
,  // measure 24
0001
0000
0001
0000
,  // measure 25
1000
0000
1000
0000
,  // measure 26
0001
0000
0001
0000
,  // measure 27
0020
0000
0030
0000
,  // measure 28
0001
0000
0100
0100
,  // measure 29
0100
0000
1000
0000
,  // measure 30
1000
0000
0000
0000
,  // measure 31
0010
0000
0001
0000
,  // measure 32
1000
0000
0000
0000
,  // measure 33
0100
0100
0100
0000
,  // measure 34
0001
0000
0001
0000
,  // measure 35
0010
0000
1000
0000
,  // measure 36
1001
0000
0000
0000
,  // measure 37
1000
0000
1000
0000
,  // measure 38
0100
0100
0100
0000
,  // measure 39
0010
0000
0010
0000
,  // measure 40
0001
0000
0000
0000
,  // measure 41
0001
0000
0001
0000
,  // measure 42
0100
0100
0100
0000
,  // measure 43
0010
0000
0010
0000
,  // measure 44
1000
0000
1000
0000
,  // measure 45
0001
0000
0001
0000
,  // measure 46
1000
0000
1000
0000
,  // measure 47
0020
0000
0030
0000
,  // measure 48
1000
0000
1000
0000
,  // measure 49
0001
0000
0001
0000
,  // measure 50
1000
0000
1000
0000
,  // measure 51
1001
0000
0000
0000
;

//---------------dance-single - ----------------
#NOTES:
     dance-single:
     :
     Easy:
     4:
     0.167885,0.192648,0.033577,0.100731,0.000000,140.000000,136.000000,4.000000,12.000000,0.000000,0.000000,0.167885,0.192648,0.033577,0.100731,0.000000,140.000000,136.000000,4.000000,12.000000,0.000000,0.000000:
// measure 0
0000
0000
0000
0000
,  // measure 1
0000
0000
0000
0000
,  // measure 2
0000
0000
0000
0000
,  // measure 3
0000
0000
0000
0000
,  // measure 4
1000
0000
0100
0000
,  // measure 5
0001
0100
1000
1000
,  // measure 6
0010
0100
0001
1000
,  // measure 7
0200
0300
0020
0030
,  // measure 8
0001
0000
0100
0000
,  // measure 9
1000
0100
0001
0000
,  // measure 10
0010
0100
1000
0001
,  // measure 11
0200
0300
0020
0030
,  // measure 12
2000
0000
0000
3000
,  // measure 13
0002
0000
0000
0003
,  // measure 14
0020
0000
0000
0030
,  // measure 15
0200
0000
0000
0300
,  // measure 16
1001
0000
1000
0010
,  // measure 17
0100
0000
0001
1000
,  // measure 18
0100
0100
0001
0001
,  // measure 19
0100
0100
1000
0010
,  // measure 20
0100
0000
0001
0010
,  // measure 21
0100
0000
1000
0001
,  // measure 22
0100
0100
1000
1000
,  // measure 23
0100
0100
0001
0010
,  // measure 24
0100
1000
0010
0000
,  // measure 25
0100
0001
0010
0000
,  // measure 26
0100
1000
0010
0000
,  // measure 27
2000
3000
0002
0003
,  // measure 28
1001
0000
1000
0000
,  // measure 29
0100
0001
0100
0000
,  // measure 30
1000
0000
0010
0000
,  // measure 31
0100
0001
1000
0001
,  // measure 32
0010
0000
0001
0000
,  // measure 33
0100
1000
0100
0000
,  // measure 34
0001
0000
0010
0000
,  // measure 35
0100
1000
0001
0000
,  // measure 36
1001
0000
0001
0100
,  // measure 37
0010
0000
1000
0001
,  // measure 38
0010
0010
1000
1000
,  // measure 39
0010
0010
0001
0100
,  // measure 40
0010
0000
1000
0100
,  // measure 41
0010
0000
0001
1000
,  // measure 42
0010
0010
0001
0001
,  // measure 43
0010
0010
1000
0100
,  // measure 44
0010
0001
0100
0000
,  // measure 45
0010
1000
0100
0000
,  // measure 46
0010
0001
0100
0000
,  // measure 47
0002
0003
2000
3000
,  // measure 48
0010
1000
0100
0000
,  // measure 49
0010
0001
0100
0000
,  // measure 50
0010
1000
0100
0000
,  // measure 51
1001
0000
0000
0000
;

//---------------dance-single - ----------------
#NOTES:
     dance-single:
     :
     Medium:
     7:
     0.341766,0.349201,0.201462,0.151097,0.000000,285.000000,261.000000,24.000000,18.000000,0.000000,0.000000,0.341766,0.349201,0.201462,0.151097,0.000000,285.000000,261.000000,24.000000,18.000000,0.000000,0.000000:
// measure 0
0000
0000
0000
0000
,  // measure 1
0000
0000
0000
0000
,  // measure 2
0000
0000
0000
0000
,  // measure 3
0000
0000
0000
0000
,  // measure 4
1000
1010
0001
0011
,  // measure 5
1000
0000
1100
0000
0010
0001
1000
0000
,  // measure 6
0010
1000
0100
0000
0010
0001
0100
0000
,  // measure 7
0002
0013
0200
1300
,  // measure 8
0001
0011
1000
1010
,  // measure 9
0001
0000
0101
0000
0010
1000
0001
0000
,  // measure 10
0010
0001
0100
0000
0010
1000
0100
0000
,  // measure 11
2000
3010
0200
0301
,  // measure 12
2000
0100
3100
0010
,  // measure 13
0002
0100
0103
0010
,  // measure 14
2000
0001
3001
0010
,  // measure 15
0200
0010
0010
0310
,  // measure 16
1001
0000
0001
0100
0000
0010
1000
0001
,  // measure 17
1000
0000
0100
0001
0000
0100
1000
0000
,  // measure 18
0001
0100
0010
0100
0001
0010
0100
0000
,  // measure 19
1000
0010
0100
0010
1000
0001
0010
0000
,  // measure 20
1001
0000
1000
0100
0000
0010
0001
1000
,  // measure 21
0001
0000
0100
1000
0000
0100
0001
0000
,  // measure 22
1000
0100
0010
0100
1000
0010
0100
0000
,  // measure 23
0001
0010
0100
0010
0001
1000
0010
0000
,  // measure 24
1001
0000
0001
0100
0010
0000
1010
0000
,  // measure 25
1001
0000
0001
0010
0100
1000
0001
0000
,  // measure 26
1001
0000
1000
0100
0010
0000
0011
0000
,  // measure 27
0002
2003
3020
0130
,  // measure 28
1001
0000
0001
0100
1000
0000
0100
0000
,  // measure 29
0001
0000
0010
0100
1000
0000
0010
0100
,  // measure 30
0001
0010
1000
0010
,  // measure 31
0001
0100
0001
0000
1000
0100
1000
0000
,  // measure 32
0001
0000
1000
0100
0001
0000
0100
0000
,  // measure 33
1000
0000
0010
0100
0001
0000
0010
0100
,  // measure 34
1000
0010
0001
0010
,  // measure 35
1000
0100
1000
0000
0001
0100
0001
0000
,  // measure 36
1001
0000
1000
0010
0000
0100
0001
1000
,  // measure 37
0001
0000
0010
1000
0000
0010
0001
0000
,  // measure 38
1000
0010
0001
0010
1000
0001
0010
0000
,  // measure 39
0001
0100
1000
0100
0001
1000
0100
0000
,  // measure 40
1001
0000
0001
0010
0000
0100
1000
0001
,  // measure 41
1000
0000
0010
0001
0000
0010
1000
0000
,  // measure 42
0001
0010
1000
0010
0001
1000
0010
0000
,  // measure 43
1000
0100
0001
0100
1000
0001
0100
0000
,  // measure 44
1001
0000
1000
0100
0001
0100
1000
0000
,  // measure 45
1010
0000
0100
0001
0010
0100
1000
0000
,  // measure 46
1001
0000
0001
0010
1000
0010
0001
0000
,  // measure 47
2001
3020
0230
0301
,  // measure 48
1001
0000
0001
0100
1000
0100
0001
0000
,  // measure 49
0011
0000
0100
1000
0010
0100
0001
0000
,  // measure 50
1001
0000
1000
0010
0001
0010
1000
0000
,  // measure 51
1002
0203
0320
2030
,  // measure 52
3001
0000
0000
0000
;

//---------------dance-single - ----------------
#NOTES:
     dance-single:
     :
     Hard:
     11:
     0.472477,0.460530,0.293799,0.209857,0.151097,394.000000,359.000000,35.000000,25.000000,0.000000,0.000000,0.472477,0.460530,0.293799,0.209857,0.151097,394.000000,359.000000,35.000000,25.000000,0.000000,0.000000:
// measure 0
0000
0000
0000
0000
,  // measure 1
0000
0000
0000
0000
,  // measure 2
0000
0000
0000
0000
,  // measure 3
0000
0000
0000
0000
,  // measure 4
1010
0000
0101
0000
0001
1000
1100
0000
,  // measure 5
0010
0001
0100
1000
0100
0001
1001
0000
,  // measure 6
1000
0100
0001
0100
0010
0100
1000
0002
,  // measure 7
0000
0103
0010
2000
0000
3010
0100
0001
,  // measure 8
0011
0000
1100
0000
1000
0001
0101
0000
,  // measure 9
0010
1000
0100
0001
0100
1000
1001
0000
,  // measure 10
0001
0100
1000
0100
0010
0100
0001
2000
,  // measure 11
0000
3100
0010
0002
0000
0013
0100
1000
,  // measure 12
0001
0100
0010
0100
1000
0100
0002
1000
,  // measure 13
1003
0100
0010
0100
0001
0100
2000
0001
,  // measure 14
3001
0100
0010
1000
0100
0010
0002
1000
,  // measure 15
1003
0100
0010
0001
0200
0010
0310
0000
,  // measure 16
2001
0000
0000
0000
3010
0000
0100
0000
0001
0010
0000
0001
0000
0010
0100
0000
,  // measure 17
1000
0000
0010
0000
0001
0000
0010
0000
1000
0000
0001
0000
0011
0000
0000
0010
,  // measure 18
0100
0000
1000
0000
0010
0000
0001
0000
0010
0000
1000
0000
1100
0000
0000
0100
,  // measure 19
0010
0001
0100
1000
0100
0001
0011
0000
,  // measure 20
1002
0000
0000
0000
0013
0000
0100
0000
1000
0010
0000
1000
0000
0010
0100
0000
,  // measure 21
0001
0000
0010
0000
1000
0000
0010
0000
0001
0000
1000
0000
1010
0000
0000
0010
,  // measure 22
0100
0000
0001
0000
0010
0000
1000
0000
0010
0000
0001
0000
0101
0000
0000
0100
,  // measure 23
0010
1000
0100
0001
0100
1000
1010
0000
,  // measure 24
1001
0000
0000
0001
0010
0000
1000
0000
0010
0000
0001
0000
1000
0000
0010
0000
,  // measure 25
0100
0000
0001
0100
0000
0001
1000
0000
0100
0000
0010
0000
0011
0000
0000
0000
,  // measure 26
1001
0000
0000
1000
0010
0000
0001
0000
0010
0000
1000
0000
0100
0000
0010
0000
,  // measure 27
0011
0000
0000
0001
0100
0000
0000
0100
0010
0000
1000
0000
1001
0000
0000
0000
,  // measure 28
0001
0100
1000
0100
0002
0000
0013
1000
,  // measure 29
0002
0000
0103
1000
0001
0100
0110
0000
,  // measure 30
1000
0100
0001
0100
2000
0000
3010
0001
,  // measure 31
2000
0000
3100
0001
1000
0100
0110
0000
,  // measure 32
0001
0100
1000
0010
2000
0000
3100
0001
,  // measure 33
0010
1000
0002
0000
0103
1000
1010
0000
,  // measure 34
1000
0100
0001
0010
0002
0000
0103
1000
,  // measure 35
0010
0001
2000
0000
3100
0001
0011
0000
,  // measure 36
2001
0000
0000
0000
3010
0000
0001
0000
0010
0100
0000
0010
0000
1000
0001
0000
,  // measure 37
1000
0000
0100
0000
0001
0000
0100
0000
1000
0000
0001
0000
0100
0000
0010
1000
,  // measure 38
0010
0000
1000
0000
0100
0000
0001
0000
1000
0000
0010
0000
0001
0000
0100
0001
,  // measure 39
0100
1000
0001
0010
1000
0100
0110
0000
,  // measure 40
1002
0000
0000
0000
0013
0000
1000
0000
0010
0100
0000
0010
0000
0001
1000
0000
,  // measure 41
0001
0000
0100
0000
1000
0000
0100
0000
0001
0000
1000
0000
0100
0000
0010
0001
,  // measure 42
0010
0000
0001
0000
0100
0000
1000
0000
0001
0000
0010
0000
1000
0000
0100
1000
,  // measure 43
0100
0001
1000
0010
0001
0100
0110
0000
,  // measure 44
1001
0000
0000
1000
0100
0000
0010
0000
1000
0000
0001
0000
0100
0000
0010
0000
,  // measure 45
0011
0000
0001
1000
0000
0010
1000
0000
0010
0000
0001
0000
1000
0000
0100
0000
,  // measure 46
0001
0000
1000
0001
1000
0000
0100
0000
0001
0000
1000
0000
0010
0000
0001
0000
,  // measure 47
1001
0000
0000
1000
0010
0000
0000
0010
0001
0000
1000
0000
0100
0000
0001
0000
,  // measure 48
1001
0000
0000
0001
0100
0000
0010
0000
0001
0000
1000
0000
0100
0000
0010
0000
,  // measure 49
1010
0000
1000
0001
0000
0010
0001
0000
0010
0000
1000
0000
0001
0000
0100
0000
,  // measure 50
1000
0000
0001
1000
0001
0000
0100
0000
1000
0000
0001
0000
0010
0000
1000
0000
,  // measure 51
1002
0000
0023
0000
0230
0000
2300
0002
,  // measure 52
0000
3003
0000
0000
;
