#TITLE:Ocean Dream;
#SUBTITLE:(Radio Edit);
#ARTIST:Mhammed El Alami & Ben Samy;
#TITLETRANSLIT:;
#SUBTITLETRANSLIT:;
#ARTISTTRANSLIT:;
#GENRE:Trance;
#CREDIT:;
#BANNER:banner.png;
#BACKGROUND:background.png;
#LYRICSPATH:;
#CDTITLE:cdtitle.png;
#MUSIC:Ocean Dream (Radio Edit).ogg;
#OFFSET:0.646000;
#SAMPLESTART:168.047668;
#SAMPLELENGTH:20.869568;
#SELECTABLE:YES;
#BPMS:0.000000=138.000000
,64.000000=69.000000
,66.000000=138.000000
,194.000000=69.000000
,258.000000=138.000000
,318.000000=69.000000
,320.000000=138.000000
;
#STOPS:
;
#BGCHANGES:;
#KEYSOUNDS:;
#ATTACKS:;

//---------------dance-single - ----------------
#NOTES:
     dance-single:
     :
     Challenge:
     13:
     0.442088,0.526702,0.096466,0.239234,0.322195,802.000000,777.000000,25.000000,62.000000,0.000000,0.000000,0.442088,0.526702,0.096466,0.239234,0.322195,802.000000,777.000000,25.000000,62.000000,0.000000,0.000000:
// measure 0
0000
0000
0000
0000
,  // measure 1
0000
0000
0000
0000
,  // measure 2
0000
0000
0000
0000
,  // measure 3
0000
0000
0000
0000
,  // measure 4
0000
0000
0000
0000
,  // measure 5
0001
0000
0010
0000
0000
0000
0001
1000
0000
0000
0100
0000
0000
0000
1000
0010
,  // measure 6
0000
0000
1000
0000
0000
0000
0001
0100
0000
0000
0010
0000
0000
0000
1000
0100
,  // measure 7
0000
0000
1000
0000
0000
0000
0001
0100
0000
0000
0010
0000
0000
0000
0100
0001
,  // measure 8
0000
0000
1000
0000
0000
0000
0100
0010
0200
0000
0000
0000
0000
0000
0000
0000
,  // measure 9
0310
0000
1001
0000
1000
0001
0101
0000
,  // measure 10
0100
0000
0110
0000
0010
1000
1100
0000
,  // measure 11
1000
0000
1001
0000
0010
0001
0101
0000
,  // measure 12
0100
0000
0110
0000
0010
1000
1001
0000
,  // measure 13
1000
0000
0000
0100
0000
0000
1000
0000
1000
0000
0000
0001
0000
0000
0010
0000
,  // measure 14
0010
0000
0000
0100
0000
0000
1000
0000
1000
0000
0000
0001
0000
0000
0100
0000
,  // measure 15
0100
0000
0000
0010
0000
0000
0100
0000
0100
0000
0000
0001
0000
0000
1000
0000
,  // measure 16
2000
0000
0000
0000
0000
0000
0000
0000
0001
0000
0000
0000
3001
0000
0001
1000
0001
0000
0000
0000
0000
0000
0010
0000
0100
0000
0000
0000
0010
0000
0000
0000
,  // measure 17
0001
0000
0000
1000
0010
0000
1000
0000
0001
0000
0000
0010
0100
0000
0010
0000
,  // measure 18
0001
0000
0000
1000
0010
0000
1000
0000
0001
0000
0000
0010
0100
0000
1000
0000
,  // measure 19
0001
0000
0000
1000
0100
0000
0010
0000
0100
0000
0000
1000
0001
0000
0010
0000
,  // measure 20
1000
0000
0010
0000
0100
0000
1000
0000
0001
0000
0000
0100
0001
0000
1000
0000
,  // measure 21
0010
0000
0000
0100
0010
0000
0100
0000
1000
0000
0000
0100
0001
0000
1000
0000
,  // measure 22
0001
0000
0000
0100
0010
0000
1000
0010
1000
0000
0000
0100
0010
0000
0001
0000
,  // measure 23
1000
0000
0000
0010
1000
0000
0001
1000
0001
0000
0100
0000
1000
0000
0100
0000
,  // measure 24
0002
0000
0000
1000
1003
0001
0100
0001
,  // measure 25
1000
0000
0000
0100
0010
0000
0100
0000
1000
0000
0001
0000
1000
0000
0010
0000
,  // measure 26
0100
0000
0000
0001
0100
0000
0001
0000
0010
0000
1000
0000
0010
0000
0001
0000
,  // measure 27
1000
0000
0000
0100
0010
0000
0100
0000
1000
0000
0001
0000
0100
0000
0010
0000
,  // measure 28
0100
1000
0100
0001
1000
0100
0010
0001
,  // measure 29
0100
0000
0000
0001
0010
0000
0100
0000
1000
0000
0001
0000
0100
0000
0010
0000
,  // measure 30
1000
0000
0000
0100
0010
0000
0001
0000
1000
0000
0000
0001
0100
0000
0010
0000
,  // measure 31
1000
0000
0000
0100
0010
0000
0100
0000
2000
0000
0000
0000
0000
0000
0000
0000
,  // measure 32
0001
0100
3001
1000
,  // measure 33
0001
1000
0100
0010
,  // measure 34
0100
0010
0001
0100
,  // measure 35
0001
0000
0100
0000
0010
0000
0100
0010
,  // measure 36
1000
0001
0010
0100
1000
0000
0010
0000
,  // measure 37
1000
0010
0100
0001
,  // measure 38
0100
0001
1000
0001
,  // measure 39
1000
0000
0001
0000
0010
0000
0100
1000
,  // measure 40
0001
0000
0100
0000
1000
0000
0100
0000
0001
0000
0000
1000
0000
0000
0100
0010
,  // measure 41
0100
0010
0000
0010
0000
0000
0100
1000
0100
1000
0000
1000
0000
0000
0001
0100
,  // measure 42
0001
0100
0000
0100
0000
0000
0001
0010
0001
0010
0000
0010
0000
0000
0100
1000
,  // measure 43
0100
1000
0000
1000
0000
0000
0001
0100
0001
0100
0000
0100
0000
0000
0010
1000
,  // measure 44
0010
1000
0000
1000
0000
0000
0100
0010
0100
0010
0000
0010
0000
0000
0001
1000
,  // measure 45
0010
1000
0000
1000
0000
0000
0001
0100
0010
1000
0000
1000
0000
0000
0010
1000
,  // measure 46
0001
0010
0000
0010
0000
0000
0100
0000
1002
0000
0000
1000
0000
0000
0100
0000
,  // measure 47
0100
0000
0000
0100
0000
0000
0010
0000
0010
0000
2000
0000
3000
0000
2000
0000
,  // measure 48
3000
0000
2000
0000
3000
0000
2003
0000
3200
0020
0030
0020
0030
2000
3000
2000
,  // measure 49
3000
0002
0003
0002
0003
0020
0030
0000
0320
0000
0000
0000
0000
0000
0000
0000
,  // measure 50
0000
0000
0032
0000
,  // measure 51
0000
0000
0203
0000
,  // measure 52
0000
0000
2300
0000
,  // measure 53
0000
0000
3020
0000
,  // measure 54
0000
0000
0032
0000
,  // measure 55
0000
0000
2003
0000
,  // measure 56
0000
0000
3200
0000
2300
3000
0002
0003
,  // measure 57
2000
3000
0002
0003
0200
0300
0020
0030
,  // measure 58
0200
0000
0300
0010
0100
0001
0010
0100
2000
0000
3000
0000
0200
0000
0300
0000
,  // measure 59
2000
3000
0020
0030
0200
0300
0002
0003
,  // measure 60
2000
0000
3000
0001
1000
0010
1000
0100
0020
0000
0130
0000
2000
0000
3001
0000
,  // measure 61
0200
0301
2000
3010
2000
3100
0020
0031
,  // measure 62
0200
0000
0310
0100
0001
0001
1000
0001
0020
0000
0031
0000
0200
0000
0310
0000
,  // measure 63
2000
3001
0020
0031
0200
0310
2000
3100
,  // measure 64
0020
0000
0031
0010
0100
0100
1000
0001
1001
0000
0000
0000
0001
0000
0000
0000
,  // measure 65
1000
1000
0010
0010
,  // measure 66
0100
0100
0001
0100
,  // measure 67
0010
1000
0001
0100
,  // measure 68
0010
0100
0001
1000
0100
0000
0100
0000
,  // measure 69
1000
1000
0001
0001
,  // measure 70
0010
0010
0001
0010
,  // measure 71
0100
1000
0100
0010
,  // measure 72
0100
0010
0001
1000
0010
0100
0001
0000
,  // measure 73
1000
0100
0010
0000
0100
1000
0001
0000
,  // measure 74
0100
0001
0010
0000
0100
0010
0001
0000
,  // measure 75
0010
0100
1000
0000
0001
1000
0010
0000
,  // measure 76
1000
0100
0010
0100
1000
0001
0100
0000
,  // measure 77
0010
1000
0100
0000
0010
0100
1000
0000
,  // measure 78
0001
0010
0100
0000
0010
0001
0100
0000
,  // measure 79
0010
0000
0000
0000
1000
0000
0000
0000
0001
0000
0000
0000
1000
0000
0000
0000
0001
0000
0000
0100
0000
0000
0001
0000
0010
0000
0001
1000
0001
1000
0001
0000
,  // measure 80
1000
0000
0000
0100
0000
0000
0010
0000
0001
0000
0000
0010
0000
0000
0100
0000
,  // measure 81
1000
0000
0000
0100
0000
0000
0010
0000
0100
0000
0000
1000
0000
0000
0001
0000
,  // measure 82
0100
0000
0000
0010
0000
0000
1000
0000
0001
0000
0000
0100
0000
0000
0001
0000
,  // measure 83
1000
0000
0000
0001
0000
0000
0100
0000
0010
0000
1000
0000
0100
0000
1000
0000
,  // measure 84
0001
0000
0000
1000
0000
0000
0010
0000
0100
0000
0000
0001
0000
0000
0010
0000
,  // measure 85
0100
0000
0000
0010
0000
0000
0001
0000
0010
0000
0000
0100
0000
0000
1000
0000
,  // measure 86
0100
0000
0000
1000
0000
0000
0010
0000
0100
0000
0000
0001
0000
0000
1000
0000
,  // measure 87
0010
0000
0000
1000
0000
0000
0001
0000
1000
0000
0100
0000
0010
0000
0001
0000
,  // measure 88
0010
0000
0000
0011
0000
0000
0001
0000
0100
0000
0000
0110
0000
0000
0010
0000
,  // measure 89
0100
0000
0000
0110
0000
0000
0010
0000
1000
0000
0000
1010
0000
0000
1000
0000
,  // measure 90
0100
0000
0000
0110
0000
0000
0100
0000
0010
0000
0000
0110
0000
0000
0010
0000
,  // measure 91
0001
0000
0000
0011
0000
0000
0001
0000
0010
0000
0100
0000
1000
0000
0100
0000
,  // measure 92
0010
0000
0000
0110
0000
0000
0001
0000
1000
0000
0000
1010
0000
0000
0010
0000
,  // measure 93
0100
0000
0000
0110
0000
0000
0100
0000
0001
0000
0000
0101
0000
0000
0001
0000
,  // measure 94
0010
0000
0000
0110
0000
0000
0100
0000
1000
0000
0000
1100
0000
0000
1000
0000
,  // measure 95
0100
0000
0000
0110
0000
0000
0100
0000
0010
0000
0001
0000
1000
0000
0100
0000
,  // measure 96
0010
0000
0100
0000
1000
0000
0010
0000
0100
0000
0000
0100
0000
0000
0100
0000
,  // measure 97
0010
0000
1000
0000
0001
0000
0010
0000
0100
0000
0000
0100
0000
0000
0100
0000
,  // measure 98
0010
0000
0001
0000
0010
0000
0100
0000
1000
0000
0000
1000
0000
0000
1000
0000
,  // measure 99
0100
1000
0010
0100
0001
0010
0100
1000
,  // measure 100
0001
0000
1000
0000
0010
0000
1000
0000
0001
0000
0000
0001
0000
0000
0001
0000
,  // measure 101
0010
0000
0001
0000
0100
0000
0010
0000
1000
0000
0000
1000
0000
0000
1000
0000
,  // measure 102
0010
0000
0100
0000
0001
0000
1000
0000
0100
0000
0000
0100
0000
0000
0100
0000
,  // measure 103
0010
0000
0000
0100
0000
0000
0010
0000
0001
0000
0010
0000
0100
0000
1000
0000
,  // measure 104
0001
0000
1000
0000
0100
0000
0010
0000
0100
0000
0000
1000
0000
0000
0010
0000
,  // measure 105
0100
0000
0001
0000
0010
0000
0001
0000
1000
0000
0000
0001
0000
0000
0100
0000
,  // measure 106
0001
0000
0010
0000
0100
0000
0010
0000
0001
0000
0000
1000
0000
0000
0001
0000
,  // measure 107
1000
0100
1000
0010
1000
0100
0010
0001
,  // measure 108
1000
0000
0010
0000
1000
0000
0001
0000
0010
0000
0000
0100
0000
0000
0010
0000
,  // measure 109
0100
0000
0010
0000
0001
0000
0100
0000
0001
0000
0000
1000
0000
0000
0100
0000
,  // measure 110
2000
3000
0002
0003
,  // measure 111
2000
0000
3000
0001
1000
0100
0010
0001
,  // measure 112
1000
0000
0000
1000
0000
0000
0001
1000
0001
0000
0000
1000
0000
0000
0001
1000
,  // measure 113
0001
0000
0000
1000
0000
0000
0001
1000
0001
0000
0000
1000
0000
0000
0001
1000
,  // measure 114
0001
0000
0000
1000
0000
0000
0001
1000
0001
0000
0000
1000
0000
0000
0001
1000
,  // measure 115
0001
0000
0000
1000
0000
0000
0001
0000
0010
0000
0100
0000
1000
0000
0100
0000
,  // measure 116
0010
0000
0000
0010
0000
0000
0001
0010
0001
0000
0000
0010
0000
0000
0001
0010
,  // measure 117
0001
0000
0000
0010
0000
0000
0001
0010
0001
0000
0000
0010
0000
0000
0001
0010
,  // measure 118
0001
0000
0000
0010
0000
0000
0001
0010
0001
0000
0000
0010
0000
0000
0001
0010
,  // measure 119
0001
0000
0000
0010
0000
0000
0001
0000
0010
0000
0100
0000
1000
0000
0001
0000
,  // measure 120
0200
0010
0010
0310
,  // measure 121
0020
0100
0100
0130
,  // measure 122
0002
1000
1000
1003
,  // measure 123
2000
0001
0001
3001
,  // measure 124
1000
0010
1000
0010
1000
0010
0100
0000
,  // measure 125
0001
0010
0001
0010
0001
0010
0100
0000
,  // measure 126
1000
0000
0000
0010
0000
0000
0001
0000
0010
0000
0000
1000
0000
0000
0100
0000
,  // measure 127
0001
0000
0000
0100
0000
0000
1000
0000
0100
0000
0010
0000
0001
0000
1000
0000
,  // measure 128
0220
0000
0000
0000
,  // measure 129
0000
0000
0000
0000
,  // measure 130
0330
0000
0000
0000
;
