#VERSION:0.83;
#TITLE:朧 (kamome sano remix);
#SUBTITLE:;
#ARTIST:kamome sano feat. Kuroa*;
#TITLETRANSLIT:Oboro (kamome sano remix);
#SUBTITLETRANSLIT:;
#ARTISTTRANSLIT:;
#GENRE:;
#ORIGIN:;
#CREDIT:;
#BANNER:Oboro (kamome sano remix).png;
#BACKGROUND:Oboro (kamome sano remix)-bg.png;
#PREVIEWVID:;
#JACKET:Oboro (kamome sano remix)-jacket.png;
#CDIMAGE:;
#DISCIMAGE:;
#LYRICSPATH:;
#CDTITLE:;
#MUSIC:Oboro (kamome sano remix).ogg;
#OFFSET:2.626000;
#SAMPLESTART:55.826000;
#SAMPLELENGTH:15.000000;
#SELECTABLE:YES;
#DISPLAYBPM:39.000000:155.000000;
#BPMS:0.000=77.500,
25.500=155.000,
125.000=310.000,
126.000=155.000,
198.000=38.750,
202.250=155.000,
202.750=77.500,
203.000=38.750,
203.750=155.000,
204.250=77.500,
204.500=38.750,
207.000=155.000,
239.000=77.500,
247.000=155.000,
251.000=310.000,
259.000=77.500;
#STOPS:25.500=0.194,
125.000=0.194;
#DELAYS:;
#WARPS:;
#TIMESIGNATURES:0.000=4=4;
#TICKCOUNTS:0.000=4;
#COMBOS:0.000=1;
#SPEEDS:0.000=1.000=0.000=0;
#SCROLLS:0.000=1.000;
#FAKES:;
#LABELS:0.000=Song Start;
#BGCHANGES:;
#KEYSOUNDS:;
#ATTACKS:
;

//---------------dance-single - INTENSIVE----------------
#NOTEDATA:;
#CHARTNAME:INTENSIVE;
#STEPSTYPE:dance-single;
#DESCRIPTION:INTENSIVE;
#CHARTSTYLE:;
#DIFFICULTY:Challenge;
#METER:15;
#RADARVALUES:0.707285,1.139954,0.016898,0.228118,0.958939,586.000000,584.000000,2.000000,27.000000,0.000000,0.000000,0.000000,0.000000,0.000000,0.707285,1.139954,0.016898,0.228118,0.958939,586.000000,584.000000,2.000000,27.000000,0.000000,0.000000,0.000000,0.000000,0.000000;
#CREDIT:INTENSIVE;
#DISPLAYBPM:39.000000:155.000000;
#NOTES:
// measure 0
0000
0000
0000
0000
,  // measure 1
0000
0000
0000
0000
,  // measure 2
0000
0000
0000
0000
,  // measure 3
1000
0000
0000
0000
0000
0000
0000
0000
0010
0000
0000
0000
0000
0000
0000
0000
0100
0000
0000
0100
0000
0000
0100
0000
0010
0000
0000
0000
1000
0000
0001
0000
,  // measure 4
0010
0000
0000
0100
0000
0000
0010
0001
0100
0000
0000
0000
0010
0000
1000
0000
0100
0000
0000
0000
0010
0000
0100
1000
0000
0000
0010
0000
0100
0000
0010
0000
,  // measure 5
0100
0000
0000
0000
0000
0000
0000
0000
0001
0000
0001
0000
0100
0000
0000
0000
0001
0100
0001
0100
0001
0100
0001
0100
0001
0100
0001
0100
0001
0100
0001
0100
,  // measure 6
0010
1000
0010
1000
0010
1000
0010
1000
0010
1000
0010
1000
0002
0003
0000
0000
0001
0000
0100
0000
0000
0000
0010
0000
0000
0000
1000
0000
0100
0000
0000
0000
,  // measure 7
1000
0010
0000
0100
0000
0001
0010
0100
1000
0000
0010
0100
0001
0000
0010
0100
,  // measure 8
1000
0000
0001
1000
0000
1000
0001
0000
1000
0100
0000
0010
0000
0001
0100
0000
,  // measure 9
0001
0010
0000
0100
0000
1000
0010
0100
0001
0000
0010
0100
1000
0000
0010
0100
,  // measure 10
0001
0000
1000
0001
0000
0001
1000
0000
0001
0010
0000
0100
0000
1000
0010
0000
,  // measure 11
1000
0100
0000
0010
0000
0001
0100
0010
1000
0000
0100
0010
0001
0000
0100
0010
,  // measure 12
1000
0000
0001
1000
0000
1000
0001
0000
1000
0010
0000
0100
0000
0001
0010
0000
,  // measure 13
0001
0100
0000
0010
0000
1000
0100
0010
0100
1000
0010
0100
0001
0010
0100
0010
,  // measure 14
0001
0000
1000
0001
0000
0000
0000
0000
0000
0000
0100
0000
0100
0000
0001
0000
,  // measure 15
0010
0100
1000
0010
0200
0000
1000
0000
,  // measure 16
0010
0000
0301
0010
0200
0000
0301
0100
,  // measure 17
1000
0010
0100
0001
0010
0000
0010
0000
,  // measure 18
0100
0000
1000
0010
1000
0010
1000
0010
1000
0000
0100
0000
0100
0000
1000
0000
,  // measure 19
0010
0100
0001
0010
0200
0000
0001
0000
,  // measure 20
0010
0000
1300
0010
0200
0000
1300
0000
,  // measure 21
0100
0000
0001
0010
0001
0000
0100
0000
0010
0000
0000
0000
0010
0000
0000
0000
,  // measure 22
0100
0001
0100
0001
0100
0001
0100
0001
0010
0000
0100
0000
1000
0000
0010
0000
,  // measure 23
0100
0000
0001
0010
0001
0000
1000
0010
1000
0000
0100
0000
0010
0000
0001
0000
,  // measure 24
0100
0000
0010
1000
0010
0000
0100
0001
0100
0000
0010
0000
1000
0000
0100
0000
,  // measure 25
0020
0000
0032
0000
0103
0010
1000
0010
,  // measure 26
0200
0000
0302
0000
0103
0010
1000
0100
,  // measure 27
0010
0000
0001
0100
0001
0000
1000
0100
1000
0000
0010
0000
0100
0000
0001
0000
,  // measure 28
0010
0000
0100
1000
0100
0000
0010
0001
0010
0000
0001
0000
0100
0000
1000
0000
,  // measure 29
0100
0000
0010
0000
1000
0000
0100
0000
0020
0000
0000
0030
0020
0000
0000
0000
,  // measure 30
0230
0000
0000
0000
0300
0000
0000
0000
1000
0000
1000
0000
0001
1000
0001
0000
,  // measure 31
0010
0000
0100
0000
0000
0000
0010
0000
0200
0300
0000
0000
0000
0000
0000
0000
0010
0000
0000
0000
0001
0000
0000
0000
0100
0000
0000
0000
0001
0000
0010
0000
,  // measure 32
0000
0100
0000
0010
0001
0000
0100
0000
0010
0000
1000
0000
0100
0000
1000
0010
,  // measure 33
0000
0100
0000
0010
1000
0000
0100
0000
0010
0000
0001
0000
0100
0000
0001
1000
,  // measure 34
0000
0001
1000
0000
0100
0000
0010
0000
0001
0100
0001
0100
0010
0000
1000
0100
,  // measure 35
0000
0010
0000
0100
1000
0000
0010
0000
0100
0000
0001
0000
0010
0000
0001
0100
,  // measure 36
0000
0010
0000
0100
0001
0000
0010
0000
0100
0000
1000
0000
0010
0000
1000
0100
,  // measure 37
0000
0010
0000
0100
1000
0000
0010
0000
0100
0000
0001
0000
0010
0000
0001
1000
,  // measure 38
0000
0001
1000
0000
0010
0000
0100
0000
0001
0010
0001
0010
0100
0000
1000
0010
,  // measure 39
0000
0100
0010
0000
1000
0000
0100
0000
0010
0000
0001
0000
0100
0000
0010
0000
,  // measure 40
0100
0000
0001
0000
0010
0000
0100
0000
1000
0010
1000
0010
0100
0001
0100
0001
,  // measure 41
0010
0001
0010
0001
1000
0100
1000
0100
0010
0001
0000
0100
0000
0010
1000
0000
,  // measure 42
0100
1000
0000
0010
0000
0100
0001
0010
0200
0000
0000
0320
0000
0000
0031
0000
,  // measure 43
0200
0000
0000
0320
0000
0000
1030
0000
0100
1000
0000
0010
0000
0100
0001
0000
,  // measure 44
0010
0001
0000
0100
0000
0010
1000
0100
0010
0001
0010
0001
0100
0001
0100
0010
,  // measure 45
1000
0100
1000
0010
0000
0100
0001
0000
0010
0001
0000
0100
0000
0010
1000
0000
,  // measure 46
0100
1000
0000
0010
0000
0100
0001
0010
0100
0000
1000
0010
1000
0000
0001
0100
,  // measure 47
0001
0000
0010
0001
0000
1000
0100
1000
0010
1000
0000
0100
0000
0010
0001
0000
,  // measure 48
0100
0001
0000
0010
0000
0100
1000
0010
0100
0000
0001
0010
0100
0000
1000
0010
,  // measure 49
0100
0001
0010
0001
0100
1000
0100
0001
2000
0000
0000
0000
3002
0000
0000
0000
,  // measure 50
0203
0000
0000
0000
0000
0000
0000
0000
0320
0000
0000
0000
0000
0000
0000
0000
0130
0000
0000
0000
0001
0000
0000
0000
0010
0000
0000
0000
0000
0000
0000
0000
0200
0000
0000
0000
0000
0000
0000
0000
0000
0000
0000
0000
0300
0000
0000
0000
1100
0000
0000
0000
0000
0000
0000
0000
0200
0000
0000
0010
0000
0000
0000
0000
,  // measure 51
0000
0000
0000
0000
0310
0000
0000
0000
0011
0000
0000
0000
0001
0000
0100
0000
0010
0000
0100
0000
0001
0000
0010
0100
0000
0000
1000
0000
0010
0000
0100
0000
1000
0000
0100
0000
0010
0000
1000
0001
0000
0000
0000
0000
0100
0000
0001
0000
0010
0000
0000
0000
0000
0000
0000
0000
0001
0000
0000
0000
0000
0000
0000
0000
,  // measure 52
0100
0000
0001
0010
0000
0100
0000
1000
0010
0000
0100
0000
0010
0000
1000
0000
,  // measure 53
0100
0000
1000
0010
0000
0100
0000
0001
0010
0000
0100
0000
0010
0000
0001
0000
,  // measure 54
0100
0000
0001
0010
0000
0100
1000
0000
0010
0000
0100
0000
0001
1000
0001
1000
,  // measure 55
0010
0000
0100
0001
0000
0010
0000
0100
1000
0000
0010
0000
0100
0000
0001
0000
,  // measure 56
0010
0000
0001
0100
0000
0010
0000
1000
0100
0000
0010
0000
0100
0000
1000
0000
,  // measure 57
0010
0000
1000
0100
0000
0010
0000
0001
0100
0000
0010
0000
0100
0000
0001
0000
,  // measure 58
0010
0000
0001
0100
0000
0010
1000
0000
0100
0000
0010
0000
0001
1000
0001
1000
,  // measure 59
0100
0000
0010
0001
0000
0100
0010
0000
1000
0000
0100
0000
0020
0000
0030
0000
,  // measure 60
0010
0001
0100
0010
0200
0000
0000
0000
0300
0010
0100
0001
2000
0000
3000
0000
,  // measure 61
1000
1000
0001
0100
0020
0000
0000
0000
0000
0000
0000
0000
0000
0000
0000
0000
,  // measure 62
0000
0000
0000
0000
,  // measure 63
0000
0000
0000
0000
,  // measure 64
0000
0030
0000
0000
;

//---------------dance-single - ----------------
#NOTEDATA:;
#CHARTNAME:;
#STEPSTYPE:dance-single;
#DESCRIPTION:;
#CHARTSTYLE:;
#DIFFICULTY:Hard;
#METER:11;
#RADARVALUES:0.500893,0.787111,0.202771,0.245015,0.236566,415.000000,391.000000,24.000000,29.000000,0.000000,0.000000,0.000000,0.000000,0.000000,0.500893,0.787111,0.202771,0.245015,0.236566,415.000000,391.000000,24.000000,29.000000,0.000000,0.000000,0.000000,0.000000,0.000000;
#CREDIT:;
#DISPLAYBPM:39.000000:155.000000;
#NOTES:
0000
0000
0000
0000
,
0000
0000
0000
0000
,
0000
0000
0000
0000
,
0100
0000
0000
0000
0010
0000
0100
0001
0000
0000
0000
0000
0000
0000
0000
0000
0010
0000
0000
0000
0100
0000
0010
0001
0000
0000
0000
0000
1000
0000
0010
0000
,
0100
0000
0000
0000
0001
0000
0010
0100
0000
0000
0001
0000
0100
0000
1000
0000
0010
0000
0100
0000
0001
0000
0010
0100
0000
0000
1000
0000
0010
0000
0100
0000
,
0110
0000
0000
0000
0101
0001
0010
0100
1000
0000
0001
0000
0100
0000
0010
0000
,
1000
0100
0010
0001
0001
0010
0100
1000
,
0010
0000
0101
0000
0001
0100
1000
0100
,
0001
0000
0010
0100
0000
0000
0000
0000
1000
0000
0100
0000
0010
0000
0001
0000
,
0100
0000
1010
0000
1000
0100
0001
0100
,
1000
0000
0010
0100
0000
0000
0000
0000
0001
0000
0100
0000
0010
0000
1000
0000
,
0100
0000
0011
0000
0001
0010
1000
0010
,
0001
0000
0100
0010
0000
0000
0000
0000
1000
0000
0010
0000
0100
0000
0001
0000
,
0010
0000
1100
0000
1000
0010
0001
0010
,
1000
0000
0100
0010
0000
0000
0000
0000
0001
0000
0010
0000
0100
0000
1000
0000
,
0100
1000
0001
0000
0011
0000
0110
0000
,
2100
0000
3001
0000
1000
0100
0010
0001
,
0010
0001
1000
0000
1100
0000
0110
0000
,
0010
0000
0001
0100
0001
0000
1000
0000
0010
0000
1000
0000
0100
0000
0010
0000
,
0001
0010
0100
0000
1100
0000
0110
0000
,
0021
0000
0130
0100
1000
0000
0100
0000
,
0010
0000
0001
0100
0001
0000
0010
0000
0100
0000
1000
0000
0010
0000
0100
0000
,
1000
0100
0010
1000
0100
1000
0010
0000
,
0100
0001
0010
0000
0100
1000
0100
0010
,
0001
0000
0100
0000
0001
1000
0010
0000
,
1000
0001
0010
0000
0011
0000
0110
0000
,
1100
0000
0110
0000
0001
0100
0010
0000
,
1000
0100
0010
0000
0001
0100
0001
0010
,
0100
0000
0001
0000
0100
0010
0001
0100
,
1000
0100
0010
1000
1010
0000
0110
0000
,
0101
0000
0000
0000
0100
0001
0010
0100
,
1000
0001
0000
1000
0001
0000
0000
0000
0100
0000
0001
0000
0100
0000
0010
2000
,
0000
0000
0000
0000
3100
0000
0000
0000
0001
0000
0100
0000
0001
0000
1000
0200
,
0000
0000
0310
0000
0010
0001
1000
0010
,
0100
0010
1000
0100
0010
0001
1000
0010
,
1000
0000
0000
0000
1001
0000
0000
0000
0100
0000
1000
0000
0100
0000
0010
0002
,
0000
0000
0000
0000
0103
0000
0000
0000
1000
0000
0100
0000
1000
0000
0001
0200
,
0000
0000
0000
0000
0310
0000
0000
0000
0010
0000
1000
0000
0001
0000
0010
0100
,
0000
0000
0010
0000
0001
0000
0100
0000
0010
0000
1000
0000
0001
0000
0010
0100
,
0000
1000
0010
1000
0002
0000
0203
0000
,
0310
1000
0100
0010
0002
0000
0000
0000
,
2000
3003
2000
3100
,
0002
0000
0000
0000
0103
0000
0000
0000
0010
0000
0000
1000
0000
0000
0001
0000
,
0010
0000
0000
0001
0000
0000
1000
0000
0002
0000
0000
0000
0103
0000
0000
0000
,
2000
0000
3100
0000
0010
0001
0100
0010
,
0100
0000
0000
0001
0000
0000
0010
0000
2000
0000
0000
0000
3100
0000
0000
0000
,
0002
0000
0103
0000
0010
0100
0010
1000
,
0100
1000
0010
0100
0002
0000
0103
0000
,
2000
0000
3100
0000
0001
0100
0010
1000
,
0100
0010
0001
0100
0020
0000
0000
0000
,
2030
0000
0000
0000
0000
0000
0000
0000
0000
0000
0000
0000
0000
0000
0000
0000
0000
0000
0000
0000
0000
0000
0000
0000
0000
0000
0000
0000
0000
0000
0000
0000
3200
0000
0000
0000
0000
0000
0000
0000
0000
0000
0000
0000
0000
0000
0000
0000
0310
0000
0000
0000
0000
0000
0000
0000
0010
0000
0000
0010
0000
0000
0000
0000
,
0000
0000
0010
0000
0001
0000
0100
0010
1000
0001
0010
0001
0100
0000
1000
0000
0100
0000
0001
0000
0010
0000
0100
1000
0100
0000
0000
0000
1000
0000
0000
0000
,
0100
0000
0010
0002
0000
0000
0000
0000
0103
0000
0000
0000
1000
0000
0100
0000
,
1000
0000
0001
0200
0000
0000
0000
0000
0310
0000
0000
0000
0010
0000
1000
0000
,
0001
0000
0010
0100
0000
0000
0010
0000
0001
0000
0100
0000
0010
0000
1000
0000
,
0001
0000
0010
0001
0000
0000
0000
0000
1001
0000
0000
0000
0100
0000
0001
0000
,
0100
0000
0010
2000
0000
0000
0000
0000
3100
0000
0000
0000
0001
0000
0100
0000
,
0001
0000
1000
0200
0000
0000
0000
0000
0310
0000
0000
0000
0010
0000
0001
0000
,
1000
0000
0010
0100
0000
0000
0010
0000
1000
0000
0100
0000
0010
0000
0001
0000
,
1000
0000
0010
0100
0000
0000
0001
0000
0010
0000
0001
0000
2000
0000
0000
0000
,
3010
1000
0010
0100
0002
0000
0000
0000
1003
0000
0110
0000
0020
0000
0000
0000
,
0130
1000
0100
0010
0002
0000
0000
0000
0000
0000
0000
0000
0000
0000
0000
0000
,
0000
0000
0000
0000
,
0000
0000
0000
0000
,
0000
0003
0000
0000
;
