#VERSION:0.83;
#TITLE:Nu Beat;
#SUBTITLE:;
#ARTIST:三垣敦史;
#TITLETRANSLIT:;
#SUBTITLETRANSLIT:;
#ARTISTTRANSLIT:Atsushi Migaki;
#GENRE:;
#ORIGIN:;
#CREDIT:;
#BANNER:Nu Beat.png;
#BACKGROUND:Nu Beat-bg.png;
#PREVIEWVID:;
#JACKET:Nu Beat-jacket.png;
#CDIMAGE:;
#DISCIMAGE:;
#LYRICSPATH:;
#CDTITLE:;
#MUSIC:Nu Beat.ogg;
#OFFSET:-0.480000;
#SAMPLESTART:3.176037;
#SAMPLELENGTH:11.314285;
#SELECTABLE:YES;
#BPMS:0.000=175.000;
#STOPS:;
#DELAYS:;
#WARPS:;
#TIMESIGNATURES:0.000=4=4,
36.000=5=4,
41.000=4=4,
53.000=3=4,
56.000=4=4,
68.000=5=4,
73.000=4=4,
85.000=3=4,
88.000=4=4;
#TICKCOUNTS:0.000=4;
#COMBOS:0.000=1;
#SPEEDS:0.000=1.000=0.000=0;
#SCROLLS:0.000=1.000;
#FAKES:;
#LABELS:0.000=Song Start;
#BGCHANGES:;
#KEYSOUNDS:;
#ATTACKS:
;

//---------------dance-single - ----------------
#NOTEDATA:;
#CHARTNAME:;
#STEPSTYPE:dance-single;
#DESCRIPTION:;
#CHARTSTYLE:;
#DIFFICULTY:Hard;
#METER:14;
#RADARVALUES:0.703761,0.752818,0.332860,0.221907,0.371694,444.000000,414.000000,30.000000,20.000000,0.000000,0.000000,0.000000,0.000000,0.000000,0.703761,0.752818,0.332860,0.221907,0.371694,444.000000,414.000000,30.000000,20.000000,0.000000,0.000000,0.000000,0.000000,0.000000;
#CREDIT:;
#NOTES:
// measure 0
0000
0000
0000
0000
,  // measure 1
0000
0000
0000
0000
,  // measure 2
0001
0000
1000
0000
0001
0010
0000
0010
0100
0000
1000
0000
0001
0000
0000
0000
,  // measure 3
1000
0000
0001
1000
0010
0000
1000
0001
0000
1000
0100
0000
0010
0100
0010
0000
,  // measure 4
0001
0000
1000
0000
0001
0010
0000
0010
0100
0000
1000
0000
0001
0000
0000
0000
,  // measure 5
1000
0000
0100
0010
0100
0000
1000
0100
0010
0001
1000
0010
0100
0001
0010
0100
,  // measure 6
1000
0000
0001
0000
1000
0100
0000
0100
0010
0000
0001
0000
1000
0000
0000
0000
,  // measure 7
0001
0000
1000
0001
0100
0000
0001
1000
0000
0001
0010
0000
0100
0010
0100
0000
,  // measure 8
1000
0000
0001
0000
1000
0100
0000
0100
0010
0000
0001
0000
1000
0000
0000
0000
,  // measure 9
1010
0000
0000
1010
0000
0000
1000
0000
0001
0000
0010
0000
0100
0000
1001
0000
,  // measure 10
0000
0000
0000
0000
0001
0000
0000
0001
0010
0000
0000
0010
1000
0000
0000
1000
,  // measure 11
0100
0000
0000
0110
0000
0000
1000
0000
0100
0000
0010
0000
0001
0000
2002
0000
,  // measure 12
3003
0000
0000
0000
1000
0000
0000
1000
0010
0000
0000
0010
0001
0000
0000
0001
,  // measure 13
0100
0000
0000
0110
0000
0000
0001
0000
0100
0000
0010
0000
1000
0000
0001
0010
,  // measure 14
0100
0000
0000
0000
0000
0000
0100
0000
0000
0000
0000
0000
0100
0000
0000
0000
1000
0000
0000
0000
0000
0000
0100
0000
0000
0000
0000
1000
0000
0000
0000
0000
,  // measure 15
0100
0000
0000
0000
0000
0010
0000
0000
0000
0000
0000
0000
0000
0000
0000
0000
0000
0000
0000
0000
0000
0000
0000
0000
0000
0000
0000
0000
0000
0000
0000
0000
,  // measure 16
0220
0000
0000
0000
0000
0000
0000
0000
0000
0000
0000
0000
0000
0000
0000
0330
0000
0000
0000
0000
0000
0000
0000
0000
0000
0000
0000
0000
0000
0000
0000
0000
,  // measure 17
0000
0002
2003
3200
0302
0023
2030
3002
,  // measure 18
0003
0000
0000
0000
1000
0000
0000
1000
0100
0000
0000
0100
0001
0000
0000
0001
,  // measure 19
0010
0000
0000
0110
0000
0000
0001
0000
0010
0000
0100
0000
1000
0000
2002
0000
,  // measure 20
3003
0000
0000
0000
0001
0000
0000
0001
0100
0000
0000
0100
1000
0000
0000
1000
,  // measure 21
0010
0000
0000
0110
0000
0000
1000
0000
0010
0000
0100
0000
0001
0000
0010
0000
,  // measure 22
1000
0001
0100
1000
0001
0100
1000
0001
,  // measure 23
0010
0000
0000
0000
0000
0000
0000
0000
0000
0000
0000
0000
0000
0000
0000
0000
1000
0000
0000
0000
0000
0000
0000
0000
0000
0000
0000
0000
0000
0000
0000
0000
0001
0000
0000
0000
0000
0000
0000
0000
0000
0000
0010
0000
0000
0000
0000
0000
0000
0000
0000
0000
0000
0100
0000
0000
0000
0000
0000
0000
0000
0000
0000
0000
,  // measure 24
1000
0000
0000
0000
0000
0000
0000
0000
0000
0000
0000
0000
0000
0000
0000
0000
0001
0000
0000
0000
0000
0000
0000
0000
0000
0000
0000
0000
0000
0000
0000
0000
1000
0000
0000
0000
0000
0000
0000
0000
0000
0000
0100
0000
0000
0000
0000
0000
0000
0000
0000
0000
0000
0010
0000
0000
0000
0000
0000
0000
0000
0000
0000
0000
,  // measure 25
0001
1000
0010
0001
0010
1000
0100
0000
,  // measure 26
1200
0000
0010
0000
0301
0100
0000
0010
,  // measure 27
0001
1000
0010
0001
1000
0100
0001
0010
,  // measure 28
0100
0000
1000
0000
0010
0000
1000
0000
0100
0000
0010
0100
0000
0010
0001
0000
,  // measure 29
0100
0000
0001
0000
0010
0000
0001
0000
0100
0000
0010
0100
0000
0010
1000
0000
,  // measure 30
0001
0010
1000
0001
1000
0010
0001
0000
,  // measure 31
1000
0010
0001
1000
0001
0010
1000
0000
,  // measure 32
1010
1010
0011
0011
,  // measure 33
0101
0101
1100
1100
,  // measure 34
1000
0000
0001
0000
0010
0000
1000
0000
0010
0100
0010
0000
1000
0000
1000
0000
,  // measure 35
0010
0100
0010
0001
0010
0001
1000
0000
,  // measure 36
0001
0000
1000
0000
0010
0000
0001
0000
0010
0100
0010
0000
0001
0000
0010
0000
,  // measure 37
0100
0001
0010
0100
2000
0000
3002
0000
,  // measure 38
1003
0000
0010
0000
0001
0000
1000
0000
0100
0010
0100
0000
0001
0000
0001
0000
,  // measure 39
1000
0100
0001
1000
0010
0001
1000
0000
,  // measure 40
0001
0000
0010
0000
0100
0000
0010
0000
1000
0010
1000
0000
0010
0000
0100
0000
,  // measure 41
1000
0010
0100
0001
2000
0000
3002
0000
,  // measure 42
1003
0000
0001
0000
0010
0000
1000
0000
0010
0100
0010
0000
1000
0000
1000
0000
,  // measure 43
0010
0000
0010
0100
0000
0100
1000
0000
0010
0000
1000
0000
1000
0100
0000
0100
,  // measure 44
0010
0000
0001
0000
1000
0000
0100
0000
0010
1000
0010
0000
0100
0000
1000
0000
,  // measure 45
0010
0001
1000
0100
0110
0100
0101
0000
,  // measure 46
0001
0000
1000
0000
0010
0000
0001
0000
0010
0100
0010
0000
0001
0000
0001
0000
,  // measure 47
0010
0000
0010
0100
0000
0100
0001
0000
0010
0000
0001
0000
0001
0100
0000
0100
,  // measure 48
0010
0000
0000
0000
0000
0010
0010
0010
,  // measure 49
1000
0010
0100
0001
1000
0001
1000
0001
,  // measure 50
0011
0010
0100
0010
1000
0010
0100
1000
,  // measure 51
0001
0100
0010
0100
1000
1100
0100
0010
,  // measure 52
0011
0010
0100
0010
1000
0010
0100
0001
,  // measure 53
1000
0100
0010
0001
1000
0010
0100
0000
,  // measure 54
1010
0010
0100
0010
0001
0010
0100
0001
,  // measure 55
1000
0100
0010
0100
0001
0101
0100
0010
,  // measure 56
1010
0010
0100
0010
0001
0010
0100
1000
,  // measure 57
1100
0100
0101
0100
0001
0001
1000
1000
,  // measure 58
2002
0000
0000
0000
,  // measure 59
3003
0000
0000
0000
;

//---------------dance-single - ----------------
#NOTEDATA:;
#CHARTNAME:;
#STEPSTYPE:dance-single;
#DESCRIPTION:;
#CHARTSTYLE:;
#DIFFICULTY:Medium;
#METER:11;
#RADARVALUES:0.553182,0.589162,0.221907,0.199716,0.138692,349.000000,329.000000,20.000000,18.000000,0.000000,0.000000,0.000000,0.000000,0.000000,0.553182,0.589162,0.221907,0.199716,0.138692,349.000000,329.000000,20.000000,18.000000,0.000000,0.000000,0.000000,0.000000,0.000000;
#CREDIT:;
#NOTES:
// measure 0
0000
0000
0000
0000
,  // measure 1
0000
0000
0000
0000
,  // measure 2
1000
0000
0100
0000
0010
0000
0000
0010
0000
0000
0010
0000
0001
0000
0000
0000
,  // measure 3
0010
0000
0100
0000
1000
0000
0000
1000
0000
0000
1000
0000
0001
0000
0100
0000
,  // measure 4
0010
0000
0100
0000
0001
0000
0000
0001
0000
0000
0001
0000
1000
0000
0000
0000
,  // measure 5
0001
0010
0100
1000
0010
0001
0010
1000
,  // measure 6
0001
0000
0010
0000
0100
0000
0000
0100
0000
0000
0100
0000
1000
0000
0000
0000
,  // measure 7
0100
0000
0010
0000
0001
0000
0000
0001
0000
0000
0001
0000
1000
0000
0010
0000
,  // measure 8
0100
0000
0010
0000
1000
0000
0000
1000
0000
0000
1000
0000
0001
0000
0000
0000
,  // measure 9
1001
0000
0000
0011
0000
0000
0010
0000
0001
0000
0100
0000
0010
0000
0110
0000
,  // measure 10
0000
0110
1010
1100
,  // measure 11
0010
0000
0000
0100
0000
0000
1000
0000
0001
0000
0100
0000
0010
0000
0200
0000
,  // measure 12
0000
0300
0110
0000
0101
0000
0011
0000
,  // measure 13
0100
0000
0000
0010
0000
0000
0001
0000
0100
0000
0010
0000
1000
0000
0000
0000
,  // measure 14
0010
0000
0000
0000
0000
0000
0100
0000
0000
0000
0000
0000
0001
0000
0000
0000
0010
0000
0000
0000
0000
0000
0001
0000
0000
0000
0000
0010
0000
0000
0000
0000
,  // measure 15
0100
0000
0000
0000
0000
1000
0000
0000
0000
0000
0000
0000
0000
0000
0000
0000
0000
0000
0000
0000
0000
0000
0000
0000
0000
0000
0000
0000
0000
0000
0000
0000
,  // measure 16
2002
0000
3003
0000
,  // measure 17
0000
0001
1000
0100
0010
0001
0100
0010
,  // measure 18
0000
0110
0101
0011
,  // measure 19
0100
0000
0000
0010
0000
0000
0001
0000
1000
0000
0010
0000
0100
0000
0020
0000
,  // measure 20
0000
0030
0110
0000
1010
0000
1100
0000
,  // measure 21
0010
0000
0000
0100
0000
0000
1000
0000
0010
0000
0100
0000
0001
0000
0010
0000
,  // measure 22
0100
1000
0000
0010
0001
0000
0100
1000
,  // measure 23
0001
0000
0000
0000
0000
0000
0000
0000
0000
0000
0000
0000
0000
0000
0000
0000
0100
0000
0000
0000
0000
0000
0000
0000
0000
0000
0000
0000
0000
0000
0000
0000
0010
0000
0000
0000
0000
0000
0000
0000
0000
0000
0100
0000
0000
0000
0000
0000
0000
0000
0000
0000
0000
0001
0000
0000
0000
0000
0000
0000
0000
0000
0000
0000
,  // measure 24
0010
0000
0000
0000
0000
0000
0000
0000
0000
0000
0000
0000
0000
0000
0000
0000
0100
0000
0000
0000
0000
0000
0000
0000
0000
0000
0000
0000
0000
0000
0000
0000
0010
0000
0000
0000
0000
0000
0000
0000
0000
0000
0001
0000
0000
0000
0000
0000
0000
0000
0000
0000
0000
0100
0000
0000
0000
0000
0000
0000
0000
0000
0000
0000
,  // measure 25
0010
1000
0010
0100
0001
0010
0100
0000
,  // measure 26
2000
0000
0001
0000
3010
0100
0000
0010
,  // measure 27
1000
0100
0010
0100
1000
0001
1000
0100
,  // measure 28
0010
0000
0001
0000
0010
0000
0100
0000
1000
0000
0000
0001
0000
0000
1000
0000
,  // measure 29
0000
0000
1000
0000
0010
0000
0100
0000
0001
0000
0000
1000
0000
0000
0001
0000
,  // measure 30
0010
0000
0010
0200
1000
0000
0310
0000
,  // measure 31
0100
0000
0100
0020
0001
0000
0100
0000
,  // measure 32
0032
0010
0010
1000
,  // measure 33
0100
0100
1000
0010
,  // measure 34
1003
0010
0100
1000
0000
1000
0100
0010
,  // measure 35
1000
0000
0100
0010
0000
0100
1000
0000
,  // measure 36
0020
0000
0100
0000
1030
0001
0010
0100
,  // measure 37
1000
0000
0001
0100
0020
0000
0230
0000
,  // measure 38
0301
0010
0100
0002
0100
0000
0103
0000
,  // measure 39
0100
0010
0100
2000
0001
0000
3001
0000
,  // measure 40
0002
0000
0100
0000
0010
0000
1003
0002
,  // measure 41
0100
1000
0010
0013
,  // measure 42
0001
0010
0100
1000
0001
1000
0010
0010
,  // measure 43
1000
0000
0000
0001
0000
0000
1000
0000
0001
0000
0010
0000
0000
0100
0000
0000
,  // measure 44
1000
0000
0010
0000
1000
0100
0010
0100
,  // measure 45
0010
0010
0001
0010
0002
0000
2003
0000
,  // measure 46
3001
0100
0010
1000
0001
1000
0100
0100
,  // measure 47
1000
0000
0000
0001
0000
0000
1000
0000
0001
0000
0100
0000
0000
0010
0000
0000
,  // measure 48
1000
0000
0000
0000
0000
1000
0010
1000
,  // measure 49
0001
1000
0001
1000
0100
1000
0100
1000
,  // measure 50
0100
0100
0010
0001
0100
0010
1000
0100
,  // measure 51
0010
0010
0100
1000
0001
1001
0000
0000
,  // measure 52
0001
0001
0100
0010
1000
0100
0010
0001
,  // measure 53
1000
1000
0010
0100
0001
1000
0100
0000
,  // measure 54
0010
0010
0100
1000
0001
0100
0010
1000
,  // measure 55
0100
0100
0010
0001
1000
1001
0000
0000
,  // measure 56
1000
1000
0100
0010
0001
0100
0010
1000
,  // measure 57
1010
0000
1010
0000
0100
0001
0010
0100
,  // measure 58
2000
0000
0000
0000
,  // measure 59
3000
0000
0000
0000
;

//---------------dance-single - ----------------
#NOTEDATA:;
#CHARTNAME:;
#STEPSTYPE:dance-single;
#DESCRIPTION:;
#CHARTSTYLE:;
#DIFFICULTY:Easy;
#METER:8;
#RADARVALUES:0.321765,0.425506,0.155335,0.588053,0.033286,203.000000,189.000000,14.000000,53.000000,0.000000,0.000000,0.000000,0.000000,0.000000,0.321765,0.425506,0.155335,0.588053,0.033286,203.000000,189.000000,14.000000,53.000000,0.000000,0.000000,0.000000,0.000000,0.000000;
#CREDIT:;
#NOTES:
0000
0000
0000
0000
,
0000
0000
0000
0000
,
1000
1000
0001
0001
,
0010
1000
0100
0001
,
0010
0010
0100
0100
,
0010
0001
0100
0100
,
0001
0001
1000
1000
,
0100
0001
0010
1000
,
0100
0100
0010
0010
,
0200
0000
0000
0300
0000
0000
0000
1001
,
0000
2000
3020
0230
,
0310
0000
0010
0000
1000
0000
0001
0002
,
0000
0003
2000
0000
3200
0000
0320
0000
,
0130
0100
1000
0001
,
0100
0010
1000
0100
,
0010
0010
0000
0000
,
2002
0000
3003
0000
,
0000
0001
0001
0000
1000
0000
0001
1000
,
0000
0002
0203
0320
,
0130
0000
0100
0000
0001
0000
1000
2000
,
0000
3000
0002
0000
0023
0000
0230
0000
,
0310
0010
0001
1000
,
0001
0001
0000
1000
1000
0000
0001
0001
,
0000
0000
0000
0000
0000
0000
0000
0000
0000
0000
0000
0000
0000
0000
0000
0000
0000
0000
0000
0000
0000
0000
0000
0000
0000
0000
0000
0000
0000
0000
0000
0000
0000
0000
0000
0000
0000
0000
0000
0000
0000
0000
1000
0000
0000
0000
0000
0000
0000
0000
0000
0000
0000
1000
0000
0000
0000
0000
0000
0000
0000
0000
0000
0000
,
1000
0000
0000
0000
0000
0000
0000
0000
0000
0000
0000
0000
0000
0000
0000
0000
0000
0000
0000
0000
0000
0000
0000
0000
0000
0000
0000
0000
0000
0000
0000
0000
0000
0000
0000
0000
0000
0000
0000
0000
0000
0000
0010
0000
0000
0000
0000
0000
0000
0000
0000
0000
0000
0010
0000
0000
0000
0000
0000
0000
0000
0000
0000
0000
,
0010
0110
0101
1001
,
2000
0000
0000
0000
0000
3001
0000
0001
,
0020
2030
3200
0302
,
0023
0000
0000
0000
0100
0000
0000
0000
0100
0000
0000
0130
0000
0000
0000
0000
,
0002
0000
0000
0000
1000
0000
0000
0000
1000
0000
0000
1003
0000
0000
0000
0000
,
0020
0000
0000
0230
0000
0000
0001
0000
,
0302
0000
0000
2003
0000
0000
0010
0000
,
3020
0000
0000
0000
,
0000
0000
0000
0230
,
0302
0000
0000
2003
0000
0000
3200
0000
,
0302
0000
0000
0023
0000
0000
2030
0000
,
0002
0000
0000
0000
,
0000
0000
3000
0003
,
2000
0000
0000
3002
0000
0000
0203
0000
,
2300
0000
0000
3020
0000
0000
0032
0000
,
2003
0000
0000
0000
0000
0000
0000
3001
,
0000
0000
1000
1000
,
2000
0100
3200
0001
,
0302
0010
0013
1000
,
0001
0010
0100
0100
,
0010
0001
1000
1000
,
0002
0010
0023
1000
,
2030
0100
3200
0301
,
1000
0000
0000
1000
,
1000
0000
1000
0000
1000
0001
1000
0000
,
1001
0001
0100
0010
,
1000
0000
0001
0000
0000
1001
0000
0000
,
1001
1000
0100
0010
,
0001
0100
0010
1000
,
1001
0001
0010
0100
,
1000
0000
0001
0000
0000
1001
0000
0000
,
1001
1000
0010
0100
,
0101
1100
1000
0001
,
2002
0000
0000
0000
,
3003
0000
0000
0000
;

//---------------dance-single - ----------------
#NOTEDATA:;
#CHARTNAME:;
#STEPSTYPE:dance-single;
#DESCRIPTION:;
#CHARTSTYLE:;
#DIFFICULTY:Beginner;
#METER:4;
#RADARVALUES:0.188621,0.261850,0.077667,0.133144,0.000000,119.000000,112.000000,7.000000,12.000000,0.000000,0.000000,0.000000,0.000000,0.000000,0.188621,0.261850,0.077667,0.133144,0.000000,119.000000,112.000000,7.000000,12.000000,0.000000,0.000000,0.000000,0.000000,0.000000;
#CREDIT:;
#NOTES:
0000
0000
0000
0000
,
0000
0000
0000
0000
,
1000
0000
0001
0000
,
1000
1000
1000
1000
,
1000
0000
0010
0000
,
0100
0000
0001
0000
,
0001
0000
1000
0000
,
0001
0001
0001
0001
,
0001
0000
1000
0000
,
0002
0000
0000
0000
0003
0000
0000
0001
,
0000
0001
0001
0001
,
0000
0100
0000
1000
,
0000
0010
0010
0010
,
0000
0001
0000
1000
,
1000
0000
0100
0000
,
0010
0010
0000
0000
,
1001
0000
0000
0000
,
0000
0001
0001
0001
,
0001
0001
0001
0001
,
0000
0010
0000
1000
,
0000
0100
0100
0100
,
0000
0001
0000
1000
,
1000
0000
0001
0000
,
1000
0000
0100
0100
,
0100
0000
0010
0010
,
0010
0000
0001
0000
,
2000
0000
0000
3000
,
2000
3000
0020
0030
,
0100
0100
0100
0000
,
0010
0010
0010
0000
,
0200
0000
0300
0000
,
0002
0000
0003
0000
,
2000
0000
0000
0000
,
0000
0000
0000
3000
,
1000
0000
0100
0000
,
0001
0000
0100
0000
,
2000
0000
0000
0000
,
0000
3000
1000
1000
,
1000
0000
0010
0000
,
0001
0000
0010
0000
,
2000
0000
3000
0000
,
0002
0003
0001
0001
,
0001
0000
0010
0000
,
1000
0000
0100
0000
,
0002
0000
0000
0000
,
0000
0003
0001
0001
,
0001
0000
0100
0000
,
1000
0000
0010
0000
,
0001
0000
0000
0001
,
0001
0001
0001
0000
,
1001
0000
0000
0000
,
0010
0000
0000
0000
,
0110
0000
0000
0000
,
1000
0000
0000
0000
,
1001
0000
0000
0000
,
0100
0000
0000
0000
,
0110
0000
0000
0000
,
1001
1001
0000
0000
,
0020
0000
0000
0000
,
0030
0000
0000
0000
;
