#TITLE:Now a New Day;
#SUBTITLE:;
#ARTIST:Sui.Jay;
#TITLETRANSLIT:;
#SUBTITLETRANSLIT:;
#ARTISTTRANSLIT:;
#GENRE:;
#CREDIT:;
#BANNER:Now a New Day.png;
#BACKGROUND:Now a New Day-bg.png;
#LYRICSPATH:;
#CDTITLE:;
#MUSIC:Now a New Day.ogg;
#OFFSET:-0.070000;
#SAMPLESTART:16.638859;
#SAMPLELENGTH:12.911392;
#SELECTABLE:YES;
#BPMS:0.000000=158.000000
;
#STOPS:
;
#BGCHANGES:;
#KEYSOUNDS:;
#ATTACKS:;

//---------------dance-single - ----------------
#NOTES:
     dance-single:
     :
     Hard:
     12:
     0.563385,0.565804,0.296937,0.334054,0.032477,425.000000,393.000000,32.000000,36.000000,0.000000,0.000000,0.563385,0.565804,0.296937,0.334054,0.032477,425.000000,393.000000,32.000000,36.000000,0.000000,0.000000:
// measure 0
0000
0000
0000
0000
,  // measure 1
0000
0000
0000
0000
,  // measure 2
0010
0000
0010
0010
,  // measure 3
0010
0001
0100
0001
1000
0100
1000
0010
,  // measure 4
0000
1000
0100
1000
0001
0100
0001
1000
,  // measure 5
0000
0001
0100
0001
1000
0100
1000
0001
,  // measure 6
0000
1000
0100
0010
0001
1000
0100
0010
,  // measure 7
0100
1000
0010
1000
0001
0010
0001
0100
,  // measure 8
0000
0001
0010
0001
1000
0010
1000
0001
,  // measure 9
0000
1000
0010
1000
0001
0010
0001
1000
,  // measure 10
0000
0001
0010
0100
1100
0000
1100
0000
,  // measure 11
1001
0000
1000
0100
0001
0100
1000
0200
,  // measure 12
0000
0310
0001
0010
1000
0010
0001
0020
,  // measure 13
0000
0130
1000
0010
1000
0100
1000
0020
,  // measure 14
0000
0230
0000
0310
0110
0000
1001
0000
,  // measure 15
0110
0000
0100
0001
0010
0001
0100
0002
,  // measure 16
0000
1003
0010
1000
0100
1000
0010
2000
,  // measure 17
0000
0000
3001
0000
0100
0000
1000
0000
0100
0000
0001
0000
1000
0001
0000
0000
,  // measure 18
2002
0000
0000
3003
,  // measure 19
0001
0000
0100
0000
0010
0000
1000
0000
0001
0000
0000
0001
0000
0000
0001
0000
,  // measure 20
1000
0000
0100
0000
0010
0000
0001
0000
1000
0000
0000
1000
0000
0000
1000
0000
,  // measure 21
0010
0000
0100
0000
0001
0000
1000
0000
0010
0000
0000
0010
0000
0000
0010
0000
,  // measure 22
0100
0001
1000
0100
0010
0001
1000
0010
,  // measure 23
0100
0000
0001
0000
1000
0000
0010
0000
0100
0000
0000
0100
0000
0000
0100
0000
,  // measure 24
0010
0000
1000
0000
0001
0000
0100
0000
0010
0000
0000
0010
0000
0000
0010
0000
,  // measure 25
1000
0000
0100
0000
0010
0000
0001
0000
1000
0000
0000
1000
0000
0000
1000
0000
,  // measure 26
0001
0010
0100
1000
0001
1000
1000
1000
,  // measure 27
1001
0000
0001
0100
0010
0010
0010
0110
,  // measure 28
0000
0010
1000
0001
0100
0100
0100
0110
,  // measure 29
0000
0100
0010
1000
0001
0100
0010
2000
,  // measure 30
0000
3001
0001
0002
0000
1003
1000
1000
,  // measure 31
1001
0000
1000
0010
0100
0100
0100
0110
,  // measure 32
0000
0100
0001
1000
0010
0010
0010
0110
,  // measure 33
0000
0010
0100
0001
1000
0010
0100
0002
,  // measure 34
0000
1003
1000
2000
0000
3001
0001
0001
,  // measure 35
1001
0000
0001
0010
1000
0010
0001
0020
,  // measure 36
0000
0130
1000
0100
0001
0100
1000
0200
,  // measure 37
0000
0310
0001
0100
0001
0010
0001
0200
,  // measure 38
0000
0320
0000
0130
0110
0000
1001
0000
,  // measure 39
0110
0000
0010
1000
0100
1000
0010
2000
,  // measure 40
0000
3001
0100
0001
0010
0001
0100
0002
,  // measure 41
0000
1003
0010
0001
0010
1000
0001
1000
,  // measure 42
2002
0000
0000
3003
,  // measure 43
0100
1000
0010
1000
0001
0010
0001
0100
,  // measure 44
0000
0001
0010
0001
1000
0010
1000
0001
,  // measure 45
0000
1000
0010
1000
0001
0010
0001
1000
,  // measure 46
0000
0001
0010
0100
1000
0001
0010
0100
,  // measure 47
0010
0001
0100
0001
1000
0100
1000
0010
,  // measure 48
0000
1000
0100
1000
0001
0100
0001
1000
,  // measure 49
0000
0001
0100
0001
1000
0100
1000
0001
,  // measure 50
0000
1000
0010
0100
0001
1000
0100
0010
,  // measure 51
0022
0000
0000
0000
0000
0000
0033
2200
,  // measure 52
0000
0000
0000
0000
0000
0000
0000
0300
,  // measure 53
0000
0000
0000
0000
,  // measure 54
3000
0100
0010
0100
0010
0100
0100
0100
,  // measure 55
2200
0000
0000
0000
0000
0000
3300
0022
,  // measure 56
0000
0000
0000
0000
0000
0000
0000
0033
,  // measure 57
0000
1000
0001
0100
0010
1000
0100
0010
,  // measure 58
0011
1100
1010
0101
,  // measure 59
0110
0000
0010
1000
0100
1000
0010
2000
,  // measure 60
0000
3001
0100
0001
0010
0001
0100
0002
,  // measure 61
0000
1003
0010
0001
0010
1000
0010
0002
,  // measure 62
0000
0023
0000
1030
1010
0000
0101
0000
,  // measure 63
1100
0000
1000
0100
0001
0100
1000
0200
,  // measure 64
0000
0310
0001
0010
1000
0010
0001
0020
,  // measure 65
0000
0130
1000
0010
1000
0100
0010
0100
,  // measure 66
0000
0220
0000
0000
0000
0000
0000
0330
,  // measure 67
0000
0000
0000
1001
;

//---------------dance-single - ----------------
#NOTES:
     dance-single:
     :
     Medium:
     8:
     0.414916,0.565804,0.473243,0.250541,0.004640,313.000000,262.000000,51.000000,27.000000,0.000000,0.000000,0.414916,0.565804,0.473243,0.250541,0.004640,313.000000,262.000000,51.000000,27.000000,0.000000,0.000000:
0000
0000
0000
0000
,
0000
0000
0000
0000
,
0100
0000
0100
0100
,
0220
0000
0000
0330
0000
0000
0000
2000
,
0000
0000
0000
0000
0000
0000
3000
0200
,
0000
0000
0000
0000
0000
0000
0300
0020
,
0000
0000
0030
0002
0000
0000
0003
0000
,
1001
0000
1000
0000
1000
0000
1000
1000
,
0000
0001
0001
0000
0001
0000
0001
0001
,
0000
0100
0100
0000
0100
0000
0100
0100
,
0000
0010
0010
0000
0010
0000
0010
0000
,
1001
1100
0001
1100
,
0001
0011
1000
0011
,
1000
1010
0001
1010
,
0001
0101
0010
0101
,
0010
0011
0100
0011
,
0100
1100
0010
1100
,
0010
0000
0000
0000
0100
0000
0000
0000
0001
0000
0000
0000
1000
0001
0000
0000
,
2002
0000
0000
3003
,
0001
1000
0001
1000
0001
0000
0000
1000
,
0100
1000
0100
1000
0100
1000
0000
0010
,
0100
0010
0100
0010
0100
0000
0000
0001
,
0100
0001
0100
0001
0100
0001
0000
0010
,
0001
0010
0001
0010
0001
0000
0000
1000
,
0010
1000
0010
1000
0001
1000
0001
2000
,
0000
0001
0000
0001
,
0000
0000
3001
0000
0000
0010
0100
0010
,
0200
0000
0301
0100
0010
1000
0100
0020
,
0000
0130
1000
0010
0100
0001
0100
0020
,
0000
1030
0100
0010
0001
0100
0010
1000
,
0100
0010
0001
0100
0010
1000
0100
1000
,
0020
0000
1030
0010
0100
0001
0010
0200
,
0000
0310
0001
0100
0010
1000
0010
0200
,
0000
0301
0010
0100
1000
0010
0100
0001
,
0010
0100
1000
0010
0100
0001
0010
0001
,
1001
0011
1000
0011
,
1000
1100
0001
1100
,
0001
0101
1000
0101
,
1000
1010
0100
1010
,
0100
1100
0010
1100
,
0010
0011
0100
0011
,
0100
0010
1000
0001
,
2002
0000
3003
0000
,
0110
0000
0100
0000
0010
0000
0100
0100
,
0000
0010
0010
0000
0100
0000
0010
0010
,
0000
0001
0001
0000
1000
0000
0001
0001
,
0000
1000
1000
0000
0001
0000
1000
0000
,
0110
0000
0010
0000
0100
0000
0010
0010
,
0000
0100
0100
0000
0010
0000
0100
0100
,
0000
1000
1000
0000
0001
0000
1000
1000
,
0000
0001
0001
0000
1000
0000
0001
0000
,
2200
0000
0000
0000
3300
0000
0000
0022
,
0000
0000
0000
0030
0000
0000
0000
0000
,
0000
0000
0000
0000
,
0003
0000
0000
0000
,
2020
0000
0000
0000
3030
0000
0000
0202
,
0000
0000
0000
0300
0000
0000
0000
0000
,
0000
0000
0000
0000
,
0003
0000
0000
0000
,
0110
0101
0010
0101
,
0010
1010
0100
1010
,
0100
1100
0010
1100
,
0010
0011
1000
0011
,
1000
1010
0001
1010
,
0001
0101
1000
0101
,
1000
0001
0010
0100
,
0000
0220
0000
0000
0000
0000
0000
0330
,
0000
0000
0000
1001
;

//---------------dance-single - ----------------
#NOTES:
     dance-single:
     :
     Easy:
     3:
     0.156422,0.251468,0.092793,0.343333,0.000000,118.000000,108.000000,10.000000,37.000000,0.000000,0.000000,0.156422,0.251468,0.092793,0.343333,0.000000,118.000000,108.000000,10.000000,37.000000,0.000000,0.000000:
0000
0000
0000
0000
,
0000
0000
0000
0000
,
0010
0000
0010
0010
,
0020
0000
0000
0000
0000
0000
0030
2000
,
0000
0000
0000
0000
0000
0000
3000
0002
,
0000
0000
0000
0000
0000
0000
0003
0200
,
0000
0000
0300
0020
0000
0000
0000
0030
,
2000
0000
0000
0000
0000
0000
3000
0200
,
0000
0000
0000
0000
0000
0000
0300
0020
,
0000
0000
0000
0000
0000
0000
0030
0002
,
0000
0000
0003
0000
2000
0000
0000
3000
,
1001
0001
0000
0001
,
0000
1000
0000
1000
,
0000
0010
0000
0010
,
0000
0100
0000
0100
,
0110
0010
0000
0010
,
0000
1000
0000
1000
,
0000
0001
0000
0001
,
2002
0000
0000
3003
,
0001
1000
0001
0000
,
0100
0010
0100
0000
,
0010
1000
0010
0000
,
1000
0100
1000
0000
,
0001
0010
0001
0000
,
0100
0001
0100
0001
,
2000
0000
0000
0000
,
3000
0010
0100
0010
,
0200
0000
0000
0000
0300
0000
0000
0002
,
0000
0000
0000
0000
0003
0000
0000
2000
,
0000
0000
0000
0000
,
3000
0000
0000
0000
,
0020
0000
0000
0000
0030
0000
0000
2000
,
0000
0000
0000
0000
3000
0000
0000
0002
,
0000
0000
0000
0000
,
0003
0000
0000
0000
,
1001
1000
0000
1000
,
0000
0001
0000
0001
,
0000
0100
0000
0100
,
0000
0010
0000
0010
,
0110
0100
0000
0100
,
0000
0001
0000
0001
,
0000
1000
0000
1000
,
2002
0000
0000
3003
,
0020
0000
0000
0000
0000
0000
0030
2000
,
0000
0000
0000
0000
0000
0000
3000
0002
,
0000
0000
0000
0000
0000
0000
0003
0200
,
0000
0000
0300
0020
0000
0000
0000
0030
,
2000
0000
0000
0000
0000
0000
3000
0200
,
0000
0000
0000
0000
0000
0000
0300
0020
,
0000
0000
0000
0000
0000
0000
0030
0002
,
0000
0000
0003
0000
2000
0000
0000
3000
,
0200
0000
0000
0000
0300
0000
0000
0020
,
0000
0000
0030
0000
,
0000
0000
0000
0000
,
0000
0000
0000
0000
,
0020
0000
0000
0000
0030
0000
0000
0200
,
0000
0000
0300
0000
,
0000
0000
0000
0000
,
0000
0000
0000
0000
,
0110
0010
0000
0010
,
0000
0100
0000
0100
,
0000
1000
0000
1000
,
0000
0001
0000
0001
,
1001
1000
0000
1000
,
0000
0100
0000
0100
,
0000
0010
0000
0010
,
0000
0220
0000
0000
0000
0000
0000
0330
,
0000
0000
0000
1001
;
