#TITLE:Nobody But You;
#SUBTITLE:;
#ARTIST:Cesár Sampson;
#TITLETRANSLIT:;
#SUBTITLETRANSLIT:;
#ARTISTTRANSLIT:;
#CREDIT:;
#BANNER:;
#BACKGROUND:;
#LYRICSPATH:;
#CDTITLE:;
#MUSIC:Nobody But You.mp3;
#OFFSET:-1.430;
#SAMPLESTART:34.600;
#SAMPLELENGTH:11.290;
#SELECTABLE:YES;
#BPMS:0.000=85.000,155.000=79.000,157.000=77.000,157.500=71.000,158.500=58.000;
#STOPS:;
#BGCHANGES:-1.000=Nobody But You.avi=1.000=1=1=0,
99999=-nosongbg-=1.000=0=0=0 // don't automatically add -songbackground-
;

//---------------dance-single - ----------------
#NOTES:
     dance-single:
     :
     Hard:
     9:
     0.362,0.420,0.189,0.418,0.164: // measure 1
0000
0000
0000
0000
,  // measure 2
0000
0000
0000
0000
,  // measure 3
1000
0002
0000
0000
0000
0000
0000
0000
,  // measure 4
0010
0000
0000
2000
0000
0000
3003
0000
,  // measure 5
0002
0000
0203
0000
,  // measure 6
2300
0000
3200
0000
,  // measure 7
0301
2000
0000
0000
3200
0000
0000
0000
,  // measure 8
0020
0000
0000
0330
,  // measure 9
1001
0000
0001
0100
0000
0100
0001
0000
,  // measure 10
1000
0000
0100
1000
0000
1000
0001
0100
,  // measure 11
0010
0000
0100
0001
0000
1000
0100
0010
,  // measure 12
0002
0000
0000
0000
0010
0000
0000
0000
1003
0000
0000
0000
0100
0010
0100
0000
,  // measure 13
1001
0000
0000
0000
0001
0100
0010
2000
0010
0000
0000
0000
3001
0000
1000
0100
,  // measure 14
0020
0000
0000
0000
0031
0000
0001
0100
0010
0000
0100
0000
0001
1000
0001
0000
,  // measure 15
0100
0000
0010
2020
0000
3030
0001
0000
,  // measure 16
1000
0000
0000
0000
0001
0000
0022
0000
0000
0000
0033
0000
1000
0001
0000
0000
,  // measure 17
1001
0000
0000
0000
1000
0001
1000
0200
0010
0000
0000
0000
1300
0000
0001
2000
,  // measure 18
0001
0000
0000
0000
3010
0000
1000
0001
0010
0000
0001
0000
0010
0001
0100
0000
,  // measure 19
0010
1000
0100
2002
0000
3003
0001
0000
,  // measure 20
0100
0010
1000
2002
0000
3003
0011
0000
,  // measure 21
0102
0000
0000
0000
0000
0000
1003
0000
0000
0100
0000
1000
0100
0000
0000
0010
0000
0000
0002
0000
0000
0000
0000
0000
,  // measure 22
0203
0000
0000
0000
0000
0000
0310
0000
0000
0100
0000
0001
1000
0000
0000
0100
0000
0000
0020
0000
0000
0000
0000
0000
,  // measure 23
0032
0000
0000
0100
0000
0000
0103
0000
0000
0010
0000
1000
0100
0000
0000
0010
0000
0000
0001
0000
0100
0000
0010
0000
,  // measure 24
1000
0000
0000
0000
0000
0000
1100
0000
0000
0000
0000
0000
0010
0000
0000
0001
0000
0000
1000
0000
0001
1000
0000
0000
,  // measure 25
0001
0000
0000
0100
0000
0000
0001
0000
0000
1000
0000
0100
1000
0000
0000
0001
0000
0000
0200
0000
0000
0000
0000
0000
,  // measure 26
0310
0000
0000
1000
0000
0000
0100
0000
0010
0001
0000
0010
0001
0000
0000
0100
0000
0000
0002
0000
0000
0010
0000
0000
,  // measure 27
1003
0000
0000
0100
0000
0000
0010
0000
0000
0001
0000
1000
0100
0000
0000
1000
0000
0000
0010
0000
0100
0000
0001
0000
,  // measure 28
1001
0110
2002
3003
,  // measure 29
2000
0000
3002
0000
,  // measure 30
0203
0000
0000
0000
0000
0000
0000
0000
0000
0310
0100
0001
,  // measure 31
1000
0100
1000
0100
0010
0001
0010
0001
,  // measure 32
1000
0000
0010
0000
0100
0000
0001
0000
0010
0000
0100
0000
0010
0100
0000
0000
,  // measure 33
2002
0000
3003
0000
1001
0000
0001
0200
0000
0000
0310
0000
1000
0001
1000
0002
,  // measure 34
0010
0000
0000
0000
1003
0000
1000
0200
0000
0000
0310
0000
0001
1000
0001
0000
,  // measure 35
0100
0010
0100
2002
0000
3003
0101
0000
,  // measure 36
0010
0000
1000
0000
0100
0000
2200
0000
0000
0000
3300
0000
0001
0010
0001
0000
,  // measure 37
1000
0000
0001
0000
0100
0010
1000
0002
0010
0000
0013
0000
0001
0010
0001
2000
,  // measure 38
0100
0000
0000
0000
3001
0000
1000
0010
1000
0000
0001
0100
1000
0100
0001
0000
,  // measure 39
0100
0010
1000
2200
0000
3300
1001
0000
,  // measure 40
1001
0100
0010
0220
0000
0000
0000
0330
,  // measure 41
2002
0000
0000
0000
,  // measure 42
3003
0000
0000
0000
;

//---------------dance-single - ----------------
#NOTES:
     dance-single:
     :
     Medium:
     6:
     0.240,0.252,0.090,0.320,0.000:
0000
0000
0000
0000
,
0000
0000
0000
0000
,
0001
0002
0000
0000
0000
0000
0000
0000
,
2003
0000
0000
3200
0000
0000
0300
0000
,
2000
0000
3200
0000
,
0320
0000
0032
0000
,
0103
0200
0000
0000
0001
0000
0000
0000
,
0020
0000
0000
0330
,
1001
0001
0100
0010
,
0110
0010
1000
0001
,
1001
1000
0100
0010
,
0002
0010
2000
3003
,
1001
0000
0001
0100
0001
0000
1000
0100
,
0020
0000
0001
0000
0130
0000
0010
0001
,
1000
0000
0001
0202
0000
0000
0303
0000
,
0001
0000
1000
2200
0000
0000
3300
0000
,
1000
0000
0100
1000
0001
0000
0100
0001
,
0200
0000
0010
0000
0301
0000
0001
0100
,
0010
0000
1000
2200
0000
0000
3300
0000
,
0001
0000
0010
0022
0000
0000
0033
0000
,
1001
0000
0001
1000
0001
0000
0100
0000
,
0010
0000
0100
0010
1000
0000
0001
0000
,
1000
0000
0001
0100
0010
0000
1000
0000
,
0002
0000
0010
0000
1003
0001
1000
0001
,
0100
0000
0010
1000
0001
1000
0200
0000
,
0310
0000
0001
0100
0010
0100
0002
0000
,
1003
0000
0001
1000
0100
0010
0001
0000
,
1000
0001
2002
3003
,
0020
0000
2030
0000
,
0002
0000
3003
0020
,
0200
0000
0330
0020
,
0031
1000
0001
1000
0001
2000
0002
0000
,
3003
0000
1001
0000
1000
0000
0010
0100
,
0001
0000
0010
0001
0100
0000
0010
1000
,
0001
0000
1000
0002
0000
0000
0103
0000
,
0010
0000
1000
0200
0000
0000
1300
0000
,
0100
0000
0010
0001
0100
0000
0010
0000
,
1000
0001
0100
0010
0100
0000
0001
0010
,
0100
0000
0010
0002
0000
0000
1003
0000
,
0001
1000
0010
0200
0000
0000
0000
0000
,
0020
0000
0000
0000
,
0330
0000
0000
0000
;

//---------------dance-single - ----------------
#NOTES:
     dance-single:
     :
     Easy:
     4:
     0.180,0.185,0.148,0.262,0.000:
0000
0000
0000
0000
,
0000
0000
0000
0000
,
1001
0000
0000
0000
,
2000
0000
0000
0002
0000
0000
3003
0000
,
2000
0000
3200
0000
,
0320
0000
0032
0000
,
2003
0000
3020
0000
,
0200
0000
0000
0330
,
2002
0000
3003
0000
,
0220
0000
0330
0000
,
2002
0000
3003
0000
,
2000
0001
0002
3003
,
1001
0001
0100
0010
,
2000
0000
3010
1000
,
0001
0000
0000
1001
0000
0000
1000
0000
,
0001
0000
0000
1001
0000
0000
0100
0000
,
0001
0100
0001
0010
,
0200
0000
0310
0001
,
1000
0000
0000
1001
0000
0000
0100
0000
,
0010
0000
0000
0220
0000
0000
0330
0000
,
1001
0001
0100
0000
,
0001
1000
0100
0000
,
1000
0100
0010
0001
,
0100
1000
0100
0001
,
1000
0001
0010
0000
,
0001
1000
0010
0000
,
0100
0010
1000
0100
,
0010
0100
0220
0330
,
0001
0000
1000
0000
,
0020
0000
0030
0100
,
0200
0000
0000
0310
,
0100
0010
0100
2002
,
3003
1001
0001
0100
,
0002
0000
0013
0001
,
1000
0000
0000
1001
0000
0000
0010
0000
,
0100
0000
0000
1001
0000
0000
0100
0000
,
0010
1000
0100
0010
,
0001
0100
0010
1000
,
1000
0000
0000
1001
0000
0000
0010
0000
,
0100
0000
0000
2002
0000
0000
3003
0000
,
2002
0000
0000
0000
,
3003
0000
0000
0000
;

//---------------dance-single - ----------------
#NOTES:
     dance-single:
     :
     Beginner:
     2:
     0.090,0.115,0.074,0.000,0.000:
0000
0000
0000
0000
,
0000
0000
0000
0000
,
1001
0000
0000
0000
,
0100
0000
0000
0000
,
0010
0000
0000
0000
,
1000
0000
0000
0000
,
0001
0000
0000
0000
,
0100
0000
0000
0000
,
1001
0000
0000
0000
,
1001
0000
0000
0000
,
0110
0000
0000
0000
,
0100
0100
0100
0000
,
1001
0000
0001
0000
,
0100
0000
0001
0001
,
0001
0000
0000
0000
,
1000
0000
0000
0000
,
0001
0000
1000
0000
,
0100
0000
1000
1000
,
1000
0000
0000
0000
,
0001
0000
0000
0000
,
1001
0000
0000
0001
,
0001
0000
0000
0100
,
0100
0000
0000
0010
,
0010
0000
1000
0000
,
0001
0000
0100
0000
,
0001
0000
1000
1000
,
1000
0000
0001
0001
,
0001
0000
1001
0000
,
1000
0000
0100
0000
,
0010
0000
0000
0000
,
1001
0000
0001
0000
,
1000
1000
1000
1000
,
0000
0001
0001
0000
,
0100
0000
0001
0001
,
0001
0000
0000
0000
,
1000
0000
0000
0000
,
0001
0000
0010
0000
,
0001
0000
1000
1000
,
1000
0000
0000
0000
,
0001
0000
0000
0000
,
1001
0000
0000
0000
;
