#TITLE:Nightmare;
#SUBTITLE:;
#ARTIST:Banya;
#TITLETRANSLIT:;
#SUBTITLETRANSLIT:;
#ARTISTTRANSLIT:;
#GENRE:;
#CREDIT:;
#MUSIC:Nightmare.ogg;
#BANNER:Nightmare-bn.png;
#BACKGROUND:Nightmare-bg.png;
#CDTITLE:;
#SAMPLESTART:56.679;
#SAMPLELENGTH:16.000;
#SELECTABLE:YES;
#OFFSET:-0.179;
#BPMS:0.000=120.000;
#STOPS:;
#BGCHANGES:;
#FGCHANGES:;

//--------------- dance-single - ----------------
#NOTES:
     dance-single:
     :
     Beginner:
     2:
     0,0,0,0,0:
0000
0000
0000
0000
,
0000
0000
0000
0000
,
0000
0000
0000
0000
,
0000
0000
0000
0000
,
0000
1000
0000
0100
,
0000
0010
0000
1000
,
0000
0010
0000
0001
,
0000
1000
0000
0100
,
0000
0001
0000
0100
,
0000
0010
0000
0001
,
0000
1000
0000
0100
,
0000
0001
0000
0100
,
0000
1000
0000
0000
,
0000
0010
0000
0000
,
0000
0100
0000
0000
,
0000
0010
0000
0000
,
0000
1000
0000
0000
,
0000
0001
0000
0000
,
0000
0010
0000
0000
,
0000
0001
0000
0000
,
0000
0100
0000
0010
,
0000
1000
0000
0001
,
0000
0010
0000
0100
,
0000
0010
0000
0001
,
0000
0010
0000
0001
,
0000
1000
0000
0010
,
0000
0100
0000
0001
,
0000
0010
0000
0001
,
0000
1000
0000
0010
,
0000
0100
0000
1000
,
0000
0100
0000
0001
,
0000
1000
0000
0010
,
0000
0001
0000
0010
,
0000
0100
0000
0001
,
0000
1000
0000
0010
,
0000
0001
0000
0010
,
0000
1000
0000
0100
,
0000
0010
0000
0100
,
0000
1000
0000
0001
,
0000
0100
0000
0001
,
0000
1000
0000
0100
,
0000
0010
0000
0001
,
0000
1000
0000
0010
,
0000
0100
0000
0001
,
0000
1000
0100
0010
,
0000
0001
0000
0000
0000
0000
0000
0000
;

//--------------- dance-single - ----------------
#NOTES:
     dance-single:
     :
     Easy:
     4:
     0,0,0,0,0:
0000
0000
0000
0000
,
0000
0000
0000
0000
,
0000
0000
0000
0000
,
0000
0000
0000
0000
,
0000
1000
0100
1000
,
0000
0001
0100
0001
,
0000
0010
0001
1000
,
0010
0100
0001
0010
,
0100
1000
0010
1000
,
0000
0001
0010
0001
,
0000
0100
0010
1000
,
0001
0010
0100
0010
,
0001
1000
0000
0010
,
0000
0100
0000
1000
,
0000
0100
0000
0001
,
0000
0010
0000
0100
,
0000
1000
0000
0100
,
0000
0010
0000
1000
,
0000
0010
0000
0001
,
0000
0100
0000
0010
,
0000
1000
0100
1000
,
0000
0010
0100
0001
,
0010
0001
0100
0010
,
0000
1000
0100
1000
,
0000
0001
0100
0001
,
0000
0010
0100
1000
,
0010
1000
0100
0010
,
0000
0001
0100
0001
,
0000
1000
0100
0001
,
0000
0100
1000
0001
,
0000
0100
1000
0100
,
0000
0001
0010
0100
,
0000
0001
0100
1000
,
0000
0010
0100
1000
,
0000
0100
0001
1000
,
0000
0100
0001
0100
,
0000
0010
0001
0100
,
0000
1000
0100
0010
,
0000
1000
0100
1000
,
0000
0001
0100
0001
,
0000
1000
0010
1000
,
0000
0001
0010
0001
,
0000
1000
0010
0100
,
0000
0001
0010
0100
,
0000
1000
0100
0010
,
0001
1000
0000
0000
0000
0000
0000
0000
;

//--------------- dance-single - ----------------
#NOTES:
     dance-single:
     :
     Medium:
     6:
     0,0,0,0,0:
0000
0000
0000
0000
,
0000
0000
0000
0000
,
0000
0000
0000
0000
,
0000
0000
0000
0000
,
0000
1000
0100
1000
,
0010
0100
0001
0010
,
0001
1000
0001
0000
1000
0000
0100
0000
,
1000
0010
0100
0001
,
0010
0001
1000
0000
0010
0000
1000
0000
,
0100
0010
0001
0100
,
0001
1000
0001
0000
1000
0000
0010
0000
,
1000
0100
0010
0001
,
0100
0001
1000
0000
0100
0000
0010
0000
,
0100
1000
0001
0100
,
0001
0010
0001
0000
1000
0000
0010
0000
,
0100
0001
0010
0100
,
1000
0001
1000
0000
0010
0000
0100
0000
,
0010
1000
0001
0010
,
0001
0100
0010
0000
1000
0000
0001
0000
,
0010
0100
0010
0001
,
0100
0010
1000
0000
0100
0000
0010
0000
,
0100
1000
0010
0100
,
0001
0010
0100
0000
0010
0000
0100
0000
,
1000
0010
0100
0001
,
0010
0001
1000
0000
0010
0000
0100
0000
,
0010
1000
0100
0010
,
0001
0100
0010
0000
0100
0000
0010
0000
,
1000
0100
0010
0001
,
0100
0010
1000
0000
0100
0000
1000
0000
,
0001
0100
0010
0100
,
0001
0010
0001
0000
1000
0000
0010
0000
,
0100
0001
0010
0100
,
1000
0001
1000
0000
0010
0000
1000
0000
,
0001
0010
0100
0010
,
0001
0100
0010
0000
1000
0000
0001
0000
,
0010
0100
1000
0010
,
0100
0001
1000
0000
0100
0000
0010
0000
,
1000
0000
0010
0000
0001
0000
0100
0010
,
1000
0001
0010
1000
,
0010
0000
0100
0000
1000
0000
0010
0100
,
0001
1000
0010
0100
,
1000
0000
0100
0000
0001
0000
0010
0100
,
1000
0001
0100
1000
,
0100
0000
0010
0000
1000
0000
0100
0010
,
0001
1100
0101
0011
,
0100
1010
0000
0000
0000
0000
0000
0000
;

//--------------- dance-single - ----------------
#NOTES:
     dance-single:
     :
     Hard:
     8:
     0,0,0,0,0:
0000
0000
0000
0000
,
0000
0000
0000
0000
,
0000
0000
0000
0000
,
0000
0000
0000
0000
,
0000
0000
1000
0000
0100
0000
0010
1000
,
0000
0010
0000
0001
0100
0010
1000
0001
,
0010
0100
0000
0000
1000
0000
0010
0100
,
0000
1000
0000
0100
0001
0010
0100
1000
,
0010
0100
0000
0000
0001
0000
0010
1000
,
0000
0010
0000
0100
1000
0010
0100
0001
,
1000
0000
0100
0000
0010
0000
0000
0000
0001
0000
0000
0000
0100
0000
0000
1000
,
0000
0100
0000
0010
1000
0000
0100
0010
,
0001
0000
1000
0000
0010
0100
0010
1000
,
0001
0010
0001
0100
0010
1000
0000
0001
,
0010
0100
0010
0000
0001
1000
0010
0000
,
1000
0100
0000
0010
0001
0100
0001
0010
,
0100
1000
0001
0000
0010
0100
0010
0000
,
0001
1000
0010
1000
0100
1000
0000
0001
,
0100
0010
1000
0000
0100
0000
1000
0000
,
0001
0010
0000
0001
0100
0010
1000
0100
,
1000
0001
0000
0000
1000
0000
0100
0000
,
0001
0000
0000
0000
0100
0000
0000
1000
0000
0000
0010
0000
0000
0000
0100
0000
,
0001
1000
0100
0100
0001
0010
0100
1000
,
0010
0010
1000
0100
0010
0100
1000
0001
,
0100
0001
0000
0000
1000
0000
0001
0000
,
0010
0000
0000
0000
0001
0000
0000
0100
0000
0000
0010
0000
0000
0000
1000
0000
,
0100
1000
0001
0100
0001
0010
0000
0100
,
1000
0010
1000
0100
1000
0001
0100
0001
,
0010
0000
0100
0000
1000
0000
0000
0000
0010
0000
0000
0000
0100
0000
0000
0010
,
0000
1000
0000
0001
0010
0001
0100
0010
,
1000
0001
0000
0000
0010
0000
0100
0010
,
0000
0001
0000
1000
0100
1000
0010
0100
,
0001
0010
0000
0000
0001
0000
0100
0010
,
0000
0100
0000
0001
1000
0100
1000
0010
,
0100
0000
0001
0000
0000
0000
0000
0000
1000
0000
0100
0000
0010
0000
0000
0100
,
0000
1000
0000
0001
0010
0000
0001
0100
,
0010
1000
0100
1000
0010
0100
0001
0010
,
0001
0000
1000
0010
0100
0001
0010
0100
,
1000
0010
0001
0000
0010
0000
1000
0000
,
0001
0000
0010
0000
1000
0000
0010
0001
,
1000
0000
0001
0100
0010
0000
0001
0010
,
1000
0000
0001
0010
1000
0000
0010
0100
,
1000
0001
1000
0010
0001
0000
0010
0100
,
0001
0000
1000
0100
0010
0000
1000
0010
,
0001
0000
1100
0010
0101
1000
0011
0100
,
1010
1001
0000
0000
0000
0000
0000
0000
;
