#TITLE:Night sky;
#SUBTITLE:;
#ARTIST:USAO;
#TITLETRANSLIT:;
#SUBTITLETRANSLIT:;
#ARTISTTRANSLIT:;
#GENRE:;
#CREDIT:;
#BANNER:Night sky.png;
#BACKGROUND:Night sky-bg.png;
#LYRICSPATH:;
#CDTITLE:;
#MUSIC:night sky.ogg;
#OFFSET:0.000000;
#SAMPLESTART:80.897820;
#SAMPLELENGTH:12.000000;
#SELECTABLE:YES;
#BPMS:0.000000=192.000000
;
#STOPS:
;
#BGCHANGES:0.000=Night Sky.avi=1.000=0=0=0=StretchNoLoop====,
99999=-nosongbg-=1.000=0=0=0 // don't automatically add -songbackground-
;
#KEYSOUNDS:;
#ATTACKS:;

//---------------dance-single - OrangeRight----------------
#NOTES:
     dance-single:
     OrangeRight:
     Beginner:
     3:
     0.149006,0.234684,0.024446,0.000000,0.000000,128.000000,125.000000,3.000000,0.000000,0.000000,0.000000,0.149006,0.234684,0.024446,0.000000,0.000000,128.000000,125.000000,3.000000,0.000000,0.000000,0.000000:
0000
0000
0000
0000
,
0000
0000
0000
0000
,
0000
0000
0000
0000
,
0000
0000
0000
0000
,
0000
0000
0000
0000
,
0001
0000
0000
0000
,
0001
0000
0000
0000
,
0001
0000
0001
0000
,
1000
0000
0000
0000
,
1000
0000
0000
0000
,
0100
0000
0000
0000
,
0010
0000
0001
0000
,
0100
0000
0000
0000
,
0001
0000
0000
0000
,
0100
0000
0000
0000
,
0010
0000
1000
0000
,
0100
0000
0000
0000
,
1000
0000
1000
0000
,
1000
0000
1000
0000
,
0001
0000
0001
0000
,
0001
0000
0100
0000
,
0010
0000
0010
0000
,
0010
0000
0010
0000
,
0100
0000
0100
0000
,
1001
0000
0000
0000
,
1000
0000
0000
0000
,
0001
0000
0000
0000
,
1000
0000
0000
0000
,
0000
0000
0000
0000
,
0001
0000
0000
0000
,
1000
0000
0000
0000
,
0001
0000
0000
0000
,
0000
0000
0000
0000
,
1000
0000
0000
0000
,
0100
0000
0000
0000
,
0010
0000
0000
0000
,
0001
0000
0000
0000
,
0100
0000
0000
0000
,
0010
0000
0000
0000
,
1000
0000
0001
0000
,
1000
0000
0000
0000
,
0001
0000
0000
0000
,
0100
0000
0000
0000
,
0010
0000
0000
0000
,
1000
0000
1000
0000
,
1000
0000
0000
0000
,
0100
0000
0000
0000
,
0010
0000
0000
0000
,
0001
0000
0001
0000
,
1000
0000
1000
0000
,
0001
0000
0001
0000
,
0100
0000
0000
0000
,
0010
0000
0010
0000
,
1000
0000
1000
0000
,
0001
0000
0001
0000
,
0010
0000
0000
0000
,
0100
0000
0000
0000
,
1000
0000
1000
0000
,
0001
0000
0001
0000
,
1000
0000
0000
0000
,
0001
0000
0001
0000
,
1000
0000
1000
0000
,
0001
0000
0001
0000
,
0100
0000
0000
0000
,
0010
0000
0000
0000
,
1000
0000
0000
0000
,
1000
0000
0000
0000
,
0001
0000
0000
0000
,
0001
0000
0000
0000
,
1000
0000
0000
0000
,
1000
0000
0000
0000
,
0001
0000
0000
0000
,
0001
0000
0001
0000
,
1000
0000
0100
0000
,
0010
0000
0000
0000
,
0001
0000
0100
0000
,
0010
0000
1000
0000
,
0001
0000
0000
0000
,
1000
0000
0100
0000
,
0010
0000
0000
0000
,
1001
0000
0000
0000
,
1000
0000
1000
0000
,
0100
0000
0010
0000
,
0001
0000
0100
0000
,
0010
0000
1000
0000
,
0001
0000
0001
0000
,
0100
0000
0010
0000
,
1000
0000
0001
0000
,
1001
0000
0000
0000
,
1000
0000
0000
0000
,
0001
0000
0000
0000
,
1000
0000
0000
0000
,
0001
0000
0000
0000
,
0100
0000
0000
0000
,
0010
0000
0000
0000
,
0100
0000
0000
0000
,
0100
0000
0000
0000
;

//---------------dance-single - OrangeRight----------------
#NOTES:
     dance-single:
     OrangeRight:
     Easy:
     5:
     0.308489,0.395215,0.048893,0.497075,0.000000,265.000000,259.000000,6.000000,61.000000,0.000000,0.000000,0.308489,0.395215,0.048893,0.497075,0.000000,265.000000,259.000000,6.000000,61.000000,0.000000,0.000000:
0000
0000
0000
0000
,
0000
0000
0000
0000
,
0000
0000
0000
0000
,
0000
0000
0000
0000
,
0000
0000
0000
0000
,
1000
0001
1000
0001
,
0100
0010
0100
0010
,
1000
0001
0100
0010
,
2000
3000
0002
0003
,
1000
1000
0100
0010
,
0001
0001
0100
0010
,
1000
1000
0100
0010
,
0002
0203
0302
0203
,
0301
0001
0100
0010
,
1000
1000
0100
0010
,
0001
0001
0100
0010
,
1000
0001
2002
3003
,
1000
1000
1000
1000
,
1000
1000
0100
0010
,
0001
0001
0001
0001
,
0100
0010
0100
0010
,
1000
1000
1000
1000
,
1000
1000
0010
0100
,
0002
0003
2000
3000
,
2002
0000
0000
3003
,
2000
0000
0000
0000
,
3200
0000
0000
0000
,
0320
0000
0000
0000
,
0000
0000
0000
0000
,
0032
0000
0000
0000
,
0203
0000
0000
0000
,
0320
0000
0000
0000
,
2030
3000
0002
0003
,
1000
0000
0000
1000
0000
0000
0000
0000
,
0001
0000
0000
0001
0000
0000
0000
0000
,
1000
0000
0000
1000
0000
0000
0000
0000
,
0001
0000
0000
0001
0000
0000
0000
0000
,
1000
0001
1000
0001
,
1000
0001
1000
0001
,
0100
0010
1000
0100
,
2002
0000
3003
1001
,
1000
0000
0100
0000
,
0010
0001
0010
0001
,
0200
0300
0010
0000
,
1000
0100
0010
0000
,
0001
0000
0100
0000
,
0010
1000
0010
1000
,
0200
0300
0010
0000
,
0001
1000
0001
1000
,
0001
0001
0100
0010
,
1000
1000
0010
0100
,
0002
0003
1000
0100
,
0010
0001
0100
0010
,
1000
1000
0100
0010
,
0001
0001
0010
0100
,
2000
3000
0001
1000
,
0002
0203
0302
0203
,
0301
0100
0010
1000
,
0100
0010
0100
1000
,
0002
0003
0010
0100
,
0010
0001
0100
0010
,
1000
0100
0010
0001
,
0100
0010
0100
0001
,
0010
0100
1000
0001
,
0200
0300
0010
0110
,
1000
0000
1000
0001
,
0100
0000
0100
0010
,
1000
0100
0010
0001
,
1000
0000
1000
0000
,
0001
0000
0001
1000
,
0010
0000
0010
0100
,
0001
0010
0100
1000
,
0001
1000
0002
0003
,
2000
3000
0200
0300
,
0020
0000
0000
0030
,
0002
0003
0200
0300
,
0020
0030
2000
3000
,
0002
0003
0100
0001
,
0020
0030
0200
0300
,
2000
3000
0002
0003
,
2002
0000
0000
3003
,
1000
1000
0100
0010
,
0001
0001
0100
0010
,
2000
3000
0200
0300
,
0020
0030
0002
0003
,
1000
1000
0010
0100
,
0001
0001
0010
0100
,
1000
0100
0010
0001
,
2000
3000
0002
0003
,
2000
0000
0000
0000
,
3002
0000
0000
0000
,
0203
0000
0000
0000
,
0302
0000
0000
0000
,
2003
0000
0000
0000
,
3200
0000
0000
0000
,
0320
0000
0000
0000
,
0230
0000
0000
0000
,
0300
0000
0000
0000
;

//---------------dance-single - OrangeRight----------------
#NOTES:
     dance-single:
     OrangeRight:
     Medium:
     10:
     0.449346,0.671866,0.366694,0.497075,0.000000,386.000000,341.000000,45.000000,61.000000,0.000000,0.000000,0.449346,0.671866,0.366694,0.497075,0.000000,386.000000,341.000000,45.000000,61.000000,0.000000,0.000000:
0000
0000
0000
0000
,
0000
0000
0000
0000
,
0000
0000
0000
0000
,
0000
0000
0000
0000
,
0000
0000
0000
0000
,
1000
0001
0100
0010
,
1000
0100
0010
0001
,
1000
0001
1000
0001
1000
0001
1000
0000
,
2000
0000
3000
0002
0000
0003
1000
0000
,
0001
0000
0000
0100
0000
0000
0010
0000
,
1000
0000
0000
0100
0000
0000
0010
0000
,
0001
0100
0010
1000
,
2002
0000
3003
0000
,
1000
0100
0010
0001
,
0100
0000
0010
0000
0100
0010
0100
0010
,
1000
0100
0010
0001
,
1000
0001
2002
3003
,
0001
0110
1000
0110
,
0001
0000
0110
0000
1000
0001
1001
0000
,
1000
0110
0001
0110
,
1001
0000
0110
0000
1000
0010
0100
0001
,
1000
1100
0001
0101
,
1000
1010
0001
0011
,
0020
0130
2000
3001
,
2002
0000
0000
3003
,
2000
0000
0000
0000
,
3002
0000
0000
0000
,
0203
0000
0000
0000
,
0302
0000
0000
0000
,
2003
0000
0000
0000
,
3020
0000
0000
0000
,
0230
0000
0000
0000
,
0302
0000
0003
2000
0000
3000
0001
0000
,
1000
0000
0100
1000
0000
1000
0100
0000
,
0010
0000
0001
0010
0000
0001
0010
0000
,
0001
0000
0010
0001
0000
0001
0010
0000
,
0100
0000
1000
0100
0000
1000
0100
0000
,
1100
1100
1100
1100
,
0110
0110
0110
0110
,
0010
0001
0010
0001
0100
0010
0100
0010
,
2000
0000
3001
0110
,
1100
1000
0100
0010
,
0001
0000
0010
0000
0100
0000
1000
0001
,
2000
0000
3010
0100
,
0001
0100
0010
1001
,
0101
0001
0100
0010
,
1000
0000
0010
0000
0100
0000
0001
1000
,
0002
0000
0013
0100
,
1000
0100
0010
0001
,
1001
0100
0010
1000
,
0100
0000
0010
0000
0001
0000
1000
0001
,
2000
0000
3001
0010
,
0100
1000
0010
1000
,
1001
0010
0100
0001
,
0010
0000
0100
0000
1000
0000
0001
1000
,
0002
0000
1000
0000
1003
0001
1000
0001
,
2000
3200
0320
0032
,
1003
1100
1000
1010
,
0001
0000
0101
0000
0001
0000
1000
0010
,
2000
0000
3001
0011
,
0010
0110
0100
1100
,
0001
0101
1000
1010
,
1000
0000
1100
0000
0001
0000
0010
0100
,
0020
0000
0031
0100
,
0010
1000
0001
0100
0020
0000
0030
0000
,
1000
0000
0100
0000
0010
0000
0001
0010
,
0002
0000
0100
0000
0013
0100
1000
0000
,
1000
0010
0000
0100
0000
0001
0000
0010
,
0001
0000
0100
0000
0010
0000
1000
0010
,
1000
0010
0100
0001
,
0010
0000
0100
1000
0200
0000
0310
0001
,
0100
0010
0000
0010
0000
1000
0000
0100
,
2000
0000
3200
0000
0320
0000
0031
0100
,
0002
0100
0203
0010
,
0320
0000
1000
0000
1030
0001
1000
0000
,
2000
0100
3200
0010
,
0320
0001
0032
0100
,
0203
0000
0010
0000
0301
0010
0100
0000
,
2000
0100
3020
0100
,
0130
0001
1000
0010
,
2002
0000
0000
3003
,
1000
0000
0100
0010
0100
0000
1000
0001
,
0000
0100
0000
0010
0000
1000
0000
0001
,
0200
0010
0320
1000
,
1030
0001
1000
0001
0000
0100
0010
0000
,
1001
0000
0100
0010
0001
0000
1000
0000
,
1001
0000
0001
0100
0010
0000
1000
0000
,
1001
0100
1001
0010
,
2002
0000
0000
3003
,
2000
0000
0000
0000
,
3020
0000
0000
0000
,
0230
0000
0000
0000
,
0302
0000
0000
0000
,
2003
0000
0000
0000
,
3200
0000
0000
0000
,
0320
0000
0000
0030
,
2002
0000
0000
0000
,
3003
0000
0000
0000
;

//---------------dance-single - OrangeRight----------------
#NOTES:
     dance-single:
     OrangeRight:
     Hard:
     13:
     0.654229,0.750909,0.619306,0.521521,0.032595,562.000000,486.000000,76.000000,64.000000,0.000000,0.000000,0.654229,0.750909,0.619306,0.521521,0.032595,562.000000,486.000000,76.000000,64.000000,0.000000,0.000000:
0000
0000
0000
0000
,
0000
0000
0000
0000
,
0000
0000
0000
0000
,
0000
0000
0000
0000
,
0000
0000
0000
0000
,
1001
1001
1100
1100
,
0101
0101
1001
1001
,
1000
0001
0100
0010
1000
0100
0010
0001
,
2000
0000
3000
0002
0000
0003
2000
0000
,
3001
0000
0100
0010
0000
1000
0001
0000
,
1000
0000
0100
0010
0000
0001
1000
0000
,
0001
0000
1000
0100
0010
0001
0100
0020
,
0000
2030
0000
3200
0000
0302
0000
0103
,
1000
0010
1000
0100
1000
0010
1000
0100
,
0010
0001
0100
0001
0010
0001
0100
0010
,
1000
0100
1000
0010
0100
0001
0010
0001
,
0200
0320
0230
0300
,
0001
0100
0001
0010
0001
0100
0001
0010
,
0001
0100
0001
0010
0100
1000
1100
0000
,
1000
0010
1000
0100
1000
0010
1000
0100
,
0110
0000
0011
0000
0001
0100
0010
0000
,
0010
1000
0100
1000
0010
1000
0100
1000
,
0010
1000
0100
1000
0010
0100
0101
0000
,
0001
0100
0001
0100
0000
0000
0010
1000
0010
1000
0000
0000
,
2002
0000
0000
3003
,
0002
0000
0203
0000
0320
0000
1030
0100
,
0000
1100
0000
0110
0000
0011
0000
2002
,
0000
0000
0000
0003
,
0200
0000
0000
3300
,
2000
0000
3200
0000
0320
0000
0031
0100
,
0000
0110
0000
1010
0000
0101
0000
1001
,
0000
0220
0000
0000
0000
0000
0030
0000
,
0302
0000
0000
2003
0000
0000
3001
0000
,
1000
0000
0100
1000
0000
0001
0100
0000
,
0010
0000
0100
0001
0000
0100
0001
0000
,
0001
0000
0010
0001
0000
1000
0010
0000
,
1000
0000
0010
1000
0000
0010
1000
0000
,
1010
1010
1100
1100
,
0110
0110
0011
0011
,
0001
0010
0100
1000
0001
0100
0010
1000
,
0100
0010
0001
1000
0001
0000
1001
0000
,
1100
0000
1000
0100
0010
0001
0010
0100
,
1000
0010
0100
0001
2000
0000
3001
1000
,
0002
0000
0100
0000
0013
0100
1000
0100
,
0010
0001
0100
0010
1000
0000
1001
0000
,
0101
0000
0001
0100
0010
1000
0010
0100
,
0001
0010
0100
0010
0002
0000
1003
0001
,
2000
0000
0100
0000
3010
0100
0001
1000
,
0100
0010
0001
1000
0010
0100
0101
0000
,
1001
0000
1000
1000
0100
0100
0010
0010
,
0001
0001
0100
0100
0010
0010
1000
0001
,
2000
0000
0010
0000
3100
0010
0001
0101
,
0000
0110
0000
1010
0000
1001
0000
0100
,
0110
0000
0010
0010
0100
0100
0001
0001
,
1000
1000
0100
0100
0010
0010
0001
1000
,
0001
0101
1100
1010
,
0010
0100
0001
1000
0100
0010
0001
0000
,
1000
0001
0101
0000
0001
1000
1100
0000
,
1000
0001
0011
0000
0010
0100
1000
0010
,
2000
0000
0100
0000
3010
0100
0101
0000
,
0001
0010
0100
1000
0000
0010
1000
0000
,
0001
0010
0110
0000
1000
0100
0110
0000
,
0001
0100
0110
0000
1000
0010
0110
0000
,
0101
1001
1100
1001
,
0002
0203
0310
1010
,
1000
0100
1000
0010
1000
0100
1000
0010
,
0100
0001
0010
0001
0100
0100
0100
0000
,
0001
0100
0001
0010
0001
0100
0010
1000
,
0100
0010
0001
0100
0020
0000
1030
0000
,
1000
0010
0100
0010
1000
0100
0010
0100
,
1000
0001
0100
0010
0100
0100
0100
0000
,
0001
0100
0010
1000
0100
0010
0001
1000
,
0020
0000
0230
0000
0320
0000
1030
0100
,
2000
3100
1002
0103
,
0201
0000
0310
0000
0010
0010
1000
0001
,
2000
3010
1002
0013
,
0210
1300
0210
0301
,
0001
0100
0010
1000
0100
0010
0001
1000
,
0002
0103
2001
3100
,
1000
0100
1000
0100
0000
0000
0010
0001
0010
0001
0000
0000
,
2002
0000
3003
0110
,
1010
0000
0010
1000
0100
1000
0010
0100
,
0001
0010
0100
0010
0001
0100
0010
1000
,
0020
1030
0210
0301
,
0001
0010
0100
1000
0010
0100
0001
0000
,
0011
0000
0001
0010
0100
1000
0010
0000
,
1010
0000
0010
0100
0001
0010
0100
0000
,
1100
0100
0010
0001
0101
0100
0010
1000
,
2002
0000
3003
0220
0000
0330
1001
0000
,
0220
0000
0000
0300
,
2000
0000
0000
0030
,
0200
0000
0000
3000
,
0020
0000
0000
0300
,
0002
0000
0000
0030
,
0200
0000
0000
0003
,
0020
0000
0000
0330
,
2002
0000
0000
0000
,
3003
0000
0000
0000
;

//---------------dance-single - OrangeRight----------------
#NOTES:
     dance-single:
     OrangeRight:
     Challenge:
     17:
     0.891708,1.185645,0.823025,0.440033,0.431884,766.000000,665.000000,101.000000,54.000000,0.000000,0.000000,0.891708,1.185645,0.823025,0.440033,0.431884,766.000000,665.000000,101.000000,54.000000,0.000000,0.000000:
// measure 0
0000
0000
0000
0000
,  // measure 1
0000
0000
0000
0000
,  // measure 2
0000
0000
0000
0000
,  // measure 3
0000
0000
0000
0000
,  // measure 4
0000
0000
0000
0000
,  // measure 5
1100
0101
1001
0110
,  // measure 6
1010
0011
0110
1001
,  // measure 7
1000
0100
1000
0100
0010
0001
0010
0001
0100
0010
0100
0010
1000
0001
1000
0000
,  // measure 8
1010
0000
0100
0011
0000
0100
1001
0000
,  // measure 9
1100
0000
1000
0101
0000
0100
0110
0000
,  // measure 10
0101
0000
0001
1100
0000
0100
0110
0000
,  // measure 11
0110
0000
0100
1000
0001
0100
0001
1001
,  // measure 12
0000
0011
0000
0110
0000
1100
0000
1001
,  // measure 13
1000
0001
1000
0010
1000
0100
1000
0010
,  // measure 14
1000
0001
0100
0001
0010
0001
0100
0100
,  // measure 15
0010
1000
0100
0010
0001
1000
0010
0100
,  // measure 16
0001
1000
0001
0000
1000
0001
1000
0000
0001
1000
0001
1000
0002
0000
0000
0000
,  // measure 17
1003
0000
0001
0100
0001
0000
0100
0001
0100
0000
0010
1000
0010
0000
1000
0010
,  // measure 18
1000
0000
0100
1000
0100
0000
0010
0100
0010
0000
0001
0000
0011
0000
0000
0000
,  // measure 19
0001
0000
1000
0010
1000
0000
0010
1000
0010
0000
0100
0001
0100
0000
0001
0100
,  // measure 20
0002
0000
0100
0000
2003
0000
0010
0000
3100
0000
1000
0000
0001
1000
0001
1000
,  // measure 21
0001
0000
0100
0010
0100
0000
0010
0100
0010
0000
1000
0001
1000
0000
0001
1000
,  // measure 22
0001
0000
1000
0010
1000
0000
0010
0100
0010
0000
0100
0001
0100
0000
0001
1000
,  // measure 23
0001
0100
0010
1000
0000
0001
1000
0100
0010
0001
0000
0001
,  // measure 24
2000
3200
0320
0032
,  // measure 25
2003
0000
3100
0010
0001
0100
0010
1010
,  // measure 26
0000
0101
0000
1100
0000
0011
0000
2002
,  // measure 27
0000
0000
0000
3000
,  // measure 28
0200
0000
0000
0303
,  // measure 29
0002
0000
0013
0100
1000
0010
0100
0101
,  // measure 30
0000
1010
0000
0011
0000
1100
0000
0110
,  // measure 31
0000
2002
0000
0000
0000
0000
3003
0000
,  // measure 32
1000
0000
0001
0100
0000
0010
1000
0000
,  // measure 33
1001
0000
1000
0101
0000
0001
1100
0000
,  // measure 34
1001
0000
1000
0011
0000
0101
0010
0000
,  // measure 35
0110
0000
0001
0110
0000
1000
0110
0000
,  // measure 36
1001
0000
0010
1001
0000
0110
1000
0001
,  // measure 37
1001
0110
1010
0011
,  // measure 38
0101
1100
0110
1001
,  // measure 39
1000
0001
1000
0001
0100
0010
0100
0010
,  // measure 40
1000
0010
0100
0001
0010
0100
1000
0001
1000
0000
0000
0000
0220
0000
0330
0000
,  // measure 41
1001
0000
1000
1000
0100
0100
0010
0010
,  // measure 42
0001
0000
0001
0000
0100
0000
0100
0000
0010
0000
0010
0000
1000
0100
1000
0001
,  // measure 43
0200
0000
0010
0000
0301
0100
1000
0100
,  // measure 44
0001
0010
0001
0100
0010
0100
0101
0000
,  // measure 45
0011
0000
0001
0001
0010
0010
0100
0100
,  // measure 46
1000
0000
1000
0000
0001
0000
0001
0000
1000
0000
1000
0000
0001
0010
0001
1000
,  // measure 47
0020
0000
0100
0000
1030
0010
0100
0001
,  // measure 48
0010
1000
0010
0001
0100
0010
0100
0001
,  // measure 49
1000
0001
0101
0100
0010
1000
1010
1000
,  // measure 50
0100
0000
0010
0000
0110
0000
0010
0000
0001
0000
1000
0000
0001
1000
0001
1000
,  // measure 51
0002
0000
0010
0000
0103
0010
1010
1000
,  // measure 52
0100
0010
0011
0001
1000
0010
0100
0001
,  // measure 53
0100
0001
0101
0010
0100
1000
1100
0010
,  // measure 54
0100
0000
0001
0000
0011
0000
0100
0000
1000
0000
0010
0000
0100
0010
1000
0001
,  // measure 55
1000
0010
1010
0010
0110
0100
0101
0001
,  // measure 56
1000
0001
0010
0100
1000
0010
0100
0001
0010
0100
0010
0001
0100
0010
1000
0010
,  // measure 57
0100
0001
0010
1000
0010
0001
0100
0010
,  // measure 58
1000
0000
0010
0000
0100
0000
0010
0000
0001
0000
0010
0000
0100
0001
1000
0100
,  // measure 59
2000
0000
0100
0000
3001
0100
1000
0100
,  // measure 60
0001
0010
0100
1000
0000
0010
1000
0000
,  // measure 61
0100
1000
0010
0001
0010
1000
0100
0010
,  // measure 62
0001
0000
0010
0000
0100
0000
0010
0000
1000
0000
0010
0000
0001
0100
0010
0000
,  // measure 63
1000
0100
0010
0001
0100
0010
0100
0001
0010
0100
1000
0010
0100
0010
1000
0100
,  // measure 64
0010
0001
0100
0010
1000
0010
0100
0001
0010
0000
0000
0000
2002
0000
3003
0000
,  // measure 65
0001
0100
0010
0100
0001
0100
0010
1000
,  // measure 66
0100
0010
0100
1000
0100
0100
0010
0001
,  // measure 67
1000
0100
0010
0001
0100
0010
0100
0001
,  // measure 68
1000
0010
0100
0010
1000
0100
0020
0100
,  // measure 69
0130
1000
1100
1000
0001
0100
0101
0010
,  // measure 70
1000
0100
1100
0010
0001
0001
0101
0100
,  // measure 71
0010
1000
0010
1000
0010
0100
0010
0100
0001
0100
0001
0100
0001
1000
0001
1000
,  // measure 72
0010
0000
0100
0000
0001
0000
0010
0000
0100
1000
0001
0100
0010
1000
0100
0000
,  // measure 73
1200
0000
0310
0001
0012
0000
0103
0010
,  // measure 74
0120
0000
0000
0000
1030
0000
0100
0000
0010
0000
0010
0000
0001
1000
0001
0000
,  // measure 75
0201
0000
0310
1000
2010
0000
3100
0010
,  // measure 76
0210
0000
1300
0010
0210
0000
0301
1000
,  // measure 77
2001
0000
0000
0000
3100
0000
0010
0000
0001
0000
1000
0000
0010
0100
0001
0000
,  // measure 78
0201
0000
0310
1000
1200
0000
0310
0001
,  // measure 79
1000
0001
0100
0001
0000
0001
1000
0100
1000
0010
0000
0010
,  // measure 80
0200
0000
0000
0000
0301
0100
0010
1000
0001
0010
0100
1000
0010
0100
0001
1000
,  // measure 81
0001
0010
0001
0001
1000
0010
0100
0001
,  // measure 82
0010
0000
0001
0000
0100
0000
0001
0000
1000
0000
0001
0000
0100
0010
1000
0100
,  // measure 83
0020
0001
0031
0100
0020
1000
1030
0100
,  // measure 84
2000
0001
3001
0100
0020
1000
1030
0001
,  // measure 85
1001
0100
1010
1000
0100
0010
0011
0001
,  // measure 86
0100
0010
1001
1000
0001
1000
0110
0001
,  // measure 87
1000
0001
1000
0001
0100
0010
0100
0010
1000
0001
0100
0010
1000
0100
0010
0000
,  // measure 88
1001
0000
0010
0101
0000
0010
1100
0000
,  // measure 89
2002
0000
0000
3003
,  // measure 90
0202
0000
0000
0303
,  // measure 91
0220
0000
0000
0330
,  // measure 92
2020
0000
0000
3030
,  // measure 93
2002
0000
0000
3003
,  // measure 94
2200
0000
0000
3300
,  // measure 95
0022
0000
0000
0033
,  // measure 96
0220
0000
0000
0000
,  // measure 97
0330
0000
0000
0000
;

//---------------dance-double - OrangeRight----------------
#NOTES:
     dance-double:
     OrangeRight:
     Easy:
     6:
     0.318966,0.395215,0.073339,0.488926,0.000000,274.000000,265.000000,9.000000,60.000000,0.000000,0.000000,0.318966,0.395215,0.073339,0.488926,0.000000,274.000000,265.000000,9.000000,60.000000,0.000000,0.000000:
00000000
00000000
00000000
00000000
,
00000000
00000000
00000000
00000000
,
00000000
00000000
00000000
00000000
,
00000000
00000000
00000000
00000000
,
00000000
00000000
00000000
00000000
,
00010000
00100000
00010000
00100000
,
00001000
00010000
00001000
00010000
,
00000010
00001000
00000010
00001000
,
00000002
00000003
00002000
00003000
,
00000001
00000100
00000010
00001000
,
00000001
00000010
00000100
00001000
,
00000010
00001000
00000100
00010000
,
00002000
00023000
00032000
00003000
,
00010000
00001000
00100000
00010000
,
00100000
01000000
10000000
00100000
,
01000000
01000000
00010000
00010000
,
10000000
00010000
20020000
30030000
,
10000000
01000000
10000000
01000000
,
00100000
00010000
01000000
01000000
,
00010000
00100000
00010000
00100000
,
00001000
00001000
00010000
00010000
,
00000100
00001000
00000100
00001000
,
00000010
00000100
00000010
00000100
,
00000002
00000003
00002000
00003000
,
00002002
00000000
00000000
00003003
,
00000002
00000000
00000000
00000000
,
00000203
00000000
00000000
00000000
,
00000320
00000000
00000000
00000000
,
00000000
00000000
00000000
00000000
,
00020030
00000000
00000000
00000000
,
00032000
00000000
00000000
00000000
,
02003000
00000000
00000000
00000000
,
03020000
00030000
20000000
30000000
,
10000000
00000000
00000000
10000000
00000000
00000000
00000000
00000000
,
01000000
00000000
00000000
01000000
00000000
00000000
00000000
00000000
,
00100000
00000000
00000000
00100000
00000000
00000000
00000000
00000000
,
00010000
00000000
00000000
00010000
00000000
00000000
00000000
00000000
,
10000000
00010000
10000000
00010000
,
01000000
00100000
01000000
00100000
,
10000000
10000000
00010000
00010000
,
10000000
00010000
01000000
10010000
,
10000000
00000000
11000000
00000000
,
00100000
00000000
00010000
00100000
,
00002000
00000000
00013000
00000000
,
00000100
00000000
00001000
00001000
,
00000001
00000000
00000101
00000000
,
00000010
00000000
00001000
00000100
,
00020000
00000000
00031000
00000000
,
00010000
00001000
00010000
00001000
,
00100000
00010000
01000000
00100000
,
10000000
01000000
00100000
00010000
,
00020000
00030000
00100000
00001000
,
00010000
00001000
00200000
00300000
,
00001000
00010000
00000100
00001000
,
00000010
00000100
00000001
00000010
,
00000100
00000100
00001000
00001000
,
00000010
00000100
00000002
00000003
,
00001000
00000100
00010000
00000100
,
00001000
00000010
00000100
00000001
,
00000020
00000030
00000100
00001000
,
00000100
00010000
00001000
00100000
,
00010000
01000000
00001000
01000000
,
00010000
00100000
01000000
10000000
,
00200000
00300000
01000000
00010000
,
10000000
00010000
20020000
30030000
,
10000000
01000000
00100000
00020000
,
01000000
01030000
00100000
01000000
,
00010000
00100000
00001000
00010000
,
00000100
00001000
00000010
00000200
,
00000301
00000100
00000010
00001000
,
00000001
00000020
00000100
00000100
,
00000130
00001000
00000001
00000100
,
00000020
00000030
00000200
00000300
,
00000002
00000000
00000203
00000000
,
00000320
00000000
00001030
00000100
,
00020000
00000000
00032000
00000000
,
00203000
00000000
00320000
00000000
,
02030000
00000000
03100000
10000000
,
00020000
00000000
02030000
00000000
,
03002000
00000000
00023000
00000000
,
00031000
00000000
00000000
00000000
,
00100000
00001000
00010000
00000100
,
01000000
00001000
00010000
00000010
,
00022000
00033000
00022000
00033000
,
00001000
00100000
00010000
01000000
,
00100000
10000000
01000000
00100000
,
00010000
01000000
00001000
00010000
,
00000100
00001000
00000100
00000010
,
00000002
00000003
00002000
00003000
,
00000002
00000000
00000000
00000000
,
00000203
00000000
00000000
00000000
,
00000320
00000000
00000000
00000000
,
00020030
00000000
00000000
00000000
,
00032000
00000000
00000000
00000000
,
02003000
00000000
00000000
00000000
,
03200000
00000000
00000000
00300000
,
20020000
00000000
00000000
00000000
,
30030000
00000000
00000000
00000000
;

//---------------dance-double - OrangeRight----------------
#NOTES:
     dance-double:
     OrangeRight:
     Medium:
     10:
     0.426064,0.671866,0.285207,0.603009,0.000000,366.000000,331.000000,35.000000,74.000000,0.000000,0.000000,0.426064,0.671866,0.285207,0.603009,0.000000,366.000000,331.000000,35.000000,74.000000,0.000000,0.000000:
00000000
00000000
00000000
00000000
,
00000000
00000000
00000000
00000000
,
00000000
00000000
00000000
00000000
,
00000000
00000000
00000000
00000000
,
00000000
00000000
00000000
00000000
,
00010000
00100000
00001000
00010000
,
00000010
00001000
00000100
00010000
,
00001000
00010000
00001000
00010000
00001000
00010000
00001000
00000000
,
00020000
00000000
00030000
00002000
00000000
00003000
00010000
00000000
,
00001000
00000000
00000000
00100000
00000000
00000000
00010000
00000000
,
01000000
00000000
00000000
00001000
00000000
00000000
00010000
00000000
,
00000010
00001000
00000100
00000010
,
00000002
00000203
00000320
00002030
,
00003001
00000001
00000100
00000100
,
00000010
00000000
00000010
00000000
00001000
00000100
00001000
00000000
,
00000100
00010000
00001000
00100000
,
00020000
02030000
03200000
00300000
,
10000000
10100000
00100000
01100000
,
01000000
00000000
01010000
00000000
00010000
00100000
00010000
00000000
,
00100000
00101000
00001000
00011000
,
00001000
00000000
00010000
00000000
00001000
00010000
00000100
00001000
,
00000100
00001100
00000010
00000011
,
00000001
00000000
00000101
00000000
00000100
00000010
00000100
00000000
,
00000002
00001003
00002000
00003100
,
00020200
00000000
00000000
00030300
,
00022000
00000000
00000000
00030000
,
02000000
00000000
00000000
00003000
,
00020000
00000000
00000000
03000000
,
00200000
00000000
00000000
00330000
,
20020000
00000000
00000000
00030000
,
02000000
00000000
00000000
30000000
,
00200000
00000000
00000000
03300000
,
00200000
00000000
00300000
02000000
00000000
03000000
00100000
00000000
,
00010000
00000000
00000000
10000000
00000000
00010000
10000000
00000000
,
00100000
00000000
00000000
01000000
00000000
00010000
00100000
00000000
,
00001000
00000000
00000000
00010000
00000000
00001000
00010000
00000000
,
00001000
00000000
00000000
00010000
00000000
00000010
00000100
00000000
,
00000110
00000110
00000110
00000110
,
00000101
00000101
00000101
00000101
,
00000001
00001000
00000001
00001000
00000001
00001000
00000001
00000000
,
00002002
00000000
00003003
00000110
,
00000010
00000100
00010000
00001000
,
01000000
00000000
00100000
00000000
10000000
00000000
00010000
10000000
,
00020000
00000000
10030000
01000000
,
00100000
00010000
01000000
01100000
,
00100000
01000000
00001000
00010000
,
00000100
00000000
00000010
00000000
00000001
00000000
00001000
00000001
,
00002000
00000000
00003001
00000100
,
00000010
00001000
00000100
00010000
,
00001000
00100000
00010000
01000000
,
00100000
00000000
01000000
00000000
00010000
00000000
00100000
00001000
,
00200000
00000000
00310000
00100000
,
00001000
00000000
00010000
00000000
00000100
00000000
00010000
00000100
,
00010000
00000010
00001000
00000100
,
00000010
00000000
00000100
00000000
00001000
00000000
00000010
00010000
,
00000020
00001000
00001000
00001000
,
00002030
00003002
00002003
00003002
,
00001003
00001100
00000010
00000011
,
00000001
00000000
00000101
00000000
00000010
00000000
00000010
00001000
,
00000200
00010300
00001000
00101000
,
00100000
01000000
00100000
01000000
00000000
10000000
00010000
00000000
,
00010000
01010000
00100000
10100000
,
10000000
00000000
11000000
00000000
00100000
00000000
00100000
00010000
,
02000000
03001000
00010000
00000010
,
00002000
00003002
00001003
00000110
,
00001000
00000000
00000100
00000000
00000010
00000000
00000001
00000100
,
00000002
00000000
00001000
00000000
00000103
00000100
00000100
00000000
,
00000010
00001000
00000100
00010000
,
00001000
00100000
00020000
00030000
,
00010000
01000000
00100000
10000000
,
01000000
00000000
00200000
00000000
00310000
01000000
00010000
00000000
,
00100000
01000000
10000000
00100000
,
02000000
00000000
03200000
00000000
02300000
00000000
03010000
10000000
,
00020000
00100000
00230000
01000000
,
02300000
00000000
10000000
00000000
13000000
00000000
10000000
00010000
,
02000000
00010000
03020000
00100000
,
00230000
00001000
00302000
00010000
,
00023000
00000000
00000100
00000000
00030200
00000000
00001300
00000100
,
00000020
00000001
00000230
00001000
,
00002300
00003001
00000002
00001003
,
00002002
00000000
00000000
00003003
,
00000001
00000000
00001000
00000000
00000100
00000000
00010000
00001000
,
00000000
00010000
00000000
00001000
00000000
01000000
00000000
00100000
,
02000000
03010000
00020000
00130000
,
00200000
01300000
02000000
13000000
,
10000000
00000000
00010000
00000000
01000000
00000000
00001000
00010000
,
00000000
00001000
00000000
00010000
00000000
00000100
00000000
00001000
,
00000100
00001001
00000010
00001001
,
00000220
00000000
00000000
00000330
,
00000002
00000000
00000000
00000000
,
00000200
00000000
00000000
00000003
,
00000020
00000000
00000000
00000300
,
00002000
00000000
00000000
00000030
,
00000200
00000000
00000000
00003000
,
00020000
00000000
00000000
00000300
,
00002000
00000000
00000000
00033000
,
00022000
00000000
00000000
00000000
,
00033000
00000000
00000000
00000000
;

//---------------dance-double - OrangeRight----------------
#NOTES:
     dance-double:
     OrangeRight:
     Hard:
     13:
     0.671691,0.750909,0.611157,0.513372,0.032595,577.000000,502.000000,75.000000,63.000000,0.000000,0.000000,0.671691,0.750909,0.611157,0.513372,0.032595,577.000000,502.000000,75.000000,63.000000,0.000000,0.000000:
00000000
00000000
00000000
00000000
,
00000000
00000000
00000000
00000000
,
00000000
00000000
00000000
00000000
,
00000000
00000000
00000000
00000000
,
00000000
00000000
00000000
00000000
,
00011000
00011000
00101000
00010100
,
00011000
00011000
00010010
01001000
,
00001000
00010000
00000100
00010000
00001000
00100000
00010000
01000000
,
02200000
00000000
03300000
20020000
00000000
30030000
01100000
00000000
,
00100000
10000000
01000000
10000000
00100000
00000000
10010000
00000000
,
00100000
00010000
01000000
00010000
00100000
00000000
01100000
00000000
,
01000000
10000000
00100000
01000000
00010000
00000000
01000000
00002000
,
00000000
00023000
00000000
00030200
00000000
00002300
00000000
00003010
,
00000100
00000001
00000010
00000001
00000100
00000001
00000010
00000001
,
00000100
00000010
00001000
00000010
00000100
00000010
00001000
00000100
,
00010000
00001000
00010000
00001000
00010000
00001000
00010000
00001000
,
00020000
00032000
00023000
00030000
,
00001000
01000000
00001000
00100000
00001000
00010000
00001000
00100000
,
00001000
01000000
00001000
00100000
00001000
00001000
00001000
00000000
,
00010000
00000010
00010000
00000100
00010000
00001000
00010000
00000100
,
00010100
00000000
00101000
00000000
00001000
01000000
00010000
00000000
,
00010000
01000000
00100000
01000000
00010000
01000000
00100000
01000000
,
00010000
00100000
00001000
00100000
00010000
00100000
00001000
00100000
,
00001000
00010000
00001000
00010000
00000000
00000000
00000100
00001000
00000100
00001000
00000000
00000000
,
00000220
00000000
00000000
00000330
,
00000002
00000000
00000203
00000000
00000320
00000000
00001030
00000100
,
00000000
00001100
00000000
00010100
00000000
00011000
00000000
00202000
,
00000000
00000000
00000000
00003000
,
00020000
00000000
00000000
00330000
,
00020000
00000000
02030000
00000000
03200000
00000000
10300000
00010000
,
00000000
10010000
00000000
01010000
00000000
01001000
00000000
00101000
,
00000000
00022000
00000000
00000000
00000000
00000000
00033000
00000000
,
00002000
00000000
00000000
00023000
00000000
00000000
00031000
00000000
,
00010000
00000000
00000100
00001000
00000000
00000100
00000010
00000000
,
00000001
00000000
00000100
00000010
00000000
00000010
00000100
00000000
,
00000001
00000000
00000010
00000100
00000000
00001000
00000100
00000000
,
00010000
00000000
00001000
00010000
00000000
00010000
00001000
00010000
,
00011000
00011000
00101000
00101000
,
01010000
01010000
10100000
10100000
,
10000000
00010000
01000000
00100000
10000000
01000000
00100000
00010000
,
01000000
10000000
01000000
00010000
00100000
00000000
00101000
00000000
,
00011000
00000000
00001000
00001000
00010000
00010000
00000100
00000100
,
00001000
00001000
00000010
00000010
00000100
00000100
00000001
00000100
,
00000002
00000000
00000100
00000000
00001003
00001000
00000010
00000010
,
00010000
00010000
00001000
00001000
01000000
00000000
01010000
00000000
,
10010000
00000000
10000000
10000000
01000000
01000000
00100000
00100000
,
00010000
00010000
01000000
01000000
00001000
00001000
00010000
00001000
,
00020000
00000000
00001000
00000000
00030100
00000100
00010000
00010000
,
00001000
00010000
00000100
00001000
00000100
00010000
00001000
00000000
,
00011000
00000000
00010000
00010000
00001000
00001000
01000000
01000000
,
00010000
00010000
00100000
00100000
01000000
01000000
10000000
01000000
,
20000000
00000000
01000000
00000000
30010000
00010000
00100000
00100000
,
00001000
00001000
00010000
00010000
00000100
00001000
00000001
00001000
,
00001001
00000000
00000001
00000001
00000100
00000100
00000010
00000010
,
00001000
00001000
00000100
00000100
00010000
00010000
00001000
00010000
,
00002000
00000000
00010000
00000000
00013000
00001000
00010000
00001000
,
00010000
00001000
01000000
00100000
10000000
01000000
00100000
00010000
,
10000000
01000000
11000000
00000000
10000000
00100000
10100000
00000000
,
00100000
01000000
01100000
00000000
01000000
00010000
00100000
00010000
,
01020000
00000000
01000000
00000000
00130000
01000000
11000000
00000000
,
00100000
01000000
00010000
00100000
00001000
00010000
00000100
00000000
,
00001000
00000100
00001100
00000000
00000010
00000001
00000011
00000000
,
00000001
00000100
00000110
00000000
00001000
00000010
00000110
00000000
,
00001001
00000110
00001100
00000101
,
00000002
00000203
00000320
00001030
,
00001000
00000100
00001000
00000010
00001000
00000100
00010000
00001000
,
00100000
00010000
01000000
00010000
00100000
00100000
00100000
00000000
,
00010000
01000000
00100000
10000000
01000000
00010000
00001000
00010000
,
01000000
10000000
00100000
01000000
00010000
00100000
00110000
00000000
,
00010000
01000000
00010000
00100000
00010000
01000000
00010000
00100000
,
00010000
01000000
00001000
00010000
00000010
00001000
00000100
00000010
,
00000001
00000100
00000010
00001000
00000100
00010000
00001000
00000100
,
00001000
00010000
01000000
10000000
00200000
00000000
01300000
00010000
,
20010000
31000000
12000000
03100000
,
00120000
00000000
01030000
00000000
01000000
00001000
00010000
00000100
,
00002100
00003001
00000201
00000310
,
00000120
00001030
00001200
00010300
,
00012000
00000000
00103000
00000000
00010000
00100000
01000000
10000000
,
10200000
01300000
02100000
03010000
,
00010000
01000000
00010000
01000000
00000000
00000000
00100000
10000000
00100000
10000000
00000000
00000000
,
20020000
00000000
00000000
30030000
,
10000000
00010000
01000000
00010000
00100000
00001000
00010000
00100000
,
00010000
00001000
00000100
00001000
00010000
00000100
00001000
00000010
,
00001020
00000130
00000021
00000130
,
00000100
00001000
00000010
00000100
00000001
00000010
00000100
00000000
,
00000110
00000000
00000010
00000001
00000100
00000010
00001000
00000000
,
00001100
00000000
00000100
00010000
00001000
00100000
00010000
00000000
,
00110000
00010000
00100000
01000000
11000000
10000000
01000000
00100000
,
20020000
00000000
30030000
02200000
00000000
03300000
10010000
00000000
,
20020000
00000000
00000000
30000000
,
02000000
00000000
00000000
00030000
,
00002000
00000000
00000000
03000000
,
00020000
00000000
00000000
00003000
,
00000200
00000000
00000000
00030000
,
00002000
00000000
00000000
00003000
,
00000020
00000000
00000000
00000330
,
00002002
00000000
00000000
00000000
,
00003003
00000000
00000000
00000000
;

//---------------dance-double - OrangeRight----------------
#NOTES:
     dance-double:
     OrangeRight:
     Challenge:
     17:
     0.863769,1.146124,0.896364,0.472628,0.378918,742.000000,632.000000,110.000000,58.000000,0.000000,0.000000,0.863769,1.146124,0.896364,0.472628,0.378918,742.000000,632.000000,110.000000,58.000000,0.000000,0.000000:
00000000
00000000
00000000
00000000
,
00000000
00000000
00000000
00000000
,
00000000
00000000
00000000
00000000
,
00000000
00000000
00000000
00000000
,
00000000
00000000
00000000
00000000
,
10010000
01001000
00101000
00011000
,
00010010
00001010
00001001
00000101
,
00000001
00000100
00000010
00000100
00000001
00000010
00000100
00001000
00000010
00000100
00000010
00001000
00000100
00010000
00001000
00010000
,
00002000
00000000
00010000
00023000
00000000
00001000
00032000
00000000
,
00103000
00000000
00110000
00001000
00000000
00010000
00001010
00000000
,
00010100
00000000
00001100
00010000
00000000
00001000
01010000
00000000
,
00100000
00000000
01000000
10000000
00010000
01000000
00010000
10010000
,
00000000
11000000
00000000
10010000
00000000
00110000
00000000
00011000
,
00010000
00001000
00010000
00000100
00010000
00000010
00010000
00000100
,
00010000
00001000
00100000
00001000
01000000
00001000
00100000
00010000
,
01000000
00100000
10000000
00010000
00100000
01000000
10000000
00010000
,
10000000
01000000
10000000
00000000
00010000
00100000
00010000
00000000
00100000
00001000
00100000
00001000
00020000
00000000
00000000
00000000
,
00031000
00000000
00100000
00001000
00100000
00000000
00001000
00100000
00001000
00000000
00100000
00001000
00100000
00000000
00001000
00100000
,
00010000
00000000
01000000
00010000
01000000
00000000
00010000
01000000
00100000
00000000
01000000
00000000
01010000
00000000
00000000
00000000
,
00010000
00000000
01000000
00010000
01000000
00000000
00010000
01000000
00010000
00000000
01000000
00010000
01000000
00000000
00010000
01000000
,
00002000
00000000
00000000
00000000
00023000
00000000
00000000
00000000
00030100
00000000
00001000
00000000
00000010
00001000
00000010
00001000
,
00000100
00000000
00010000
00000100
00010000
00000000
00000100
00010000
00000100
00000000
00010000
00000100
00010000
00000000
00000100
00010000
,
00000100
00000000
00001000
00000010
00001000
00000000
00000010
00001000
00000010
00000000
00001000
00000010
00001000
00000000
00000010
00001000
,
00000010
00001000
00000100
00010000
00000000
00000000
00001000
00100000
00010000
01000000
00000000
00000000
,
01020000
00230000
20300000
30200000
,
00320000
00000000
01030000
00100000
10000000
01000000
00100000
00110000
,
00000000
01010000
00000000
00011000
00000000
00001010
00000000
00002200
,
00000000
00000000
00000000
00003000
,
00020000
00000000
00000000
00030300
,
00001100
00000000
00000100
00000010
00000001
00000100
00000010
00001010
,
00000000
00001100
00000000
00011000
00000000
00110000
00000000
01010000
,
00000000
20020000
00000000
00000000
00000000
00000000
30030000
00000000
,
01100000
00000000
10000000
00010000
00000000
00100000
01000000
00000000
,
11000000
00000000
00010000
00110000
00000000
00100000
00101000
00000000
,
00011000
00000000
00010000
00010100
00000000
00010000
00010010
00000000
,
00001100
00000000
00000010
00000011
00000000
00000001
00000101
00000000
,
00000100
00000000
00000010
00001010
00000000
00000010
00010010
00000000
,
00010100
00011000
00101000
00110000
,
01010000
01001000
00011000
00010010
,
00001000
00000010
00000100
00000001
00000010
00001000
00000010
00000001
,
00000100
00000010
00001000
00000001
00000010
00000100
00001000
00000010
00020000
00000000
00000000
00000000
00031000
00000000
00000000
00000000
,
00011000
00000000
00001000
00001000
00100000
00100000
00010000
00010000
,
01000000
00000000
01000000
00000000
00100000
00000000
00100000
00000000
10000000
00000000
10000000
00000000
00010000
10000000
00010000
10000000
,
00020000
00000000
00100000
00000000
01030000
00100000
10000000
01000000
,
00100000
00010000
01000000
00001000
00010000
00000000
01001000
00000000
,
00011000
00000000
00010000
00010000
00000010
00000010
00001000
00001000
,
00000100
00000000
00000100
00000000
00000010
00000000
00000010
00000000
00000001
00000000
00000001
00000000
00001000
00000001
00001000
00000001
,
00002000
00000000
00000010
00000000
00003100
00000010
00000001
00000100
,
00000010
00001000
00000100
00010000
00002000
00000000
00023000
00000000
,
00031000
00000000
00101000
00001000
00010000
00001000
00011000
00010000
,
00000100
00000000
00010000
00000000
00010100
00000000
00000100
00000000
00001000
00000000
00000010
00000000
00000100
00000001
00000010
00000100
,
00002000
00000000
00000100
00000000
00003100
00000010
00000001
00000011
,
00000000
00000110
00000000
00010100
00000000
00011000
00000000
01001000
,
00010000
00000000
00010010
00010000
00001000
00010000
00011000
00001000
,
01000000
00000000
00001000
00000000
01001000
00000000
01000000
00000000
00010000
00000000
00100000
00000000
01000000
10000000
01000000
00000000
,
11000000
01000000
01100000
00100000
00110000
00100000
00101000
00001000
,
00010000
00001000
00010000
00000000
00001000
00100000
00001000
00000000
00010000
00000010
00010000
00000000
00001000
01000000
00010000
00000000
,
10000000
00010000
01000000
10000000
01000000
00010000
00100000
00101000
,
00000000
00000000
00010100
00000000
00000000
00000000
01001000
00000000
00000000
00000000
00010010
00000000
00010000
00000010
00001000
00000100
,
00020000
00000000
00000100
00000000
00030010
00000100
00000001
00000010
,
00001000
00000010
00000001
00000100
00000010
00001000
00001100
00000000
,
00000001
00001000
00000100
00000001
00000100
00001000
00000010
00010010
,
00000000
00000000
01001000
00000000
00000000
00000000
00010100
00000000
00000000
00000000
00101000
00000000
00001000
00100000
00010000
01000000
,
00002000
00000000
01000000
00000000
00103000
01000000
10000000
00100000
,
10000000
01000000
00100000
00010000
01000000
00100000
01000000
00010000
00100000
00000000
00000000
00000000
02200000
00000000
03300000
00000000
,
10000000
01000000
00100000
00010000
01000000
00100000
01000000
00010000
,
00100000
00001000
00010000
00000100
00010000
00010000
00001000
00010000
,
00001000
01000000
00010000
00100000
01000000
10000000
00100000
01000000
,
00010000
01000000
00001000
01000000
00010000
00100000
00002000
00000000
,
00013000
00000100
00010100
00010000
00001000
00100000
00101000
00001000
,
01000000
00001000
01001000
01000000
00010000
01100000
10010000
00000000
,
00100000
10000000
00100000
01000000
00010000
00100000
01000000
10000000
00100000
01000000
00010000
00100000
00001000
00010000
00001000
00010000
,
00001000
00000000
00010000
00000000
00000010
00000000
00000100
00000000
00000001
00001000
00000010
00000100
00000001
00000010
00000100
00000000
,
00000210
00000000
00001300
00000100
00001200
00000000
00010300
00001000
,
00012000
00000000
00000000
00000000
00103000
00000000
00010000
00000000
01000000
00000000
01000000
00000000
00010000
01000000
00100000
00000000
,
02100000
00000000
03010000
01000000
02010000
00000000
03001000
00010000
,
00021000
00000000
00030010
00001000
00002100
00000000
00003010
00000100
,
00000102
00000000
00000000
00000000
00001003
00000000
00000000
00000000
00000100
00000000
00010000
00000000
00001000
00100000
00010000
01000000
,
00020000
00100000
00130000
00001000
00020000
00000010
00030010
00001000
,
00000100
00001000
00000010
00010000
00000000
00000000
00001000
00100000
00010000
01000000
00000000
00000000
,
02000000
00000000
00000000
00000000
03010000
00100000
01000000
10000000
00100000
01000000
00010000
00100000
01000000
10000000
00100000
01000000
,
00010000
00100000
00101000
00001000
00010000
00000100
00010100
00010000
,
00000010
00000000
00000001
00000000
00000010
00000000
00001000
00000000
00000100
00000000
00010000
00000000
00001000
00100000
00010000
01000000
,
00200000
10000000
10300000
00010000
02000000
00010000
03010000
00100000
,
00002000
00010000
00013000
00000100
00002000
00000100
00003100
00000010
,
00000011
00000001
00000101
00000100
00000010
00001000
00001100
00000100
,
00010000
00001000
00011000
00001000
00100000
00010000
00110000
00010000
,
00100000
00010000
01000000
00010000
00100000
00001000
00010000
00000010
00001000
00000100
00001000
00000010
00010000
00001000
00010000
00000010
,
00000100
00000000
00000010
00000110
00000000
00000100
00000101
00000000
,
00002002
00000000
00000000
00003003
,
00020020
00000000
00000000
00030030
,
00202000
00000000
00000000
00303000
,
20020000
00000000
00000000
30030000
,
02200000
00000000
00000000
03300000
,
02002000
00000000
00000000
03003000
,
00020200
00000000
00000000
00030300
,
00000220
00000000
00000000
00000000
,
00000330
00000000
00000000
00000000
;
