#VERSION:0.83;
#TITLE:Naughty Nekomata;
#SUBTITLE:;
#ARTIST:megawolf77;
#TITLETRANSLIT:;
#SUBTITLETRANSLIT:;
#ARTISTTRANSLIT:;
#GENRE:ROTTERDAM GABBER;
#ORIGIN:;
#CREDIT:;
#BANNER:;
#BACKGROUND:;
#PREVIEWVID:;
#JACKET:;
#CDIMAGE:;
#DISCIMAGE:;
#LYRICSPATH:;
#CDTITLE:cdtitle.png;
#MUSIC:naughtynekomata.ogg;
#OFFSET:-0.031542;
#SAMPLESTART:62.120998;
#SAMPLELENGTH:7.164000;
#SELECTABLE:YES;
#BPMS:0.000=201.000;
#STOPS:;
#DELAYS:;
#WARPS:;
#TIMESIGNATURES:0.000=4=4;
#TICKCOUNTS:0.000=4;
#COMBOS:0.000=1;
#SPEEDS:0.000=1.000=0.000=0;
#SCROLLS:0.000=1.000;
#FAKES:;
#LABELS:0.000=Song Start;
#BGCHANGES:;
#KEYSOUNDS:;
#ATTACKS:
;

//---------------dance-single - ----------------
#NOTEDATA:;
#CHARTNAME:;
#STEPSTYPE:dance-single;
#DESCRIPTION:;
#CHARTSTYLE:;
#DIFFICULTY:Challenge;
#METER:17;
#RADARVALUES:1.084324,1.260082,0.338061,0.064393,0.861250,943.000000,901.000000,42.000000,8.000000,0.000000,0.000000,0.000000,0.000000,0.000000,1.084324,1.260082,0.338061,0.064393,0.861250,943.000000,901.000000,42.000000,8.000000,0.000000,0.000000,0.000000,0.000000,0.000000;
#CREDIT:TonyAkita;
#NOTES:
0000
0000
0000
0000
,
0000
0000
0000
0000
,
0000
0000
0000
0000
,
0000
0000
0000
0000
,
1000
0000
0010
0000
1000
0000
0001
0100
0001
0000
0100
0000
1000
0000
0100
0000
,
0001
0000
0010
0000
0001
0000
1000
0100
1000
0000
0100
0000
0001
0000
0100
0000
,
1000
0000
0100
0000
0010
0000
0001
0100
0001
0000
0010
0000
0100
0000
1000
0000
,
0001
0100
0001
0100
0001
0100
0010
1000
0010
1000
0010
1000
,
0001
0000
0010
0000
1000
0000
0010
0001
0010
0000
0100
0000
1000
0000
0001
1000
,
0001
0000
0100
0000
1000
0000
0100
0000
0001
0100
0001
0100
0010
0000
1000
0000
,
0001
0000
0010
0000
1000
0000
0010
0001
0010
0000
0100
0000
1000
0000
0001
1000
,
0001
0000
0100
0000
0010
0000
0110
0000
0000
0000
0001
0000
1000
0010
1000
0010
,
1000
0000
0010
0000
0001
0000
0010
1000
0010
0000
0100
0000
0001
0000
1000
0001
,
1000
0000
0100
0000
0001
0000
0100
0000
1000
0100
1000
0100
0010
0000
0001
0000
,
1000
0000
0010
0000
0001
0000
0010
1000
0010
0000
0100
0000
0001
0000
1000
0000
,
0100
0010
0100
0010
0100
0010
0001
1000
0001
1000
0001
1000
,
0001
0010
0001
0000
1000
0000
0001
0100
0001
0000
1000
0000
0010
0100
0010
0000
,
0001
0000
0010
0100
0010
0000
1000
0000
0001
1000
0001
0000
1001
0000
0000
0000
,
1000
0010
1000
0000
0001
0000
1000
0100
1000
0000
0001
0000
0100
0010
0100
0000
,
1000
0000
0100
0010
0100
0000
0001
0000
1000
0100
1000
0100
0010
0001
0010
0001
,
1000
0001
0100
0000
0010
0000
0100
0001
0010
0000
0001
0000
1000
0010
0100
0000
,
0001
0000
0100
0010
1000
0000
0001
0000
1000
0001
1000
0000
1001
0000
0000
0000
,
0001
1000
0010
0000
0100
0000
0010
1000
0100
0000
0010
0000
0001
0010
0100
0000
,
1000
0000
0100
0010
0001
0000
1000
0000
0010
0100
0010
0100
0001
1000
0001
1000
,
0001
0000
0010
0000
0001
0000
1000
0000
0010
0100
0010
0100
0001
0000
1000
0000
,
0100
0000
0001
0000
0100
0000
1000
0100
1000
0000
0001
0000
0100
0000
0010
0000
,
1000
0000
0010
0000
1000
0000
0001
0000
0010
0100
0010
0100
1000
0000
0001
0000
,
0100
0000
1000
0000
0100
0000
0001
0100
0001
0000
1000
0000
0100
0000
0010
0000
,
0001
0000
0100
0000
0001
0000
0010
0000
0100
1000
0100
1000
0010
0000
1000
0000
,
0100
0000
0010
0000
0100
0000
1000
0100
1000
0000
0100
0000
0010
0000
0001
0000
,
1000
0000
0100
0000
1000
0000
0010
0000
0100
0001
0100
0001
0010
0000
0001
0000
,
0100
0000
0010
0000
0100
0000
0001
0000
1000
0100
1000
0100
0010
0001
0010
0001
,
1000
0000
0010
0000
0001
0000
0010
0000
1000
0010
1000
0010
0100
0000
0001
0000
,
1000
0000
0100
0000
0001
0000
0100
1000
0100
0000
1000
0000
0100
0000
0010
0000
,
0001
0000
0010
0000
1000
0000
0010
0000
0001
0010
0001
0010
0100
0000
1000
0000
,
0001
0000
0100
0000
1000
0000
0100
0001
0100
0000
0001
0000
0100
0000
0010
0000
,
1000
0000
0100
0000
1000
0000
0010
0000
0100
0001
0100
0001
0010
0000
0001
0000
,
0100
0000
1000
0000
0100
0000
0001
0100
0001
0000
0100
0000
0010
0000
1000
0000
,
0001
0000
0100
0000
0001
0000
0010
0000
0100
1000
0100
1000
0010
0000
1000
0000
,
0100
0000
0001
0000
0100
0000
1000
0000
0001
0100
0001
0100
0010
1000
0010
1000
,
0001
0000
0010
0000
1000
0000
0010
0001
0010
0000
0100
0000
1000
0000
0000
0000
,
0001
0000
0100
0000
1000
0000
0100
0000
0001
0000
0100
0000
0010
0100
0010
0000
,
1000
0000
0010
0000
0001
0000
0010
1000
0010
0000
0100
0000
0001
0000
0000
0000
,
1000
0000
0100
0000
0001
0000
0100
0000
1000
0000
0100
0000
0010
0100
0010
0000
,
0001
0000
0010
0000
0001
0000
1000
0001
1000
0000
0010
0000
0100
0000
0000
0000
,
0001
0000
0100
0000
0001
0000
1000
0000
0100
0000
0001
0000
0100
1000
0100
0000
,
1000
0000
0010
0000
1000
0000
0001
1000
0001
0000
0010
0000
0100
0000
1000
0000
,
0001
0100
0001
0100
0010
1000
0010
1000
0010
0100
0010
0100
0001
1000
0001
1000
,
0001
0010
0001
0000
0100
0000
0001
0010
0001
0000
1000
0000
0001
0010
0001
0000
,
0100
0000
0001
0010
0001
0000
1000
0000
1001
0000
0000
0001
1000
0000
0001
0000
,
1000
0010
1000
0000
0100
0000
1000
0010
1000
0000
0001
0000
1000
0010
1000
0000
,
0100
0000
1000
0010
1000
0000
0001
0000
0010
0100
0010
0100
1000
0001
1000
0001
,
0100
0010
0100
0000
0001
0000
0100
0010
0100
0000
1000
0000
0100
0010
0100
0000
,
0001
0000
0100
0010
0100
0000
1000
0000
0110
0000
0000
1000
0001
0000
1000
0000
,
0100
0010
0100
0000
1000
0000
0100
0010
0100
0000
0001
0000
0100
0010
0100
0000
,
1000
0100
1000
0100
1000
0100
0010
0001
0010
0001
0010
0001
,
1000
0010
1000
0100
0010
0000
0011
0000
,
0001
0010
0001
0100
0010
0000
1010
0000
,
1000
0100
1000
0010
0100
0000
0101
0000
,
0001
0100
0001
0100
0010
1000
0010
1000
,
0001
0010
1000
0010
0001
0000
1001
0000
,
1000
0010
0001
0010
1000
0000
1001
0000
,
0001
0100
1000
0100
0001
0000
1001
0000
,
1000
0100
1000
0100
1000
0100
0010
0001
0010
0001
0010
0001
,
1000
0010
0100
0020
0000
0001
0000
0230
,
0000
1000
0300
0100
0001
0100
0010
1000
,
0001
0010
0100
0010
1000
0010
0100
0010
,
0001
0000
0000
0010
0000
0000
0100
0000
0000
1000
0000
0000
1001
0000
0000
0000
0000
0000
1000
0000
0001
0000
1000
0000
,
0001
0010
0100
0020
0000
1000
0000
0230
,
0000
0001
0300
0100
1000
0100
0010
0001
,
1000
0010
0100
0010
0001
0010
0100
0010
,
1000
0010
0100
0001
2002
0000
3003
0000
,
1000
0100
0001
0100
0000
1100
0000
0101
,
0000
0110
0000
1000
0001
0010
1000
0010
,
0001
0000
1000
0000
0010
0000
0100
0001
0100
0000
0010
0000
1000
0000
0010
0100
,
0010
0000
0000
0100
0000
0000
0001
0000
0000
1000
0000
0000
1001
0000
0000
0000
0000
0000
1000
0000
0001
0000
1000
0000
,
0001
0100
1000
0100
0000
0101
0000
1100
,
0000
0110
0000
0001
1000
0010
0001
0010
,
1000
0000
0001
0000
0010
0000
0100
1000
0100
0000
0010
0000
0001
0000
0010
0100
,
1000
0100
1000
0000
0100
0010
0100
0000
0010
0001
0010
0000
0011
0000
0000
0000
,
1001
0000
0000
1010
0000
0000
1001
0000
0001
0000
0001
0000
0001
0000
0000
0000
,
1001
0000
0000
0011
0000
0000
1001
0000
1000
0000
1000
0000
1000
0000
0000
0000
,
1010
0000
0000
1100
0000
0000
1010
0000
0010
0000
0100
0000
0001
0000
0000
0000
,
0011
0000
0000
0101
0000
0000
0011
0000
0010
0000
0100
0000
1000
0000
0000
0000
,
1010
0000
0000
0010
0000
0100
0001
0000
0011
0000
0000
0010
0000
0100
1000
0000
,
0101
0000
0000
0100
0000
0010
1000
0000
1100
0000
0000
0100
0000
0010
0001
0000
,
1010
0000
0010
0100
0000
0001
0100
0000
0011
0000
0010
0100
0000
1000
0100
0000
,
1100
0000
0100
0010
0000
0001
0010
0000
0101
0000
0100
0010
0000
1000
0010
0000
,
0100
0000
0001
0000
1000
0001
0010
0000
0100
0000
1000
0000
0001
1000
0010
0000
,
1000
0000
0100
0000
0010
0001
1000
0000
0001
0000
0100
0000
0010
1000
0001
0000
,
0010
0000
0100
0000
1000
0001
1000
0000
0001
0010
0001
0010
0100
1000
0100
1000
,
0001
0100
0010
1000
0100
0010
0001
0100
0010
1000
0100
0010
0001
0100
0010
1000
,
0001
0010
0001
0000
1000
0000
0001
0100
0001
0000
1000
0000
0001
0010
0001
0000
,
1000
0000
0001
0100
0001
0000
1000
0000
0001
0000
0010
0100
1000
0000
0001
0000
,
1000
0010
1000
0000
0001
0000
1000
0100
1000
0000
0001
0000
1000
0010
1000
0000
,
0001
0000
1000
0100
1000
0000
0001
0000
1000
0010
1000
0010
0100
0001
0100
0001
,
0100
0010
0100
0000
0001
0000
0100
0010
0100
0000
1000
0000
0100
0010
0100
0000
,
0001
0000
0100
0010
0100
0000
1000
0000
0100
0000
0001
0100
0010
0000
1000
0000
,
0100
0010
0100
0000
0001
0000
0100
0010
0100
0000
1000
0000
0100
0010
0100
0000
,
0001
0000
0100
0010
0100
0000
1000
0000
0001
0100
0001
0100
0010
1000
0010
1000
,
0001
1000
2002
0000
0000
0000
0000
0000
,
3003
0000
0000
0000
;

//---------------dance-single - ----------------
#NOTEDATA:;
#CHARTNAME:;
#STEPSTYPE:dance-single;
#DESCRIPTION:;
#CHARTSTYLE:;
#DIFFICULTY:Hard;
#METER:16;
#RADARVALUES:0.962438,1.219434,0.330012,0.064393,0.655999,837.000000,796.000000,41.000000,8.000000,0.000000,0.000000,0.000000,0.000000,0.000000,0.962438,1.219434,0.330012,0.064393,0.655999,837.000000,796.000000,41.000000,8.000000,0.000000,0.000000,0.000000,0.000000,0.000000;
#CREDIT:TonyAkita;
#NOTES:
// measure 0
0000
0000
0000
0000
,  // measure 1
0000
0000
0000
0000
,  // measure 2
0000
0000
0000
0000
,  // measure 3
0000
0000
0000
0000
,  // measure 4
1000
0000
0010
0000
1000
0000
0001
1000
0001
0000
0010
0000
0100
0000
1000
0000
,  // measure 5
0001
0000
0010
0000
0001
0000
1000
0001
1000
0000
0010
0000
0100
0000
0001
0000
,  // measure 6
1000
0000
0100
0000
1000
0000
0001
1000
0001
0000
0100
0000
0010
0000
1000
0000
,  // measure 7
0001
0010
0001
0010
0001
0010
0100
1000
0100
1000
0100
1000
,  // measure 8
0001
0100
1000
0100
0001
0010
1000
0010
,  // measure 9
0001
0000
0010
0000
0100
0000
1000
0000
0001
0000
0100
0010
0100
0000
0001
0000
,  // measure 10
1000
0100
0001
0100
1000
0010
0001
0010
,  // measure 11
1000
0010
0100
0110
0000
0001
1000
0001
,  // measure 12
1000
0010
0001
0010
1000
0100
0001
0100
,  // measure 13
1000
0000
0100
0000
0010
0000
0001
0000
1000
0000
0010
0100
0010
0000
1000
0000
,  // measure 14
0001
0010
1000
0010
0001
0100
1000
0100
,  // measure 15
0001
0100
0001
0100
0001
0100
0010
1000
0010
1000
0010
1000
,  // measure 16
0001
0010
0001
0000
0000
0000
0001
0100
0001
0000
0000
0000
0100
0010
0100
0000
,  // measure 17
0000
0000
0010
1000
0010
0000
0000
0000
1001
0000
1001
0000
1001
0000
0000
0000
,  // measure 18
1000
0010
1000
0000
0000
0000
1000
0100
1000
0000
0000
0000
0100
0010
0100
0000
,  // measure 19
0000
0000
0010
0001
0010
0000
0000
0000
0001
0000
0010
0000
0100
0000
1000
0000
,  // measure 20
0001
0100
0010
0000
0000
0000
1000
0001
0010
0000
0000
0000
0100
1000
0010
0000
,  // measure 21
0000
0000
0100
0001
1000
0000
0000
0000
1001
0000
1001
0000
1001
0000
0000
0000
,  // measure 22
1000
0100
0010
0000
0000
0000
0001
1000
0010
0000
0000
0000
0100
0001
0010
0000
,  // measure 23
0000
0000
0100
1000
0001
0000
0000
0000
1000
0000
0100
0000
0010
0000
0001
0000
,  // measure 24
1000
0000
0010
0000
0001
0000
0010
0000
1000
0010
1000
0010
0100
0000
0001
0000
,  // measure 25
0010
0001
0100
0101
0000
0100
0010
1000
,  // measure 26
0001
0000
0010
0000
1000
0000
0010
0000
0001
0010
0001
0010
0100
0000
1000
0000
,  // measure 27
0010
0000
1000
0000
0100
0000
0010
0000
0001
0000
0010
0000
0100
1000
0100
1000
,  // measure 28
0001
0000
0100
0000
1000
0000
0100
0000
0001
0100
0001
0100
0010
0000
1000
0000
,  // measure 29
0100
1000
0010
1010
0000
0010
0100
0001
,  // measure 30
1000
0000
0100
0000
0001
0000
0100
0000
1000
0100
1000
0100
0010
0000
0001
0000
,  // measure 31
0100
0000
0001
0000
0010
0000
0100
0000
1000
0000
0100
0000
0010
0001
0010
0001
,  // measure 32
1000
0000
0010
0000
1000
0000
0001
0000
0100
0010
0100
0010
1000
0000
0010
0000
,  // measure 33
0100
1000
0100
0101
0000
0100
0010
1000
,  // measure 34
0001
0000
0010
0000
0001
0000
1000
0000
0100
0010
0100
0010
0001
0000
0010
0000
,  // measure 35
0100
0000
0001
0000
0100
0000
1000
0000
0100
0000
0010
0000
0001
1000
0001
1000
,  // measure 36
0001
0000
0100
0000
0001
0000
1000
0000
0010
0100
0010
0100
0001
0000
0100
0000
,  // measure 37
0010
0001
0010
1010
0000
0010
0100
0001
,  // measure 38
1000
0000
0100
0000
1000
0000
0001
0000
0010
0100
0010
0100
1000
0000
0100
0000
,  // measure 39
0010
0000
1000
0000
0010
0000
0001
0000
0010
0000
0100
0000
1000
0001
1000
0001
,  // measure 40
0100
1000
0100
0001
0100
0010
1000
0000
,  // measure 41
0001
0000
0010
0000
0100
0000
1000
0000
0001
0000
1000
0000
0001
0010
0001
0000
,  // measure 42
0010
1000
0010
0001
0010
0100
1000
0000
,  // measure 43
0001
0000
0100
0000
0010
0000
1000
0000
0001
0000
1000
0000
0001
0100
0001
0000
,  // measure 44
0100
0010
0100
0001
1000
0100
0010
0000
,  // measure 45
0001
0000
0010
0000
0001
0000
1000
0000
0010
0000
0100
0000
0001
1000
0001
0000
,  // measure 46
0010
0100
0010
0001
1000
0010
0100
0000
,  // measure 47
0001
0001
1000
1000
0100
0100
0010
0010
,  // measure 48
0001
0010
0001
0000
0000
0000
0001
0100
0001
0000
0000
0000
0001
0010
0001
0000
,  // measure 49
0000
0000
0001
0100
0001
0000
0000
0000
0010
0000
0000
0100
1000
0000
0001
0000
,  // measure 50
1000
0010
1000
0000
0000
0000
1000
0100
1000
0000
0000
0000
1000
0010
1000
0000
,  // measure 51
0000
0000
1000
0100
1000
0000
0000
0000
0100
0010
0100
0010
0001
1000
0001
1000
,  // measure 52
0001
0000
1000
0000
0000
0000
1000
0100
0001
0000
0000
0000
0001
0100
1000
0000
,  // measure 53
0000
0000
1000
0100
0001
0000
0000
0000
0100
0000
0000
0010
0001
0000
1000
0000
,  // measure 54
0001
0100
1000
0000
0000
0000
1000
0100
0001
0000
0000
0000
0001
0100
1000
0000
,  // measure 55
0100
0010
0100
0010
0100
0010
1000
0001
1000
0001
1000
0001
,  // measure 56
1000
0010
1000
0100
0010
0000
0011
0000
,  // measure 57
0001
0010
0001
0100
0010
0000
1010
0000
,  // measure 58
1000
0100
1000
0010
0100
0000
0101
0000
,  // measure 59
0001
1000
0001
1000
0100
0010
0100
0010
,  // measure 60
0001
0010
1000
0010
0001
0000
1001
0000
,  // measure 61
1000
0010
0001
0010
1000
0000
1001
0000
,  // measure 62
0001
0100
1000
0100
0001
0000
1001
0000
,  // measure 63
1000
0100
1000
0100
1000
0100
0010
0001
0010
0001
0010
0001
,  // measure 64
1000
0001
1000
0020
0000
0001
0000
0230
,  // measure 65
0000
1000
0300
0100
0001
1000
0100
0010
,  // measure 66
0001
0010
0100
0010
1000
0010
0100
0010
,  // measure 67
0001
0000
0000
0010
0000
0000
0100
0000
0000
1000
0000
0000
1001
0000
0000
0000
0000
0000
1000
0000
0001
0000
1000
0000
,  // measure 68
0001
1000
0001
0200
0000
1000
0000
0320
,  // measure 69
0000
0001
0030
0010
1000
0001
0010
0100
,  // measure 70
1000
0100
0010
0100
0001
0100
0010
0100
,  // measure 71
1000
0100
0010
0001
2002
0000
3003
0000
,  // measure 72
1000
0010
1000
0100
0000
1100
0000
0101
,  // measure 73
0000
1100
0000
0100
0010
0001
0010
0100
,  // measure 74
1000
0100
0001
0100
1000
0010
0001
0010
,  // measure 75
0100
0000
0000
0010
0000
0000
0100
0000
0000
0010
0000
0000
0110
0000
0000
0000
0000
0000
1000
0000
0001
0000
1000
0000
,  // measure 76
0001
0010
0001
0100
0000
0101
0000
1100
,  // measure 77
0000
0101
0000
0100
0010
1000
0010
0100
,  // measure 78
0001
0100
1000
0100
0001
0010
1000
0010
,  // measure 79
0100
0010
0100
0010
0110
0000
1001
0000
,  // measure 80
1000
0000
0000
0010
0000
0000
1000
0000
1010
0000
1000
0000
0001
0000
0000
0000
,  // measure 81
0001
0000
0000
0010
0000
0000
0001
0000
0011
0000
0001
0000
1000
0000
0000
0000
,  // measure 82
0001
0000
0000
0100
0000
0000
1000
0000
0101
0000
0100
0000
0010
0000
0000
0000
,  // measure 83
1000
0000
0000
0100
0000
0000
0001
0000
1100
0000
0100
0000
0010
0000
0000
0000
,  // measure 84
0011
0000
0000
0001
0000
1000
0010
0000
1010
0000
0000
1000
0000
0001
0010
0000
,  // measure 85
0011
0000
0000
0010
0000
0100
1000
0000
1010
0000
0000
0010
0000
0100
0001
0000
,  // measure 86
1001
0000
1000
0100
0000
1000
0010
0000
1010
0000
0010
0100
0000
0001
0010
0000
,  // measure 87
0011
0000
0001
0100
0000
0001
0010
0000
0011
0000
0010
0100
0000
1000
0010
0000
,  // measure 88
1000
0000
0001
0000
0010
0001
0010
0000
0001
0000
1000
0000
0010
1000
0010
0000
,  // measure 89
0100
0000
0001
0000
1000
0100
1000
0000
0100
0000
0010
0000
0001
0010
0001
0000
,  // measure 90
1000
0000
0001
0000
1000
0000
0001
0000
0100
0010
0100
0010
1000
0001
1000
0001
,  // measure 91
1000
0010
1000
0010
0100
0001
0100
0001
1000
0100
1000
0100
0010
0001
0010
0001
,  // measure 92
1000
0010
1000
0000
0000
0000
1000
0100
1000
0000
0000
0000
1000
0010
1000
0000
,  // measure 93
0000
0000
1000
0100
1000
0000
0000
0000
0010
0000
0100
0000
0001
0000
1000
0000
,  // measure 94
0001
0010
0001
0000
0000
0000
0001
0100
0001
0000
0000
0000
0001
0010
0001
0000
,  // measure 95
0000
0000
0001
0100
0001
0000
0000
0000
0100
0010
0100
0010
0100
0010
0100
0010
,  // measure 96
1000
0000
0001
0000
0000
0000
0001
0010
1000
0000
0000
0000
1000
0010
0001
0000
,  // measure 97
0000
0000
0001
0010
1000
0000
0000
0000
0010
0000
0100
0000
1000
0000
0001
0000
,  // measure 98
1000
0010
0001
0000
0000
0000
0001
0010
1000
0000
0000
0000
1000
0010
0001
0000
,  // measure 99
0000
0000
0000
0000
0000
0000
0001
0000
0000
0010
0000
0000
1000
0000
0000
0000
0000
0000
0000
0000
0000
0000
0000
0000
0001
0000
0000
0000
0010
0000
0000
0000
0001
0000
0000
0000
0010
0000
0000
0000
0001
0000
0000
0000
0010
0000
0000
0000
,  // measure 100
0100
1000
2002
0000
0000
0000
0000
0000
,  // measure 101
3003
0000
0000
0000
;
