#TITLE:Naki oujo no tame no septette;
#SUBTITLE:;
#ARTIST:PHOENIX Project;
#TITLETRANSLIT:;
#SUBTITLETRANSLIT:;
#ARTISTTRANSLIT:;
#GENRE:;
#CREDIT:;
#BANNER:Naki oujo no tame no septette.png;
#BACKGROUND:Naki oujo no tame no septette-bg.png;
#LYRICSPATH:;
#CDTITLE:;
#MUSIC:Naki oujo no tame no septette.ogg;
#OFFSET:-4.000000;
#SAMPLESTART:40.105927;
#SAMPLELENGTH:11.851852;
#SELECTABLE:YES;
#BPMS:0.000000=162.000000
,160.000000=324.000000
;
#STOPS:
;
#BGCHANGES:;
#KEYSOUNDS:;
#ATTACKS:;

//---------------dance-single - ----------------
#NOTES:
     dance-single:
     :
     Hard:
     15:
     0.603687,0.759677,0.150538,0.204301,0.075269,393.000000,379.000000,14.000000,19.000000,0.000000,0.000000,0.603687,0.759677,0.150538,0.204301,0.075269,393.000000,379.000000,14.000000,19.000000,0.000000,0.000000:
// measure 0
0000
0000
0000
0000
0000
1000
0100
0010
,  // measure 1
0001
0000
0000
1000
0100
0000
0000
0010
,  // measure 2
0001
0000
0001
0000
0001
0001
0100
0010
,  // measure 3
1000
0000
0000
0001
0100
0000
0000
0010
,  // measure 4
1000
0000
1000
0000
1000
1000
0100
0010
,  // measure 5
0001
0000
0001
0000
0001
0001
0100
0010
,  // measure 6
1000
0000
1000
0000
1000
1000
0100
0010
,  // measure 7
0001
0000
0000
0001
0010
0000
0000
0010
,  // measure 8
0001
0000
0000
0000
0011
0000
0010
0100
,  // measure 9
1000
0000
0000
0001
0010
0000
0000
0100
,  // measure 10
1000
0000
1000
0000
1000
1000
0010
0100
,  // measure 11
0001
0000
0000
1000
0010
0000
0000
0100
,  // measure 12
0001
0000
0001
0000
0001
0001
0010
0100
,  // measure 13
1000
0000
1000
0000
1000
1000
0010
0100
,  // measure 14
0001
0000
0001
0000
0001
0001
0010
0100
,  // measure 15
1000
0000
0000
1000
0100
0000
0000
0100
,  // measure 16
1000
0000
0000
0000
1100
0000
1000
0100
,  // measure 17
1000
0000
0001
0000
1000
0000
0010
0000
1000
0000
0000
0001
0000
0000
0100
0000
,  // measure 18
0001
0000
1000
0000
0001
0000
0010
0000
0001
0000
0000
1000
0000
0000
0100
0000
,  // measure 19
0010
0000
0000
0001
0000
0000
0100
0000
0010
0000
0000
1000
0000
0000
0100
0000
,  // measure 20
0220
0000
0000
0000
0000
0330
0100
1000
,  // measure 21
0100
0000
0001
0000
0100
0000
0010
0000
0100
0000
0000
1000
0000
0000
0001
0000
,  // measure 22
0010
0000
1000
0000
0010
0000
0100
0000
0010
0000
0000
0001
0000
0000
1000
0000
,  // measure 23
0100
0000
0000
1000
0000
0000
0010
0000
0100
0000
0000
0001
0000
0000
0010
0000
,  // measure 24
0220
0000
0000
0000
0000
0330
0010
0001
,  // measure 25
0100
0000
0000
0000
0000
0000
1000
0000
0010
0000
0000
0001
0000
0000
0200
0000
,  // measure 26
0010
0000
0010
0000
0010
0300
0010
1000
,  // measure 27
0100
0000
0000
0000
0000
0000
0001
0000
0010
0000
0000
1000
0000
0000
0200
0000
,  // measure 28
0010
0000
0010
0000
0010
0300
0010
0001
,  // measure 29
0100
0000
0000
0000
0000
0000
1000
0000
0010
0000
0000
0001
0000
0000
0200
0000
,  // measure 30
0010
0000
0010
0000
0010
0300
0010
1000
,  // measure 31
0001
0100
0020
0200
0000
0000
0000
0330
,  // measure 32
2002
0000
0000
0000
0000
3003
0100
1000
,  // measure 33
0010
0000
0000
0000
0000
0000
0001
0000
0100
0000
0000
1000
0000
0000
0020
0000
,  // measure 34
0100
0000
0100
0000
0100
0030
0100
0001
,  // measure 35
0010
0000
0000
0000
0000
0000
1000
0000
0100
0000
0000
0001
0000
0000
0020
0000
,  // measure 36
0100
0000
0100
0000
0100
0030
0100
1000
,  // measure 37
0010
0000
0000
0000
0000
0000
0001
0000
0100
0000
0000
1000
0000
0000
0020
0000
,  // measure 38
0100
0000
0100
0000
0100
0030
0100
0001
,  // measure 39
1000
0010
0200
0020
0000
0000
0000
0330
,  // measure 40
2002
0000
0000
0000
,  // measure 41
0000
0000
0000
3003
,  // measure 42
1000
0100
0001
0100
,  // measure 43
1000
0100
0001
0100
,  // measure 44
1000
0010
0001
0010
,  // measure 45
1000
0010
0001
0010
,  // measure 46
1000
0001
0010
0100
,  // measure 47
1000
0100
1000
0000
0100
0000
0010
0000
,  // measure 48
0001
1000
0010
0100
,  // measure 49
0001
0100
0001
0000
1000
0000
0001
0000
,  // measure 50
1000
0001
1000
0000
0001
0100
0001
0000
,  // measure 51
0100
0010
0100
0000
0010
1000
0010
0000
,  // measure 52
1000
0100
1000
0000
0100
0010
0100
0000
,  // measure 53
0010
0001
0010
0000
0001
1000
0001
0000
,  // measure 54
1000
0010
0100
0000
0010
0100
0001
0000
,  // measure 55
0100
0001
1000
0000
0001
1000
0100
0000
,  // measure 56
1000
0100
0010
0001
0100
0010
1000
0100
,  // measure 57
0010
0001
0100
0010
1000
0100
0010
0001
,  // measure 58
0011
0010
0110
0100
,  // measure 59
1100
1000
1010
0010
,  // measure 60
0110
0100
0101
0001
,  // measure 61
1001
1000
0010
1000
,  // measure 62
0100
0001
0100
1000
,  // measure 63
0010
1000
0100
0001
,  // measure 64
0010
0001
0100
1000
,  // measure 65
0100
0001
0010
0001
,  // measure 66
0100
0010
1000
0000
0100
0010
0001
0000
,  // measure 67
0010
0100
1000
0000
0010
0100
0001
0000
,  // measure 68
0100
0001
1000
0100
1000
0001
0100
0001
,  // measure 69
1000
0100
1000
0100
0010
0001
0100
0000
,  // measure 70
0001
0100
0010
1000
0100
0010
0001
0100
,  // measure 71
1000
0100
0001
0010
1000
0010
0001
0100
,  // measure 72
1000
0100
0001
0010
1000
0001
0100
1100
,  // measure 73
0010
1000
0100
0001
0100
1000
0010
0001
,  // measure 74
0020
0000
0000
0000
,  // measure 75
0000
0000
0000
0000
,  // measure 76
0000
0000
0000
0000
,  // measure 77
0000
0000
0000
0000
,  // measure 78
0000
0000
0030
0000
;

//---------------dance-double - ----------------
#NOTES:
     dance-double:
     :
     Challenge:
     16:
     0.603687,0.759677,0.150538,0.215054,0.075269,393.000000,379.000000,14.000000,20.000000,0.000000,0.000000,0.603687,0.759677,0.150538,0.215054,0.075269,393.000000,379.000000,14.000000,20.000000,0.000000,0.000000:
00000000
00000000
00000000
00000000
00000000
10000000
01000000
00100000
,
00010000
00000000
00000000
00100000
00001000
00000000
00000000
00010000
,
00000100
00000000
00000100
00000000
00000100
00000100
00000010
00000001
,
00001000
00000000
00000000
00000100
00010000
00000000
00000000
00001000
,
00100000
00000000
00100000
00000000
00100000
00100000
01000000
10000000
,
00010000
00000000
00010000
00000000
00010000
00010000
00100000
01000000
,
10000000
00000000
10000000
00000000
10000000
10000000
01000000
00010000
,
00001000
00000000
00000000
00001000
00000010
00000000
00000000
00000010
,
00000001
00000000
00000000
00000000
00000011
00000000
00000010
00000100
,
00001000
00000000
00000000
00000100
00010000
00000000
00000000
00001000
,
00100000
00000000
00100000
00000000
00100000
00100000
01000000
10000000
,
00010000
00000000
00000000
00100000
00001000
00000000
00000000
00010000
,
00000100
00000000
00000100
00000000
00000100
00000100
00000010
00000001
,
00001000
00000000
00001000
00000000
00001000
00001000
00000100
00000010
,
00000001
00000000
00000001
00000000
00000001
00000001
00000010
00001000
,
00010000
00000000
00000000
00010000
01000000
00000000
00000000
01000000
,
10000000
00000000
00000000
00000000
11000000
00000000
10000000
01000000
,
10000000
00000000
00100000
00000000
01000000
00000000
00010000
00000000
00100000
00000000
00000000
00001000
00000000
00000000
00010000
00000000
,
00000100
00000000
00001000
00000000
00000010
00000000
00000100
00000000
00000001
00000000
00000000
00001000
00000000
00000000
00000100
00000000
,
00000010
00000000
00000000
00000001
00000000
00000000
00000100
00000000
00000010
00000000
00000000
00001000
00000000
00000000
00000100
00000000
,
00000220
00000000
00000000
00000000
00000000
00000330
00000001
00000010
,
00000001
00000000
00000100
00000000
00000010
00000000
00001000
00000000
00000100
00000000
00000000
00010000
00000000
00000000
00001000
00000000
,
00100000
00000000
00010000
00000000
01000000
00000000
00100000
00000000
10000000
00000000
00000000
00010000
00000000
00000000
00100000
00000000
,
01000000
00000000
00000000
10000000
00000000
00000000
00100000
00000000
01000000
00000000
00000000
00010000
00000000
00000000
00100000
00000000
,
02200000
00000000
00000000
00000000
00000000
03300000
00100000
00010000
,
01000000
00000000
00000000
00000000
00000000
00000000
10000000
00000000
00100000
00000000
00000000
00010000
00000000
00000000
02000000
00000000
,
00100000
00000000
00100000
00000000
00100000
03000000
00100000
10000000
,
01000000
00000000
00000000
00000000
00000000
00000000
00010000
00000000
00100000
00000000
00000000
10000000
00000000
00000000
02000000
00000000
,
00100000
00000000
00100000
00000000
00100000
03000000
00100000
00001000
,
00010000
00000000
00000000
00000000
00000000
00000000
00000100
00000000
00001000
00000000
00000000
00000001
00000000
00000000
00000020
00000000
,
00000100
00000000
00000100
00000000
00000100
00000030
00000100
00001000
,
00000001
00000010
00000200
00000020
00000000
00000000
00000000
00000330
,
00002002
00000000
00000000
00000000
00000000
00003003
00000010
00000001
,
00000100
00000000
00000000
00000000
00000000
00000000
00001000
00000000
00000010
00000000
00000000
00000001
00000000
00000000
00000200
00000000
,
00000010
00000000
00000010
00000000
00000010
00000300
00000010
00001000
,
00000100
00000000
00000000
00000000
00000000
00000000
00000001
00000000
00000010
00000000
00000000
00001000
00000000
00000000
00000200
00000000
,
00000010
00000000
00000010
00000000
00000010
00000300
00000010
00000001
,
00000100
00000000
00000000
00000000
00000000
00000000
00000010
00000000
00010000
00000000
00000000
00001000
00000000
00000000
02000000
00000000
,
00010000
00000000
00010000
00000000
00010000
03000000
00010000
00100000
,
00001000
00010000
00000200
00002000
00000000
00000000
00003300
00000000
,
00022000
00000000
00000000
00000000
,
00000000
00000000
00000000
00033000
,
00010000
00001000
00000010
00000001
,
00000100
00001000
00010000
00100000
,
10000000
01000000
00010000
00001000
,
00000100
00000001
00000010
00001000
,
00010000
01000000
10000000
00100000
,
10000000
00100000
10000000
00000000
00100000
00000000
00010000
00000000
,
00001000
00000010
00000001
00000100
,
00000001
00000100
00000001
00000000
00000100
00000000
00000001
00000000
,
00000010
00000001
00000010
00000000
00000100
00000010
00000100
00000000
,
00010000
00000100
00010000
00000000
00001000
00010000
00001000
00000000
,
00100000
00001000
00100000
00000000
01000000
00100000
01000000
00000000
,
10000000
01000000
10000000
00000000
00010000
10000000
00010000
00000000
,
01000000
00010000
01000000
00000000
00001000
01000000
00001000
00000000
,
00010000
00001000
00010000
00000000
00000100
00010000
00000100
00000000
,
00010000
00000100
00001000
00000100
00010000
00000010
00001000
00000010
,
00010000
00000100
00001000
00000100
00010000
00001000
00010000
00001000
,
00011000
00001000
01001000
01000000
,
01100000
00100000
00100100
00000100
,
00000110
00000010
00010010
00010000
,
00011000
00001000
00000100
00000001
,
00000010
00001000
00000100
00000001
,
00000010
00001000
00000100
00001000
,
00010000
01000000
10000000
00100000
,
00010000
01000000
10000000
00100000
,
00010000
00001000
00000100
00000000
00000001
00000010
00001000
00000000
,
00010000
01000000
10000000
00000000
00100000
01000000
00001000
00000000
,
00100000
00001000
00100000
00001000
00010000
00001000
00010000
00000100
,
00010000
00000100
00000010
00000100
00000010
00000001
00000010
00000000
,
00000001
00000010
00000001
00000100
00001000
00010000
00100000
10000000
,
00010000
10000000
01000000
00010000
00001000
00000010
00000001
00001000
,
00000001
00000100
00001000
00010000
00100000
10000000
00010000
10000000
,
01000000
00010000
00001000
00000010
00000001
00001000
00000001
00000100
,
00000220
00000000
00000000
00000000
,
00000000
00000000
00000000
00000000
,
00000000
00000000
00000000
00000000
,
00000000
00000000
00000000
00000000
,
00000000
00000000
00000330
00000000
;

//---------------dance-single - ----------------
#NOTES:
     dance-single:
     :
     Medium:
     10:
     0.419355,0.717473,0.118280,0.172043,0.032258,273.000000,262.000000,11.000000,16.000000,0.000000,0.000000,0.419355,0.717473,0.118280,0.172043,0.032258,273.000000,262.000000,11.000000,16.000000,0.000000,0.000000:
0000
0000
0000
0000
0000
1000
1000
1000
,
1000
0000
0000
0100
0100
0000
0000
0010
,
0010
0000
0000
0000
0000
0001
0001
0001
,
0001
0000
0000
0010
0010
0000
0000
0100
,
0100
0000
0000
0000
0000
1000
0001
1000
,
0001
0000
0000
0000
0000
0010
0100
0010
,
0100
0000
0000
0000
0000
1000
0001
1000
,
0001
0000
0000
1000
0100
0000
0000
0010
,
0100
0000
0000
0000
0110
0000
0010
0010
,
0010
0000
0000
0001
0001
0000
0000
1000
,
1000
0000
0000
0000
0000
0100
0100
0100
,
0100
0000
0000
1000
1000
0000
0000
0001
,
0001
0000
0000
0000
0000
0100
0010
0100
,
0010
0000
0000
0000
0000
1000
0001
1000
,
0001
0000
0000
0000
0000
0010
0100
0010
,
0100
0000
0000
0010
0001
0000
0000
1000
,
0001
0000
0000
0000
1001
0000
1000
0001
,
1000
0001
1000
0001
2000
0000
0000
3000
,
0001
1000
0001
1000
0002
0000
0000
0003
,
0200
0000
0000
0300
0020
0000
0000
0000
,
0230
0000
0000
0000
0000
0300
0010
0100
,
0010
0100
0010
0100
0020
0000
0000
0030
,
0100
0010
0100
0010
0200
0000
0000
0300
,
0002
0000
0000
0003
2000
0000
0000
3000
,
0002
0000
0000
0000
0000
0003
1000
0001
,
1000
0000
0000
0000
0000
0000
0001
0000
0100
0000
0000
0010
0000
0000
1000
0000
,
0000
0000
0000
0000
0000
0000
0001
1000
,
0001
0000
0000
0000
0000
0000
1000
0000
0010
0000
0000
0100
0000
0000
0001
0000
,
0000
0000
0000
0000
0000
0000
1000
0001
,
1000
0000
0000
0000
0000
0000
0001
0000
0010
0000
0000
0100
0000
0000
1000
0000
,
0000
0000
0000
0000
0000
0000
0100
1000
,
0001
0010
0100
1000
0000
0000
0000
0000
,
0011
0000
0000
0000
0000
0000
0010
0100
,
0010
0000
0000
0000
0000
0000
0100
0000
1000
0000
0000
0001
0000
0000
0010
0000
,
0000
0000
0000
0000
0000
0000
0100
0010
,
0100
0000
0000
0000
0000
0000
0010
0000
0001
0000
0000
1000
0000
0000
0100
0000
,
0000
0000
0000
0000
0000
0000
0010
0100
,
0010
0000
0000
0000
0000
0000
0100
0000
0010
0000
0000
0001
0000
0000
1000
0000
,
0000
0000
0000
0000
0000
0000
0001
0010
,
0100
1000
0001
0010
0000
0000
0000
0000
,
2200
0000
0000
0000
,
0000
0000
0000
3300
,
0100
0000
1000
0000
,
0001
0000
0010
0000
,
0100
0000
1000
0000
,
0001
0000
0010
0000
,
0001
0000
1000
0000
,
0002
0000
0003
0000
,
1000
0000
0001
0000
,
2000
0000
3000
0000
,
1000
0100
1000
0100
,
1000
0010
1000
0010
,
1000
0001
1000
0001
,
0010
0001
0010
0001
,
0100
0001
0100
0001
,
0100
0010
0100
0010
,
1000
1000
1000
1000
,
0001
0001
0001
0001
,
0101
0000
0110
0000
,
1010
0000
1100
0000
,
0110
0000
0011
0000
,
1001
0000
0010
0000
,
0001
0000
0010
0000
,
0001
0000
0100
0000
,
1000
0000
0100
0000
,
1000
0000
0001
0000
,
1000
0010
0001
0010
,
1000
0100
0010
0001
,
0100
1000
0100
0001
,
0010
0100
1000
0001
,
1000
0001
1000
0001
1000
0001
1000
0001
,
1000
0001
1000
0001
1000
0001
1000
0001
,
0010
0100
0010
0100
0010
0100
0010
0100
,
0010
0100
0010
0100
0010
0100
0010
0200
,
0020
0000
0000
0000
,
0000
0000
0000
0000
,
0000
0000
0000
0000
,
0000
0000
0000
0000
,
0000
0000
0330
0000
;

//---------------dance-single - ----------------
#NOTES:
     dance-single:
     :
     Easy:
     6:
     0.247312,0.379839,0.075269,0.096774,0.032258,161.000000,154.000000,7.000000,9.000000,0.000000,0.000000,0.247312,0.379839,0.075269,0.096774,0.032258,161.000000,154.000000,7.000000,9.000000,0.000000,0.000000:
0000
0000
0000
0000
,
0001
0000
0001
0000
,
0001
0000
0000
0000
,
1000
0000
1000
0000
,
1000
0000
0000
0000
0000
0001
0001
0000
,
0001
0000
0000
0000
0000
1000
1000
0000
,
1000
0000
0000
0000
0000
0001
1000
0000
,
0001
0000
0010
0000
,
0100
0000
0010
0010
,
0010
0000
0010
0000
,
0010
0000
0000
0000
,
0100
0000
0100
0000
,
0100
0000
0000
0000
0000
0010
0010
0000
,
0010
0000
0000
0000
0000
0100
0100
0000
,
0100
0000
0000
0000
0000
0010
0100
0000
,
0010
0000
0100
0000
,
1000
0000
0001
0000
,
1000
0000
0001
0000
2000
0000
0000
3000
,
0001
0000
1000
0000
0002
0000
0000
0003
,
0100
0000
0010
0000
,
0100
0000
0000
0000
,
0010
0000
0100
0000
0020
0000
0000
0030
,
0100
0000
0010
0000
0200
0000
0000
0300
,
0001
0000
1000
0000
,
0001
0000
0000
0010
,
0001
0000
0000
0000
0000
0000
0000
0000
0010
0000
0000
0001
0000
0000
0100
0000
,
0000
0000
0000
0010
,
1000
0000
0000
0000
0000
0000
0000
0000
0010
0000
0000
1000
0000
0000
0100
0000
,
0000
0000
0000
0010
,
0100
0000
0000
0000
0000
0000
0000
0000
0010
0000
0000
0010
0000
0000
0010
0000
,
0000
0000
0000
0001
,
0010
0100
0000
0000
,
1100
0000
0000
0100
,
1000
0000
0000
0000
0000
0000
0000
0000
0100
0000
0000
1000
0000
0000
0010
0000
,
0000
0000
0000
0100
,
0001
0000
0000
0000
0000
0000
0000
0000
0100
0000
0000
0001
0000
0000
0010
0000
,
0000
0000
0000
0100
,
0010
0000
0000
0000
0000
0000
0000
0000
0100
0000
0000
0100
0000
0000
0100
0000
,
0000
0000
0000
1000
,
0100
0010
0000
0000
,
0002
0000
0000
0000
,
0000
0000
0000
0003
,
1000
0000
0000
0000
,
0001
0000
0000
0000
,
0100
0000
0000
0000
,
0010
0000
0000
0000
,
1000
0000
0000
0000
,
2000
0000
0000
3000
,
0001
0000
0000
0000
,
0002
0000
0000
0003
,
1000
0000
0100
0000
,
0010
0000
0001
0000
,
1000
0000
0100
0000
,
0010
0000
0001
0000
,
0010
0000
0100
0000
,
1000
0000
0001
0000
,
0010
0000
0100
0000
,
1000
0000
0001
0000
,
1001
0000
1001
0000
,
1001
0000
0000
0000
,
0110
0000
0110
0000
,
0110
0000
0000
0000
,
0001
0000
0010
0000
,
1000
0000
0000
0000
,
0001
0000
0100
0000
,
1000
0000
0000
0000
,
0010
0000
0001
0000
,
0100
0000
1000
0000
,
0010
0000
0001
0000
,
0100
0000
1000
0000
,
0001
1000
0001
1000
,
0001
1000
0001
1000
,
0010
0100
0010
0100
,
0010
0100
0010
0200
,
0020
0000
0000
0000
,
0000
0000
0000
0000
,
0000
0000
0000
0000
,
0000
0000
0000
0000
,
0000
0000
0330
0000
;
