#TITLE:NITROUS CANNON;
#SUBTITLE:;
#ARTIST:かめりあ;
#TITLETRANSLIT:;
#SUBTITLETRANSLIT:;
#ARTISTTRANSLIT:Camellia;
#GENRE:;
#CREDIT:;
#MENUCOLOR:;
#METERTYPE:DDR;
#BANNER:NITROUS CANNON.png;
#BACKGROUND:NITROUS CANNON-bg.png;
#LYRICSPATH:;
#CDTITLE:./CDTITLES/BEATMANIA IIDX.PNG;
#MUSIC:NITROUS CANNON.ogg;
#OFFSET:0.000;
#SAMPLESTART:22.544;
#SAMPLELENGTH:15.000;
#SELECTABLE:YES;
#LISTSORT:;
#BPMS:0.000=169.000;
#STOPS:;
#BGCHANGES:;
#ATTACKS:;

//---------------dance-single - ----------------
#NOTES:
     dance-single:
     :
     Beginner:
     2:
     0.101,0.155,0.014,0.000,0.000:
0000
0000
0000
0000
,
0000
0000
0000
0000
,
0000
0000
0000
0000
,
0000
0000
0000
0000
,
0000
0000
0000
0000
,
0000
0000
0000
0000
,
0000
0000
0000
0000
,
0000
0000
0000
0000
,
0000
0000
0000
0000
,
0000
0000
0000
0000
,
1000
0000
0000
0000
,
1000
0000
0000
0000
,
0100
0000
0000
0000
,
0100
0000
0000
0000
,
0010
0000
0000
0000
,
0010
0000
0000
0000
,
0001
0000
0000
0000
,
0001
0000
0000
0000
,
0000
1000
0000
1000
,
0000
1000
0000
0000
,
0000
0001
0000
0001
,
0000
0001
0000
0000
,
0000
0100
0000
0100
,
0000
0100
0000
0000
,
0010
0000
0010
0000
,
0010
0000
0000
0000
,
0000
1000
0000
1000
,
0000
1000
0000
0000
,
0000
0001
0000
0001
,
0001
0000
0001
0000
,
0000
0010
0000
0010
,
0000
0010
0000
0000
,
0100
0000
0100
0000
,
0100
0000
0000
0000
,
1000
0000
0000
0000
,
0000
0000
0000
0000
,
0001
0000
0000
0000
,
0000
0000
0000
0000
,
1000
0000
0000
0000
,
1000
0000
0000
0000
,
0001
0000
0000
0000
,
0001
0000
0000
0000
,
0100
0000
0000
0000
,
0100
0000
0000
0000
,
0010
0000
0000
0000
,
0010
0000
0000
0000
,
1001
0000
0000
0000
,
0000
0000
0000
0000
,
0000
0000
0000
0000
,
0000
0000
0000
0000
,
0000
1000
0000
1000
,
1000
0000
0000
0000
,
0000
0001
0000
0001
,
0001
0000
0000
0000
,
0010
0000
0000
0000
,
0100
0000
0000
0000
,
0010
0000
0000
0000
,
0001
0000
0000
0000
,
1000
0000
0000
0000
,
0100
0000
0000
0000
,
0010
0000
0000
0000
,
0001
0000
0000
0000
,
1000
0000
1000
0000
,
1000
0000
0000
0000
,
0001
0000
0001
0000
,
0001
0000
0000
0000
,
1000
0000
1000
0000
,
1000
0000
0000
0000
,
0001
0000
0001
0000
,
0001
0000
0000
0000
,
0100
0000
0100
0000
,
0100
0000
0000
0000
,
0010
0000
0010
0000
,
0010
0000
0000
0000
,
1000
0000
1000
0000
,
1000
0000
1000
0000
,
0001
0000
0001
0000
,
0001
0000
0001
0000
,
0010
0000
0010
0000
,
0010
0000
0010
0000
,
0100
0000
0100
0000
,
0100
0000
0000
0000
,
1000
0000
0000
0000
,
0001
0000
0000
0000
,
0100
0000
0000
0000
,
0010
0000
0000
0000
,
1001
0000
0000
0000
;

//---------------dance-single - ----------------
#NOTES:
     dance-single:
     :
     Easy:
     5:
     0.173,0.222,0.029,0.072,0.000:
0000
0000
0000
0000
,
0000
0000
0000
0000
,
0000
0000
0000
0000
,
0000
0000
0000
0000
,
0000
0000
0000
0000
,
0000
0000
0000
0000
,
0000
0000
0000
0000
,
0000
0000
0000
0000
,
0000
0000
0000
0000
,
0000
0000
0000
0000
,
1000
1000
1000
0000
,
1000
0000
1000
0000
,
0001
0001
0001
0000
,
0001
0000
0001
0000
,
0100
0100
0100
0000
,
0100
0100
0100
0000
,
0010
0010
0010
0000
,
0010
0000
0000
0000
,
1000
1000
2000
0000
,
0000
0000
0000
3000
,
0001
0001
0002
0000
,
0000
0000
0000
0003
,
0100
0100
0200
0000
,
0000
0000
0000
0300
,
0010
0000
0010
0000
,
0010
0000
0000
0000
,
1000
1000
2000
0000
,
0000
0000
0000
3000
,
0001
0001
0002
0000
,
0000
0000
0000
0003
,
0010
0010
0020
0000
,
0000
0000
0000
0030
,
0100
0000
0100
0000
,
0100
0000
0000
0000
,
0110
0000
0000
0000
,
0000
0000
0000
0000
,
1001
0000
0000
0000
,
0000
0000
0000
0000
,
1000
0000
1000
0000
,
1000
0000
1000
0000
,
0001
0000
0001
0000
,
0001
0000
0001
0000
,
0100
0000
0100
0000
,
0100
0000
0100
0000
,
0010
0000
0010
0000
,
0010
0000
0000
0000
,
2002
0000
0000
0000
,
3003
0000
0000
0000
,
0000
0000
0000
0000
,
0000
0000
0000
0000
,
1000
0000
1000
0000
,
0001
0001
0001
0000
,
0100
0000
0100
0000
,
0010
0010
0010
0000
,
0100
0000
0100
0000
,
0001
0000
0001
0000
,
1000
0000
1000
0000
,
0001
0001
0001
0000
,
1000
1000
1000
0000
,
1000
0000
1000
0000
,
0100
0100
0100
0000
,
0100
0000
0100
0000
,
0010
0010
0010
0000
,
0001
0001
0001
0000
,
1000
1000
0001
0001
,
1000
0000
0000
0000
,
0001
0001
0001
0001
,
1000
0000
0001
0000
,
1000
1000
1000
1000
,
0001
0000
1000
0000
,
0010
0000
0100
0000
,
0010
0000
0100
0000
,
0001
0000
0010
0000
,
0100
0000
1000
0000
,
0010
0010
0010
0010
,
0100
0000
0010
0000
,
0100
0100
0100
0100
,
0010
0000
0100
0000
,
0001
0001
0001
0000
,
1000
1000
1000
0000
,
0001
0001
0010
0010
,
0100
0000
1000
0000
,
0001
0000
1000
0000
,
0001
0000
1000
0000
,
0010
0000
0100
0000
,
0010
0000
0000
0000
,
2002
0000
0000
0000
,
0000
0000
0000
0000
,
3003
0000
0000
0000
;

//---------------dance-single - ----------------
#NOTES:
     dance-single:
     :
     Medium:
     10:
     0.420,0.508,0.079,0.267,0.151: // measure 1
0000
0000
0000
0000
,  // measure 2
0000
0000
0000
0000
,  // measure 3
0000
0000
0000
0000
,  // measure 4
0000
0000
0000
0000
,  // measure 5
0000
0000
0000
0000
,  // measure 6
0000
0000
0000
0000
,  // measure 7
0000
0000
0000
0000
,  // measure 8
0000
0000
0000
0000
,  // measure 9
0000
0000
0000
0000
,  // measure 10
0000
0000
0000
0000
,  // measure 11
0001
0000
0100
0000
0001
0000
0000
0000
1000
0000
0000
0001
0000
0000
1000
0000
,  // measure 12
0001
0000
0010
0000
0001
0000
0000
0000
1000
0000
0000
0100
0000
0000
1000
0000
,  // measure 13
0010
0000
0100
0000
0010
0000
0000
0000
1000
0000
0000
0001
0000
0000
0100
0000
,  // measure 14
0001
1000
0010
0000
1000
0001
1000
1000
,  // measure 15
0001
0100
0001
0001
1000
0100
1000
1000
,  // measure 16
0001
0010
0001
0001
1000
0001
0100
0000
,  // measure 17
0010
0010
1000
1000
0001
0001
0100
0100
,  // measure 18
0002
0000
0000
1003
,  // measure 19
0001
0010
0001
0000
0012
0000
1000
0000
,  // measure 20
0100
1000
0010
1003
,  // measure 21
0100
1000
0100
0000
2010
0000
0001
0000
,  // measure 22
0100
0000
3001
0000
0100
0010
0100
0001
,  // measure 23
1000
0010
1000
0000
0120
0000
1000
0000
,  // measure 24
0100
0001
0100
1030
,  // measure 25
0001
0000
0000
1000
0000
0100
0000
0000
1000
0000
0000
0001
0000
0010
0000
0000
,  // measure 26
0001
0000
0000
1000
0000
0010
0000
0000
2000
0000
0000
0000
3000
0000
0000
0000
,  // measure 27
0001
0010
0100
0000
0210
0000
1300
0000
,  // measure 28
1000
0010
0100
0000
0020
0000
1030
0000
,  // measure 29
0100
1000
0001
0000
2001
0000
3010
0000
,  // measure 30
0100
0000
0000
0010
0000
0000
0100
0000
0001
0000
0000
0000
1000
0000
0000
0000
,  // measure 31
0001
1000
0010
0000
0210
0000
0301
0000
,  // measure 32
1000
0000
0010
0000
0100
0000
0000
0000
0020
0000
0000
0000
1030
0000
0000
0001
,  // measure 33
0000
0100
0000
0000
0001
0000
0000
1000
0000
0010
0000
0000
1000
0000
0000
0000
,  // measure 34
2002
0000
0000
3003
,  // measure 35
0010
0020
0000
0000
0000
0000
0000
0000
,  // measure 36
0000
0000
0000
0000
0000
0000
0000
0000
0030
0000
0000
0000
0000
0100
0000
0000
,  // measure 37
0100
0200
0000
0000
0000
0000
0300
0000
,  // measure 38
0010
0000
0000
0000
,  // measure 39
1000
0000
0000
0100
0000
0000
0010
0000
0000
0001
0000
0000
1000
0000
1000
0000
,  // measure 40
0000
0100
0000
0000
0010
0000
0000
0000
0001
0000
2000
0000
0000
0000
0000
0000
,  // measure 41
3001
0000
0000
0010
0000
0000
0100
0000
0000
1000
0000
0000
0001
0000
0001
0000
,  // measure 42
0000
0010
0000
0000
0100
0000
0000
0000
1000
0000
0002
0000
0000
0000
0000
0000
,  // measure 43
1003
0000
0000
0100
0000
0000
0001
0000
0000
0100
0000
0000
1000
0000
1000
0000
,  // measure 44
0000
0100
0000
0000
0010
0000
0000
0000
0001
0000
2000
0000
0000
0000
0000
0000
,  // measure 45
3001
0000
0000
0010
0000
0000
1000
0000
1000
0000
0000
0010
0000
0000
0001
0000
,  // measure 46
0002
0000
0000
1003
,  // measure 47
0220
0000
0000
0000
,  // measure 48
0000
0000
0000
0000
,  // measure 49
0330
0000
0000
0000
,  // measure 50
0000
0000
0000
0000
,  // measure 51
0010
0000
1000
0000
0001
0200
0000
0301
,  // measure 52
1000
0002
0000
0023
0000
0031
1000
0000
,  // measure 53
0100
0000
1000
0000
0010
0200
0000
0310
,  // measure 54
1000
0020
0000
2030
0000
3001
1000
0000
,  // measure 55
0001
0100
1000
0100
,  // measure 56
0001
0010
1000
0010
,  // measure 57
0001
0100
0001
0000
1000
0100
1000
0000
,  // measure 58
0001
0010
0001
0000
2002
0000
3003
0000
,  // measure 59
0001
0000
0100
0000
0001
0000
0000
0000
1000
0000
0000
0001
0000
0000
1000
0000
,  // measure 60
0001
0000
0010
0000
0001
0000
0000
0000
1000
0000
0000
0100
0000
0000
1000
0000
,  // measure 61
0010
0000
0100
0000
0010
0000
0000
0000
1000
0000
0000
0001
0000
0000
0100
0000
,  // measure 62
0001
1000
0010
0000
1000
0001
1000
1000
,  // measure 63
0001
0100
0001
0001
1000
0100
1000
1000
,  // measure 64
0001
0010
0001
0001
1000
0001
0100
0000
,  // measure 65
0001
0001
0010
0010
0100
0100
1000
1000
,  // measure 66
0002
0000
0000
1003
,  // measure 67
0001
0000
0100
0000
0001
1000
0001
0000
,  // measure 68
1000
0000
0100
0000
1000
0001
1000
0000
,  // measure 69
0010
0000
1000
0000
0010
0100
0010
0000
,  // measure 70
0100
0000
0001
0000
0100
0010
0100
0000
,  // measure 71
0001
0010
0100
0000
1000
0000
0100
0000
,  // measure 72
1000
0010
0100
0000
0001
0000
0100
0000
,  // measure 73
0001
0000
0000
1000
0000
0100
0000
0000
1000
0000
0000
0001
0000
0100
0000
0000
,  // measure 74
0001
0000
0000
1000
0000
0010
0000
0000
2000
0000
0000
0000
3000
0000
0000
0000
,  // measure 75
0001
0000
0010
0000
0001
0100
0001
0000
,  // measure 76
1000
0000
0010
0000
1000
0100
1000
0000
,  // measure 77
0001
0000
0100
0000
0010
0100
0010
0000
,  // measure 78
1000
0001
0220
0330
,  // measure 79
1000
0000
0100
0000
1000
0000
1000
0000
0001
0000
0000
0100
0000
0000
0001
0000
,  // measure 80
1000
0000
0010
0000
1000
0000
1000
0000
0001
0000
0000
0010
0000
0000
0001
0000
,  // measure 81
0100
0100
0010
0010
1000
1000
0001
0001
,  // measure 82
2000
0000
0000
3001
,  // measure 83
1000
0000
0000
0100
0000
0000
0001
0000
0000
0100
0000
0000
1000
0000
1000
0000
,  // measure 84
0000
0100
0000
0000
0010
0000
0000
0000
0001
0000
2000
0000
0000
0000
0000
0000
,  // measure 85
3001
0000
0000
0010
0000
0000
1000
0000
1000
0000
0000
0010
0000
0000
0001
0000
,  // measure 86
0002
0000
0000
1003
,  // measure 87
0220
0000
0000
0000
,  // measure 88
0000
0000
0000
0000
,  // measure 89
0330
0000
0000
0000
;

//---------------dance-single - ----------------
#NOTES:
     dance-single:
     :
     Hard:
     14:
     0.618,0.698,0.296,0.231,0.527: // measure 1
0000
0000
0000
0000
,  // measure 2
0000
0000
0000
0000
,  // measure 3
0000
0000
0000
0000
,  // measure 4
0000
0000
0000
0000
,  // measure 5
0000
0000
0000
0000
,  // measure 6
0000
0000
0000
0000
,  // measure 7
0000
0000
0000
0000
,  // measure 8
0000
0000
0000
0000
,  // measure 9
0000
0000
0000
0000
,  // measure 10
0000
0000
0000
0000
,  // measure 11
0010
0000
1000
0000
0100
0000
1000
0000
0010
0000
1000
0010
0000
1000
0010
0000
,  // measure 12
0100
0000
0001
0000
0010
0000
0001
0000
0100
0000
0001
0100
0000
0001
0100
0000
,  // measure 13
0010
0000
1000
0000
0100
0000
1000
0000
0010
0000
1000
0001
0000
1000
0001
0000
,  // measure 14
0010
0000
0001
0000
0100
0000
0001
0000
0010
0000
0001
1000
0001
0000
0001
0000
,  // measure 15
1000
0000
0100
1000
0100
0000
1000
0000
0001
0000
0100
0001
0100
0000
0001
0000
,  // measure 16
1000
0000
0010
1000
0010
0000
1000
0000
0001
0000
0010
0001
0010
0000
0001
0000
,  // measure 17
1000
0100
1000
0100
1000
0000
0010
0000
0100
0001
0100
0001
0100
0000
0001
0000
,  // measure 18
2000
0000
0000
3001
,  // measure 19
1001
0000
0000
1000
0100
0000
0000
0100
0020
0000
0000
0000
0001
0000
0000
0000
,  // measure 20
0100
1000
0100
0031
,  // measure 21
1000
0001
0010
0001
0200
0000
0001
0000
,  // measure 22
0010
0000
1300
0000
0010
0100
0001
1000
,  // measure 23
0100
0000
0100
0000
0100
0000
0000
0100
0020
0000
0000
0000
1000
0000
0000
0000
,  // measure 24
0100
0000
0000
0000
0001
0000
0000
0000
0130
0000
0000
0100
0000
0000
0100
0000
,  // measure 25
1000
0001
1000
0100
0000
0100
0000
0100
1000
0001
1000
0010
0000
0010
0000
0010
,  // measure 26
1000
0000
0100
0001
0000
0100
1000
0000
0020
0000
0000
0000
0030
0000
0000
0000
,  // measure 27
0100
0000
0001
0000
0010
0000
0000
0010
0001
0000
0000
0001
0100
0000
0000
0100
,  // measure 28
1000
0000
0000
1000
0100
0000
0000
0100
0010
0000
1000
0000
0001
0000
1000
0000
,  // measure 29
0100
1000
0000
0001
1000
0000
0010
0000
1000
0000
0000
1000
0100
0000
0000
0100
,  // measure 30
0001
0000
0100
0010
0000
0001
1000
0000
0010
0000
0000
0110
0000
0000
1000
0000
,  // measure 31
0010
0000
1000
0000
0100
0000
0000
0100
1000
0000
0000
1000
0010
0000
0000
0010
,  // measure 32
0001
0000
0001
0000
0010
0000
0000
0010
1000
0000
0001
0000
0100
0000
0001
1000
,  // measure 33
0000
0100
0000
0000
1000
0000
0000
0001
0000
1000
0000
0000
0010
0000
0000
0010
,  // measure 34
0200
0000
0000
0310
,  // measure 35
1000
2002
0000
0000
0000
0000
0000
0000
,  // measure 36
0000
0000
0000
0000
0000
0000
0000
0000
3003
0000
0000
0000
0000
1010
0000
0000
,  // measure 37
0100
0220
0000
0000
0000
0000
0330
0000
,  // measure 38
0020
0000
0000
0030
,  // measure 39
1000
0000
0000
1100
0000
0000
0110
0000
0000
0110
0000
0000
0010
0000
0011
0000
,  // measure 40
0000
0011
0000
0000
1001
0000
0000
0001
1000
0000
2002
0000
0000
0000
3003
0000
,  // measure 41
0001
0000
0000
0101
0000
0000
0110
0000
0000
0110
0000
0000
0010
0000
1010
0000
,  // measure 42
0000
1010
0000
0000
1001
0000
0000
1000
0001
0000
2002
0000
0000
0000
3003
0000
,  // measure 43
1000
0000
0000
1100
0000
0000
0110
0000
0000
0011
0000
0000
0001
0000
1001
0000
,  // measure 44
0000
0110
0000
0000
1001
0000
0000
0010
0100
0000
0220
0000
0000
0000
0330
0000
,  // measure 45
1010
0000
0000
0110
0000
0000
0001
1000
0010
0000
0000
0110
0000
0000
1000
0001
,  // measure 46
0020
0000
0000
0130
,  // measure 47
2002
0000
0000
0000
,  // measure 48
0000
0000
0000
0000
,  // measure 49
3003
0000
0000
0000
,  // measure 50
0000
0000
0000
0000
,  // measure 51
0010
0000
0000
0000
1000
0000
0000
0100
1000
0000
0100
0000
0010
0000
0000
0001
,  // measure 52
0100
0001
0010
0002
0000
1003
0001
0000
,  // measure 53
0100
0000
0000
0000
0001
0000
0000
0010
0001
0000
0010
0000
0100
0000
0000
1000
,  // measure 54
0100
1000
0010
2000
0000
3001
1000
0001
,  // measure 55
1000
0100
0001
0100
0010
0001
1000
0001
,  // measure 56
1000
0010
0001
0010
0100
0001
1000
0001
,  // measure 57
1000
0100
0001
1000
0001
0100
1000
0001
,  // measure 58
1000
0010
0100
0001
1000
0001
2000
0000
,  // measure 59
3010
0000
1000
0000
0100
0000
1000
0000
0010
0000
1000
0010
0000
1000
0010
0000
,  // measure 60
0100
0000
0001
0000
0010
0000
0001
0000
0100
0000
0001
0100
0000
0001
0100
0000
,  // measure 61
0010
0000
1000
0000
0100
0000
1000
0000
0010
0000
1000
0001
0000
1000
0001
0000
,  // measure 62
0010
0000
0001
0000
0100
0000
0001
0000
0010
0000
0001
1000
0001
0000
0001
0000
,  // measure 63
1000
0000
0100
1000
0100
0000
1000
0000
0001
0000
0100
0001
0100
0000
0001
0000
,  // measure 64
1000
0000
0010
1000
0010
0000
1000
0000
0001
0000
0010
0001
0010
0000
0001
0000
,  // measure 65
1000
0100
1000
0100
1000
0100
1000
0000
0001
0100
0001
0100
0001
0100
0001
0000
,  // measure 66
2000
0000
0000
3001
,  // measure 67
1000
0100
0000
0010
0100
0000
1000
0001
0000
0000
0100
0000
0001
0000
1000
0000
,  // measure 68
0001
0010
0000
0100
0010
0000
0001
1000
0000
0000
0001
0000
0100
0000
0010
0000
,  // measure 69
1000
0010
0000
0100
0010
0000
1000
0001
0000
0000
1000
0000
0100
0000
0010
0000
,  // measure 70
0001
0100
0000
0010
0100
0000
0001
1000
0000
0000
0001
0000
0010
0000
0001
0000
,  // measure 71
1000
0100
1000
0000
0001
0000
0010
0000
1000
0000
0010
0000
0100
0000
1000
0000
,  // measure 72
0001
0100
0001
0000
1000
0000
0100
0000
0001
0000
0100
0000
0010
0000
0001
0000
,  // measure 73
1000
0001
1000
0100
0000
0100
0000
0100
1000
0001
1000
0010
0000
0010
0000
0010
,  // measure 74
1000
0000
0100
0001
0000
0100
1000
0000
0020
0000
0000
0000
0030
0000
0000
0000
,  // measure 75
1000
0000
0000
1000
0010
0000
1000
0100
0000
1000
0001
0000
0010
0000
0001
0000
,  // measure 76
0100
0000
0000
0100
0010
0000
0100
0001
0000
0100
0010
0000
1000
0100
1000
0000
,  // measure 77
0001
0000
0000
0001
0010
0000
0001
0100
0000
0001
1000
0000
0010
0000
0100
0000
,  // measure 78
0001
0010
0000
1000
0010
0000
0001
1000
0001
1000
0001
0000
0200
0000
0000
0000
,  // measure 79
0301
0000
0010
0000
1000
0000
0010
0100
0010
0000
0100
1000
0000
0001
1000
0000
,  // measure 80
0001
0000
0100
0000
1000
0000
0100
0010
0100
0000
0010
1000
0000
0001
1000
0000
,  // measure 81
0001
0010
0001
0010
0001
0010
0001
0000
1000
0100
1000
0100
1000
0100
1000
0000
,  // measure 82
0020
0000
0000
0130
,  // measure 83
0001
0000
0000
0011
0000
0000
0110
0000
0000
1100
0000
0000
1000
0000
1001
0000
,  // measure 84
0000
0110
0000
0000
1001
0000
0000
0100
0010
0000
0220
0000
0000
0000
0330
0000
,  // measure 85
0101
0000
0000
0110
0000
0000
1000
0001
0100
0000
0000
0110
0000
0000
0001
1000
,  // measure 86
0200
0000
0000
0310
,  // measure 87
2002
0000
0000
0000
,  // measure 88
0000
0000
0000
0000
,  // measure 89
3003
0000
0000
0000
;

//---------------dance-single - ----------------
#NOTES:
     dance-single:
     :
     Challenge:
     16:
     0.730,0.921,0.151,0.231,0.848: // measure 1
0000
0000
0000
0000
,  // measure 2
0000
0000
0000
0000
,  // measure 3
0000
0000
0000
0000
,  // measure 4
0000
0000
0000
0000
,  // measure 5
0000
0000
0000
0000
,  // measure 6
0000
0000
0000
0000
,  // measure 7
0000
0000
0000
0000
,  // measure 8
0000
0000
0000
0000
,  // measure 9
0000
0000
0000
0000
,  // measure 10
0000
0000
0000
0000
,  // measure 11
0001
0000
0010
0000
0001
0000
1000
0010
1000
0000
0001
0100
0000
0100
0001
0000
,  // measure 12
1000
0000
0010
0000
1000
0000
0001
0010
0001
0000
1000
0100
0000
0100
1000
0000
,  // measure 13
0001
0000
0100
0000
0001
0000
1000
0010
1000
0000
0001
1000
0000
1000
0001
0000
,  // measure 14
1000
0000
0100
0000
1000
0000
0001
0010
0001
0000
1000
0001
1000
0000
1000
0000
,  // measure 15
0001
0100
0001
0100
0001
0100
0010
0000
1000
0100
1000
0100
1000
0100
0010
0000
,  // measure 16
0001
0010
0001
0010
0001
0010
0100
0000
1000
0010
1000
0010
1000
0010
0100
0000
,  // measure 17
0001
0010
0001
0010
0001
0010
0001
0010
0100
1000
0100
1000
0100
1000
0100
1000
,  // measure 18
0020
0000
0000
0130
,  // measure 19
0001
0000
0010
0100
1000
0000
0100
0010
0002
0000
0000
0000
0100
0000
0000
0000
,  // measure 20
1000
0010
1000
0103
,  // measure 21
1000
0000
0100
0010
0001
0000
0010
0100
2000
0000
0000
0000
0010
0000
0000
0000
,  // measure 22
0001
0000
3100
0000
0010
0010
0100
0100
,  // measure 23
1000
0000
0010
0000
1010
0000
0010
0100
0002
0000
0000
0000
0010
0000
0000
0000
,  // measure 24
1000
0000
0000
0000
0100
0000
0000
0000
1003
0000
0000
0010
0000
0000
1010
0000
,  // measure 25
0001
0010
0100
1000
0000
0100
0000
0100
1000
0010
0100
0001
0000
0100
0000
0100
,  // measure 26
0010
0000
1000
0100
0000
0001
0100
0000
2000
0000
0000
0000
0000
0000
0000
0000
,  // measure 27
3001
0000
0010
0100
1000
0000
0100
0010
0001
0000
0100
0001
0010
0000
0100
1000
,  // measure 28
0010
0000
0100
0001
1000
0000
0010
1000
0001
0000
1000
0001
0100
0000
0001
1000
,  // measure 29
0010
0100
0000
0100
0010
0000
1000
0100
0010
0000
0001
0100
0010
0000
1000
0001
,  // measure 30
1000
0000
0001
0010
0000
1000
0010
0000
0001
0000
1000
0100
0000
0001
0100
0000
,  // measure 31
1000
0000
0001
0000
1001
0000
1000
0010
0100
0000
0001
0010
0100
0000
0010
0001
,  // measure 32
0100
0000
0100
0000
0010
0000
1000
0010
0100
0000
0010
1000
0100
0000
0010
0001
,  // measure 33
0000
0011
0000
0000
1001
0000
0000
1100
0000
1001
0000
0000
0110
0000
0000
0001
,  // measure 34
1000
1000
2000
0000
0001
0000
3010
0000
,  // measure 35
0100
0220
0000
0000
0000
0000
0000
0000
,  // measure 36
0000
0000
0000
0000
0000
0000
0000
0000
0330
0000
0000
0000
0000
0101
0000
0000
,  // measure 37
0010
2020
0000
0000
0000
0000
3030
0000
,  // measure 38
0002
0000
0000
0003
,  // measure 39
1000
0000
1000
0100
0000
0100
0010
0000
0010
0001
0000
0001
0010
0000
0011
0000
,  // measure 40
0001
0100
0000
0100
0010
0000
0010
1000
0001
0000
2002
0000
0000
0000
3003
0000
,  // measure 41
0001
0000
0001
0010
0000
0010
0100
0000
0100
1000
0000
1000
0100
0000
1100
0000
,  // measure 42
1000
0010
0000
0010
0100
0000
0100
0001
1000
0000
2002
0000
0000
0000
3003
0000
,  // measure 43
0001
0000
0001
0100
0000
0100
0010
0000
0010
1000
0000
1000
0001
0000
0101
0000
,  // measure 44
0001
0010
0000
0010
1000
0000
1000
0010
0001
0000
2002
0000
0000
0000
3003
0000
,  // measure 45
1000
0000
1000
0100
0000
0100
0001
0100
1000
0000
1000
0010
0000
0010
0001
0010
,  // measure 46
2000
0000
0000
3001
,  // measure 47
0220
0000
0000
0000
,  // measure 48
0000
0000
0000
0000
,  // measure 49
0330
0000
0000
0000
,  // measure 50
0000
0000
0000
0000
,  // measure 51
0001
0000
1000
0000
0100
0000
1000
0100
0010
0000
0100
0000
1000
0000
0001
0100
,  // measure 52
0010
0000
0100
0000
0001
0000
2000
0000
0000
0000
3010
0000
1000
0001
1000
0000
,  // measure 53
0001
0000
0010
0000
0100
0000
0010
0001
0100
0000
0010
0000
1000
0000
0010
1000
,  // measure 54
0100
0000
0010
0000
0100
0000
2000
0000
0000
0000
3010
0000
1000
0100
1000
0000
,  // measure 55
0001
0010
0001
0010
0000
0001
0100
0000
0001
0000
0010
0000
1000
0000
0010
0000
,  // measure 56
0001
0100
0001
0100
0000
0001
0010
0000
0001
0000
0100
0000
1000
0000
0100
0000
,  // measure 57
0001
0010
0100
1000
0000
0100
0010
0000
0100
0000
1000
0000
0001
0100
0001
0000
,  // measure 58
1000
0100
0000
0001
0100
0000
1000
0010
1000
0000
0001
0000
2000
0000
0000
0000
,  // measure 59
3001
0000
0010
0000
0001
0000
1000
0010
1000
0000
0001
0100
0000
0100
0001
0000
,  // measure 60
1000
0000
0010
0000
1000
0000
0001
0010
0001
0000
1000
0100
0000
0100
1000
0000
,  // measure 61
0001
0000
0100
0000
0001
0000
1000
0010
1000
0000
0001
1000
0000
1000
0001
0000
,  // measure 62
1000
0000
0100
0000
1000
0000
0001
0010
0001
0000
1000
0001
1000
0000
1000
0000
,  // measure 63
0001
0100
0001
0100
0001
0100
0010
0000
1000
0100
1000
0100
1000
0100
0010
0000
,  // measure 64
0001
0010
0001
0010
0001
0010
0100
0000
1000
0010
1000
0010
1000
0010
0100
0000
,  // measure 65
0001
0010
0001
0010
0001
0010
0001
0010
0100
1000
0100
1000
0100
1000
0100
1000
,  // measure 66
0020
0000
0000
0130
,  // measure 67
0001
0010
0000
0010
0100
0000
0100
1000
0000
1000
0100
0000
1000
0000
0010
0000
,  // measure 68
1000
0100
0000
0100
0010
0000
0010
0001
0000
0001
1000
0000
0001
0100
0001
0000
,  // measure 69
1000
0010
0000
0010
0100
0000
0100
0001
0000
0001
1000
0000
0001
0000
0010
0000
,  // measure 70
0001
0100
0000
0100
0010
0000
0010
1000
0000
1000
0001
0000
1000
0010
1000
0000
,  // measure 71
0001
0100
0001
1000
0001
0000
1000
0100
0000
0100
0010
0000
0100
1000
0001
0000
,  // measure 72
1000
0100
1000
0010
1000
0000
0001
0100
0000
0100
0010
0000
0100
0001
1000
0000
,  // measure 73
0001
0010
0100
1000
0000
0100
0000
0100
1000
0010
0100
0001
0000
0100
0000
0100
,  // measure 74
0010
0000
1000
0100
0000
0001
0100
0000
2000
0000
0000
0000
0000
0000
0000
0000
,  // measure 75
3001
0100
0000
0001
0010
0000
0010
0100
0000
0100
1000
0000
0100
1000
0001
0000
,  // measure 76
1000
0010
0000
1000
0100
0000
0100
0010
0000
0010
0001
0000
1000
0010
0100
0010
,  // measure 77
1000
0001
0000
0100
0001
0000
0010
0100
0000
0100
1000
0000
0001
0100
0010
0000
,  // measure 78
1000
0100
0000
0001
0100
0000
1000
0001
1000
0001
1000
0000
0020
0000
0000
0000
,  // measure 79
1030
0000
0100
0000
0001
0000
0100
0010
0001
0000
0010
1000
0000
1000
0010
0000
,  // measure 80
0001
0000
0100
0000
1000
0000
0100
0010
1000
0000
0010
0001
0000
0001
0010
0000
,  // measure 81
1000
0100
1000
0100
0010
0001
1000
0000
0001
0100
0001
0100
0010
1000
0001
0000
,  // measure 82
2000
0000
0000
3001
,  // measure 83
1000
0000
1000
0010
0000
0010
0100
0000
0100
0001
0000
0001
1000
0000
1010
0000
,  // measure 84
1000
0100
0000
0100
0001
0000
0001
0100
1000
0000
2002
0000
0000
0000
3003
0000
,  // measure 85
0001
0000
0001
0010
0000
0010
1000
0010
0001
0000
0001
0100
0000
0100
1000
0100
,  // measure 86
0002
0000
0000
1003
,  // measure 87
0220
0000
0000
0000
,  // measure 88
0000
0000
0000
0000
,  // measure 89
0330
0000
0000
0000
;
