#VERSION:0.83;
#TITLE:NGO;
#SUBTITLE:;
#ARTIST:鍋嶋圭一;
#TITLETRANSLIT:;
#SUBTITLETRANSLIT:;
#ARTISTTRANSLIT:Keiichi Nabeshima;
#GENRE:;
#ORIGIN:;
#CREDIT:;
#BANNER:NGO.png;
#BACKGROUND:NGO-bg.png;
#PREVIEWVID:;
#JACKET:NGO-jacket.png;
#CDIMAGE:;
#DISCIMAGE:;
#LYRICSPATH:;
#CDTITLE:;
#MUSIC:NGO.ogg;
#OFFSET:0.000000;
#SAMPLESTART:3.510000;
#SAMPLELENGTH:15.000000;
#SELECTABLE:YES;
#BPMS:0.000=274.809,
4.000=273.889,
234.000=131.000,
235.000=128.000,
251.000=268.000,
256.500=256.000,
264.500=266.000,
269.500=220.000,
270.500=247.000,
271.500=217.000,
272.000=180.000,
272.250=256.000,
282.250=222.000,
282.750=229.000,
283.250=246.000,
284.000=273.889;
#STOPS:284.000=0.711;
#DELAYS:;
#WARPS:;
#TIMESIGNATURES:0.000=4=4;
#TICKCOUNTS:0.000=4;
#COMBOS:0.000=1;
#SPEEDS:0.000=1.000=0.000=0;
#SCROLLS:0.000=1.000;
#FAKES:;
#LABELS:0.000=Song Start;
#BGCHANGES:;
#KEYSOUNDS:;
#ATTACKS:
;

//---------------dance-single - ----------------
#NOTEDATA:;
#CHARTNAME:;
#STEPSTYPE:dance-single;
#DESCRIPTION:;
#CHARTSTYLE:;
#DIFFICULTY:Beginner;
#METER:4;
#RADARVALUES:0.192666,0.312007,0.114117,0.031123,0.025936,130.000000,119.000000,11.000000,3.000000,0.000000,0.000000,0.000000,0.000000,0.000000,0.192666,0.312007,0.114117,0.031123,0.025936,130.000000,119.000000,11.000000,3.000000,0.000000,0.000000,0.000000,0.000000,0.000000;
#CREDIT:;
#NOTES:
0000
0000
0000
0000
,
0000
0000
0000
0000
,
0000
0000
0000
0000
,
0000
0000
0000
0000
,
0000
0000
0000
0000
,
0000
0000
0000
0000
,
0000
0000
0000
0000
,
0000
0000
0000
0000
,
0000
0000
0000
0000
,
0000
0000
1000
0000
,
0000
0000
0010
0000
,
0000
0000
0000
0000
,
0000
0000
0100
0000
,
0000
0000
1001
0000
,
0000
0000
0000
0000
,
0001
0000
0000
0001
,
0000
0000
1000
0000
,
0000
1000
0000
0000
,
0010
0000
0100
0000
,
0000
0000
0001
0000
,
0000
0000
0010
0000
,
0000
0000
0100
0000
,
0000
0000
1000
0000
,
0000
0000
0010
0000
,
0000
0000
0100
0000
,
0000
0000
0001
0000
,
0000
0000
0010
0000
,
0000
0001
0000
0000
,
0001
0000
1000
0000
,
0000
1000
0000
0000
,
0010
0000
1000
0000
,
0100
0000
1000
0000
,
0100
0000
0010
0000
,
0001
0000
0010
0000
,
0001
0000
1000
0000
,
0000
0000
1000
0000
,
0000
0000
0010
0000
,
0100
0000
0001
0000
,
0100
0000
0001
0000
,
0000
0000
0001
0000
,
0000
0000
0010
0000
,
0100
0000
1000
0000
,
0100
0000
1000
0000
,
0000
0000
0010
0000
,
0000
0000
0100
0000
,
0000
0000
0001
0000
,
0000
0000
1000
0000
,
0000
0000
0100
0000
,
0000
0000
0010
0000
,
0000
0000
0001
0000
,
0000
0000
1000
0000
,
0100
0000
1000
0000
,
0000
0000
0001
0000
,
0100
0000
0001
0000
,
0000
0000
1000
0000
,
0010
0000
1000
0000
,
0010
0000
0100
0000
,
0001
0000
0100
0000
,
0100
0000
0002
0000
,
0000
0000
0000
0000
,
0000
0000
0000
0000
,
0000
0000
0000
0000
,
0000
0000
0000
1003
,
0000
0000
1100
0000
,
0000
0000
0001
0000
,
0000
0101
0000
0000
,
0000
1000
0000
0000
0000
0000
0000
1001
,
0000
0000
0000
0000
0000
1000
0000
0000
,
0000
0001
0000
0000
0000
0000
0000
0000
0000
0100
0000
0000
0000
0000
0000
0000
,
0000
0101
0000
0000
0000
0000
0000
0000
0000
0000
0000
0000
0000
1000
0000
0000
,
0000
0000
0000
0000
0000
0000
0000
0000
0000
1001
0000
0000
0000
0000
0000
0000
,
0000
0000
0000
1000
,
0000
0000
0000
0100
,
0000
0000
0000
1000
,
0000
0000
0000
0010
,
0000
0000
0000
0100
,
0000
0000
0000
0001
,
0000
0000
0000
0010
,
0000
0010
0000
0001
,
0000
0000
0000
0100
,
0000
0001
0000
0100
,
0000
0001
0000
1000
,
0000
0010
0000
1000
,
0000
0010
0000
1000
,
0000
0001
0000
1000
,
0000
0000
0000
0001
,
0000
0000
0101
0000
,
0000
1000
0000
0000
,
1100
0000
0000
0001
,
0000
0000
0011
0000
,
0000
1000
0000
0000
,
1010
0000
0000
0001
,
0000
0010
0000
0100
,
0000
1000
0000
0001
,
0000
0100
0000
0010
,
0000
1000
0000
0001
,
0000
0010
0000
0100
,
0000
1000
0000
0000
,
0000
2002
0000
0000
,
0000
0000
0000
0000
,
0000
3003
0000
0000
;

//---------------dance-single - ----------------
#NOTEDATA:;
#CHARTNAME:;
#STEPSTYPE:dance-single;
#DESCRIPTION:;
#CHARTSTYLE:;
#DIFFICULTY:Easy;
#METER:11;
#RADARVALUES:0.406080,0.468011,0.093369,0.093369,0.036310,274.000000,265.000000,9.000000,9.000000,0.000000,0.000000,0.000000,0.000000,0.000000,0.406080,0.468011,0.093369,0.093369,0.036310,274.000000,265.000000,9.000000,9.000000,0.000000,0.000000,0.000000,0.000000,0.000000;
#CREDIT:;
#NOTES:
0000
0000
0000
0000
,
0000
0000
0000
0000
,
0000
0000
0000
0000
,
0000
0000
0000
0000
,
0000
0000
0000
0000
,
0000
0000
0000
0000
,
0000
0000
0000
0000
,
0000
0000
0000
0000
,
0000
0000
0000
0000
,
0000
0000
1000
0010
,
1000
0000
0001
0001
,
0100
0000
0010
1000
,
0100
0010
0001
0100
,
0001
0000
2200
0000
,
0000
0000
0000
0000
,
0000
0000
0000
0000
,
0000
0000
0000
0000
,
0000
0000
0000
0000
,
3300
0000
1000
0100
,
0010
0000
0001
0100
,
0001
1000
0000
1000
,
0100
0010
0000
0010
,
0001
0100
0010
1000
,
0001
0000
1000
0100
,
0001
0000
0100
1000
,
0001
0000
0100
0010
,
1000
0000
0001
1000
,
0000
0010
0100
0000
,
0001
0100
0001
0010
,
0000
0001
0100
0000
,
0010
0000
1000
0000
0100
0000
0000
1000
,
0000
0000
0001
0000
0000
0100
0000
0000
,
0010
0000
1000
0010
,
0100
0001
1000
0100
,
0010
0000
0001
0000
2000
0000
0000
3100
,
0000
0000
0000
0000
0002
0000
0000
0103
,
0000
0000
1000
0001
,
1000
0100
0010
0001
,
1000
0000
0000
0000
0002
0000
0000
0103
,
0000
0000
0000
0000
2000
0000
0000
3100
,
0000
0001
0000
0101
,
0000
0001
0000
0000
1000
0000
0100
0000
,
0010
0001
1000
0010
,
0100
0000
0001
0100
,
0001
0000
1000
0100
,
0010
0000
0100
1000
,
0001
0000
0100
0010
,
0100
0000
0001
0010
,
0001
0000
1000
0010
,
1000
0000
0001
0100
,
0001
0000
1000
0100
,
0010
0001
1000
0100
,
0010
0001
1000
0100
,
1000
0100
0010
0001
,
0010
0001
1000
0010
,
1000
0010
0100
0001
,
0100
0001
1000
0001
,
0100
0010
1000
0001
,
0100
0000
0000
0000
0001
0000
0000
1001
,
0000
0001
0010
0100
,
0000
1001
0000
0000
0100
0100
0000
0000
,
1100
0000
0000
1000
0000
0001
0000
1000
,
0000
0000
0101
0000
0000
0001
0001
0000
,
0000
0100
1000
0000
,
0010
0000
0001
0000
,
0100
1000
0000
0010
,
0000
0001
0000
0000
0000
0100
0000
1000
,
0000
0000
0000
0010
0000
0001
0000
0000
,
0000
1000
0000
0000
0000
0000
0000
0000
0000
1100
0000
0000
0000
0000
0000
0000
,
0000
0001
0000
0000
0000
0000
0000
0000
0000
0100
0000
0000
0000
1000
0000
0000
,
0000
0000
0000
0000
0000
0010
0000
0000
0000
0001
0000
0000
0000
0000
0000
0000
,
0000
0000
0000
1000
,
0001
0100
0000
0010
,
1000
0100
0000
1000
,
0100
0010
0000
0100
,
0010
0001
0000
0002
,
0000
0103
0000
0100
,
0010
1000
0000
0010
,
1000
0001
0100
0010
,
0000
1001
0000
1000
,
0000
0100
0000
0000
0001
0000
1000
0000
,
0000
0010
0000
0000
0001
0000
1000
0000
,
0000
0100
0000
0000
0001
0000
1000
0000
,
0000
0010
0000
0000
0001
0000
1000
0000
,
0100
1000
0000
0001
,
0100
0001
0000
1000
,
0100
1000
0001
0010
,
0001
1000
0010
1000
,
0001
0100
0001
1000
,
0100
0010
0001
0100
,
0010
1000
0010
0100
,
0001
0010
0100
1000
,
0100
1000
0100
0010
,
0001
0010
0001
1000
,
0010
1000
0010
0100
,
0001
0100
0001
1000
,
0001
0100
0010
1000
,
0001
0100
0010
0000
,
0000
2002
0000
0000
,
0000
0000
0000
0000
,
0000
3003
0000
0000
;

//---------------dance-single - ----------------
#NOTEDATA:;
#CHARTNAME:;
#STEPSTYPE:dance-single;
#DESCRIPTION:;
#CHARTSTYLE:;
#DIFFICULTY:Medium;
#METER:14;
#RADARVALUES:0.669884,0.884020,0.259358,0.041497,0.072620,452.000000,427.000000,25.000000,4.000000,0.000000,0.000000,0.000000,0.000000,0.000000,0.669884,0.884020,0.259358,0.041497,0.072620,452.000000,427.000000,25.000000,4.000000,0.000000,0.000000,0.000000,0.000000,0.000000;
#CREDIT:;
#NOTES:
0000
0000
0000
0000
,
0000
0000
0000
0000
,
0000
0000
0000
0000
,
0000
0000
0000
0000
,
0000
0000
0000
0000
,
0000
0000
0000
0000
,
0000
0000
0000
0000
,
0000
0000
0000
0000
,
0000
0000
0000
0000
,
0000
0000
1000
0010
,
1010
0000
0001
0100
,
0010
0000
1000
0000
0001
0000
1000
0100
,
0000
1000
0100
0000
0010
0000
0001
0000
,
1000
0010
0200
0000
,
0000
0000
0000
0000
,
0301
0000
0001
0010
0001
0000
1000
0000
,
1000
0100
1000
0000
0010
0000
0010
0100
,
0010
0000
0100
0000
0100
0010
0100
0000
,
0002
0000
1003
0100
,
1000
0001
0100
0010
,
1000
0001
1000
0100
,
0010
0100
0001
0100
,
0010
0100
1000
0010
,
0001
0010
0100
0001
,
1000
0001
0100
0010
,
1000
0010
0100
0001
,
0010
0100
0010
0000
0100
0000
1000
0000
,
0001
0100
0001
1000
,
0100
1000
0010
0100
,
0001
0010
0100
1000
,
0010
0100
0001
0100
,
0010
0100
1000
0100
,
0010
0100
0001
0010
,
0100
1000
0001
0010
,
0100
0000
1000
0000
0001
0010
0001
0010
,
0000
0000
0000
0001
1000
0100
1000
0100
,
0000
0000
0000
1000
0001
0000
0101
0000
,
0101
0000
1000
0100
1000
0000
0001
0000
,
0100
0010
0100
0010
1000
0010
1000
0010
,
0000
0000
0000
0100
0001
0100
0001
1000
,
0000
0000
0000
1000
0100
0010
0001
0000
,
0100
0010
0000
1000
0010
1000
0010
1000
,
0001
0100
0001
0100
0010
0000
1000
0000
,
0001
1000
0100
0010
,
0001
0100
0010
0100
,
0001
0010
0100
1000
,
0010
0100
0001
1000
,
0100
1000
0001
0100
,
0010
1000
0010
0100
,
0001
0000
1000
0000
0001
0010
0001
0000
,
1000
0100
1000
0000
0010
1000
0010
1000
,
0001
0100
0001
0100
0010
1000
0010
1000
,
0001
0100
0001
0100
0001
0000
0010
0000
,
0100
1000
0010
0100
,
0001
1000
0100
0001
,
0100
1000
0010
0001
,
0010
0000
1000
0000
0001
0000
0010
0001
,
0000
0010
0001
0000
1000
0100
0000
1000
,
0100
0000
1000
0000
0001
0000
1000
0101
,
0000
0011
1010
0011
,
1000
0001
0000
0000
1000
1100
0000
1000
,
1010
0000
0000
0011
0000
0101
0000
1100
,
0000
0001
1100
0000
0000
0010
0100
0000
,
0001
0100
0010
1000
,
0001
0000
0100
0001
,
0100
0010
1000
0001
,
0000
0100
0000
0001
0000
0100
0000
0010
,
0000
1000
0000
0001
0000
1000
0000
0100
,
0000
1100
0000
0000
0000
1000
0000
0000
0000
1001
0000
0000
0000
0001
0000
0000
,
0000
0101
0000
0000
0000
0100
0000
0000
0000
0010
0000
0000
0000
1000
0000
0100
,
0000
1000
0000
0001
0000
1000
0000
0100
0000
0010
0000
0000
0000
0000
0000
0000
,
0000
0000
0000
0001
,
0100
1000
0100
0010
,
1000
0010
0100
0001
,
0010
0100
0001
0100
,
1000
0010
0100
0001
,
1000
0001
0010
0100
,
1000
0010
0100
0001
,
0100
0000
1000
0000
0100
0000
0001
0010
,
0001
0000
1000
0100
1000
0000
0010
0000
,
0000
1010
0000
0000
0101
0000
0001
0000
,
0000
0011
0000
0000
1100
0000
1000
0000
,
0000
1100
0000
0000
0101
0000
0001
0000
,
0000
0011
0000
0000
1010
0000
1000
0010
,
1000
0000
0010
0100
0010
0000
0100
0001
,
0100
0000
0001
0010
0001
0000
1000
0100
,
1000
0100
1000
0100
0010
0001
0010
0001
,
0010
0001
1000
0010
1000
0010
1000
0010
,
0100
0001
0100
0001
0100
0001
1000
0100
,
1000
0100
1000
0100
0010
0001
0010
0001
,
0010
0001
1000
0010
1000
0010
1000
0010
,
0100
0001
0100
0001
0100
0001
1000
0001
,
1000
0001
1000
0001
1000
0001
0100
0010
,
0100
0010
0100
0010
0100
0010
1000
0001
,
1000
0001
1000
0001
1000
0001
0010
0100
,
0010
0100
0010
0100
0010
0100
1000
0100
,
1000
0100
0010
0001
0010
0001
1000
0010
,
1000
0010
0100
0001
0100
0001
0000
0000
,
0000
2002
0000
0000
,
0000
0000
0000
0000
,
0000
3003
0000
0000
;

//---------------dance-single - ----------------
#NOTEDATA:;
#CHARTNAME:;
#STEPSTYPE:dance-single;
#DESCRIPTION:;
#CHARTSTYLE:;
#DIFFICULTY:Hard;
#METER:16;
#RADARVALUES:0.819570,1.352031,0.217860,0.062246,0.155615,553.000000,532.000000,21.000000,6.000000,0.000000,0.000000,0.000000,0.000000,0.000000,0.819570,1.352031,0.217860,0.062246,0.155615,553.000000,532.000000,21.000000,6.000000,0.000000,0.000000,0.000000,0.000000,0.000000;
#CREDIT:;
#NOTES:
// measure 0
0000
0000
0000
0000
,  // measure 1
0000
0000
0000
0000
,  // measure 2
0000
0000
0000
0000
,  // measure 3
0000
0000
0000
0000
,  // measure 4
0000
0000
0000
0000
,  // measure 5
0000
0000
0000
0000
,  // measure 6
0000
0000
0000
0000
,  // measure 7
0000
0000
0000
0000
,  // measure 8
0000
0000
0000
0000
,  // measure 9
0000
0000
0001
1000
,  // measure 10
0100
0000
1000
0000
0001
0010
0001
0000
,  // measure 11
1000
0000
0010
0000
0100
0000
0001
0010
,  // measure 12
0000
0001
1000
0000
0010
0000
1000
0000
,  // measure 13
0001
0100
0002
0000
,  // measure 14
0000
0000
0000
0000
,  // measure 15
1003
0100
1100
0001
,  // measure 16
0010
0011
1000
0010
,  // measure 17
1010
0001
0100
0101
,  // measure 18
2000
0000
0000
0000
3001
0000
0100
0010
,  // measure 19
1000
0000
0010
0000
1000
0000
0001
1000
,  // measure 20
0100
0000
0010
0000
0001
0000
1000
0001
,  // measure 21
0100
0000
0010
0000
1000
0000
0010
0100
,  // measure 22
0001
0100
0002
0010
,  // measure 23
0013
0100
1000
0000
0001
0000
1000
0000
,  // measure 24
0010
0100
0001
0000
1000
0000
0010
0000
,  // measure 25
0100
0001
0100
0000
0001
0000
0010
0000
,  // measure 26
0001
1000
0001
0000
1000
0100
1000
0100
,  // measure 27
0010
0000
0001
0100
0001
0100
0010
0000
,  // measure 28
1000
0001
1000
0000
0001
0010
0001
0010
,  // measure 29
0100
0000
1000
0010
1000
0010
0100
0000
,  // measure 30
0001
1000
0001
0000
1000
0000
0100
0010
,  // measure 31
0000
0001
0010
0000
0100
1000
0000
0010
,  // measure 32
0100
0000
0001
0000
0010
0001
0010
0001
,  // measure 33
0100
0010
0100
0010
1000
0100
1000
0100
,  // measure 34
0010
0001
0010
0001
1000
0010
0100
0010
,  // measure 35
0000
0000
0000
0100
0001
0010
0100
0010
,  // measure 36
0000
0000
0000
0001
1000
0000
1100
0000
,  // measure 37
0101
0000
0001
1000
0001
0100
0010
0000
,  // measure 38
1000
0010
0100
0001
0010
0100
1000
0001
,  // measure 39
0000
0000
0000
1000
0100
0010
0001
1000
,  // measure 40
0000
0000
0000
0001
0010
0100
0010
0000
,  // measure 41
0100
1000
0000
0100
0010
0001
0100
0010
,  // measure 42
1000
0001
0010
0100
1000
0000
0001
0100
,  // measure 43
0001
0000
1000
0000
0010
0000
1000
0100
,  // measure 44
1000
0000
0010
0000
0100
0000
0001
0100
,  // measure 45
0001
0000
1000
0000
0010
0000
0100
0010
,  // measure 46
0100
0001
0020
0100
,  // measure 47
0130
1000
0001
0000
1000
0000
0001
0000
,  // measure 48
0010
0001
0100
0000
0001
0000
0010
0000
,  // measure 49
0100
1000
0010
0000
1000
0001
1000
0000
,  // measure 50
0001
1000
0001
0000
1000
0100
0010
0001
,  // measure 51
1000
0100
0010
0001
1000
0010
0100
0001
,  // measure 52
1000
0010
0100
0001
1000
0100
1000
0001
,  // measure 53
0100
0001
1000
0010
0100
0010
1000
0001
,  // measure 54
0010
0100
1000
0001
0100
0010
1000
0001
,  // measure 55
1000
0100
0010
0001
1000
0010
0100
0001
,  // measure 56
0010
0100
1000
0001
1000
0000
0010
1000
,  // measure 57
0000
0010
0100
0000
0001
0100
0000
0001
,  // measure 58
0010
0000
0000
0000
0001
0000
0000
0000
1000
0100
1000
0000
1001
0000
0001
0100
,  // measure 59
0001
0000
1001
0000
1000
0001
1000
0000
0001
0100
0001
0000
0010
0001
1000
0000
,  // measure 60
1001
0000
0001
0100
0001
0000
1000
0000
0001
0000
0100
0010
1000
0000
1010
0000
,  // measure 61
0010
0100
0001
0000
0101
0000
0001
0100
0001
0000
0100
0010
1000
0000
0010
1000
,  // measure 62
0001
0000
1001
0000
1000
0100
0010
0000
0001
0000
1000
0000
0001
0000
0010
0000
,  // measure 63
0001
0000
0011
0000
1000
0100
1000
0000
,  // measure 64
1100
0000
0000
0000
0001
0010
0001
0000
,  // measure 65
0011
0000
1000
0100
1000
0000
1100
0000
,  // measure 66
0000
1000
0010
1000
0000
1010
0000
0001
,  // measure 67
0100
0001
0000
0101
0000
0001
1000
0001
,  // measure 68
0000
0100
0000
0010
0000
1000
0000
0000
0000
0010
0000
1000
0000
0001
0000
0000
,  // measure 69
0000
1000
0000
0100
0000
1000
0000
0000
0000
1001
0000
0000
0000
0001
0000
1000
,  // measure 70
0000
0100
0000
1000
0000
0001
0000
0000
0000
0010
0000
0100
0000
1000
0000
0000
,  // measure 71
1001
0000
0000
1000
,  // measure 72
0010
0100
0010
0000
0100
0000
0001
0000
,  // measure 73
1000
0010
1000
0000
0001
0000
0100
0000
,  // measure 74
0010
1000
0010
0000
0100
0000
0001
0000
,  // measure 75
1000
0100
1000
0000
0001
0000
0010
0000
,  // measure 76
0100
1000
0001
0000
0100
0000
0001
0000
,  // measure 77
0010
0100
1000
0000
0001
0000
1000
0100
,  // measure 78
1000
0000
0001
0100
0001
0000
1000
0010
,  // measure 79
0100
0000
0001
0010
0100
0000
1000
0000
,  // measure 80
0010
1000
0000
0100
1000
0000
0001
0000
,  // measure 81
0010
0001
0000
0100
0001
0000
1000
0000
,  // measure 82
0010
1000
0000
0100
0010
0000
0001
0000
,  // measure 83
0010
0001
0000
0100
0010
0000
1000
0010
,  // measure 84
1000
0000
0001
0010
0100
0000
1000
0100
,  // measure 85
1000
0000
0001
0100
0010
0000
1000
0100
,  // measure 86
1000
0100
0010
0001
1000
0010
1000
0010
,  // measure 87
0100
0001
0010
0100
1000
0001
0100
0010
,  // measure 88
1000
0100
0010
0001
0100
0010
1000
0010
,  // measure 89
0100
0001
0100
0010
1000
0010
0100
0001
,  // measure 90
0010
0100
1000
0001
0100
0010
1000
0100
,  // measure 91
0010
0001
1000
0001
0100
0001
1000
0100
,  // measure 92
0010
0100
1000
0100
0010
0001
1000
0010
,  // measure 93
0100
0010
1000
0010
0100
0001
0010
0001
,  // measure 94
1000
0001
0100
0010
1000
0001
0100
0010
,  // measure 95
1000
0010
0100
0001
1000
0100
1000
0001
,  // measure 96
0100
0010
1000
0010
0100
0001
1000
0100
,  // measure 97
0010
0001
1000
0100
0010
0001
0000
0000
,  // measure 98
0000
2002
0000
0000
,  // measure 99
0000
0000
0000
0000
,  // measure 100
0000
3003
0000
0000
;

//---------------dance-single - ----------------
#NOTEDATA:;
#CHARTNAME:;
#STEPSTYPE:dance-single;
#DESCRIPTION:;
#CHARTSTYLE:;
#DIFFICULTY:Challenge;
#METER:17;
#RADARVALUES:0.905529,0.910475,0.373475,0.238609,0.243796,611.000000,575.000000,36.000000,23.000000,0.000000,0.000000,0.000000,0.000000,0.000000,0.905529,0.910475,0.373475,0.238609,0.243796,611.000000,575.000000,36.000000,23.000000,0.000000,0.000000,0.000000,0.000000,0.000000;
#CREDIT:;
#OFFSET:0.000000;
#BPMS:0.000000=274.808990
,4.000000=273.889008
,234.000000=188.625000
,259.000000=268.000000
,264.500000=256.000000
,272.500000=266.000000
,280.000000=246.000000
,280.750000=286.000000
,286.250000=246.000000
,287.250000=275.000000
,292.250000=246.000000
,296.000000=238.000000
,299.125000=273.889008
;
#STOPS:;
#DELAYS:;
#WARPS:;
#TIMESIGNATURES:0.000000=4=4
;
#TICKCOUNTS:0.000000=4
;
#COMBOS:0.000000=1
;
#SPEEDS:0.000000=1.000000=0.000000=0
;
#SCROLLS:0.000000=1.000000
;
#FAKES:;
#LABELS:0.000000=Song Start
;
#NOTES:
0000
0000
0000
0000
,
0000
0000
0000
0000
,
0000
0000
0000
0000
,
0000
0000
0000
0000
,
0000
0000
0000
0000
,
0000
0000
0000
0000
,
0000
0000
0000
0000
,
0000
0000
0000
0000
,
0000
0000
0000
0000
,
0000
0000
0011
0100
,
1001
1000
0002
0100
,
0103
0000
0001
0000
1000
0000
0010
0100
,
0001
1000
0100
0000
1100
0000
0010
0000
,
1001
0001
0200
0000
,
0000
0000
0000
0000
,
0301
0010
0001
0000
0011
0000
1000
0100
,
1000
0000
1100
0000
1000
0100
0010
0000
,
1001
0000
0001
0100
0010
0000
1001
0000
,
2000
0000
0000
0000
3010
0100
0001
1000
,
0100
0000
1100
0000
0001
0010
0001
1000
,
0100
0000
1100
0000
0101
0000
0100
0010
,
1000
0000
1010
0000
0010
1000
0100
0000
,
0020
0031
1001
0001
,
1000
0001
0100
0000
0110
0000
1000
0000
,
0001
0010
0100
0000
1100
0000
0001
0000
,
1000
0100
0010
0000
0001
0010
0001
0000
,
2000
3200
2300
3000
0001
0100
0001
0100
,
0010
0000
1000
0100
1000
0100
0010
0000
,
0001
1000
0001
0000
1000
0010
1000
0010
,
0100
0000
0001
0010
0001
0010
0100
0000
,
1000
0001
1000
0000
0001
0000
1000
0010
,
0000
0001
0010
0000
1000
0010
0000
0001
,
0010
0000
1000
0000
0001
0010
0001
0010
,
0100
1000
0100
1000
0001
0100
0001
0100
,
0010
1000
0010
1000
0001
1000
0100
0001
,
0000
0000
0000
0100
1000
0001
0100
1000
,
0000
0000
0000
0100
0001
0000
1001
0000
,
1001
0000
1000
0100
0010
0100
1000
0000
,
0010
0100
0001
0100
1000
0100
0001
0010
,
0000
0000
0000
0001
0010
1000
0010
0001
,
0000
0000
0000
0000
0001
0000
0100
0000
0001
0000
1000
0001
1000
0000
0000
0000
,
0001
1000
0001
0000
0000
0000
1000
0000
0100
0000
0010
0000
0001
0000
0010
0000
,
0001
0100
0010
1000
0001
0000
0101
0000
,
0100
0010
1000
0000
0001
0000
1001
0000
,
1000
0100
0010
0000
0100
0000
0110
0000
,
0010
0001
0100
0000
0001
0000
0011
0000
,
0010
0100
1000
0000
0100
0000
1100
0000
,
1000
0100
0001
0000
0100
0000
0011
0000
,
0010
0001
0100
0000
1000
0000
1100
0000
,
1000
0100
0001
0000
0002
0203
0320
0230
,
0302
0203
0320
0030
0100
0010
1000
0001
,
0100
0010
1000
0001
0010
0100
1000
0001
,
0010
0100
1000
0001
0010
0001
1000
0010
,
1000
0001
0100
0010
1000
0100
1000
0010
,
0100
0001
1000
0001
1000
0100
0010
0001
,
1000
0010
0100
0001
0010
0100
1000
0001
,
0100
0010
1000
0001
1000
0100
0001
0100
,
1000
0001
1000
0010
0001
0010
1000
0001
,
1000
0001
1000
0000
1000
0100
0010
0001
,
1000
0000
0000
0000
0001
0000
0000
0000
0100
0000
0000
0000
0010
0000
0000
0000
1000
0000
0000
0000
0001
0000
0000
0000
0010
0000
0000
0000
0001
0000
0000
0100
,
0000
0000
0000
0010
0000
0000
0000
0000
1000
0000
0000
0010
0000
0000
0000
0000
0100
0000
0000
0001
0000
0000
0000
0010
0000
0000
0000
0100
0000
0000
0000
0000
,
1000
0001
0000
1000
0000
0001
0000
1000
0000
0000
1000
0000
0010
0000
0100
0000
,
0001
1000
0001
0010
0100
1000
0001
0100
,
0010
0000
0000
1000
0000
0000
0000
0100
0000
0000
0000
0000
1000
0000
0000
0010
0000
0000
0000
0000
0100
0000
0000
0001
0000
0000
0000
0010
0000
0000
0000
0001
,
0000
0000
0100
0010
0000
1000
0000
0001
0000
1000
0000
0000
0001
0000
0100
0000
,
0010
0100
0001
0010
0100
1000
0001
1000
,
0010
0100
0000
0000
0001
0010
0001
0100
,
0010
1000
0100
1000
0010
0100
0001
1000
,
0000
0001
0010
0001
0100
0010
1000
0010
,
0100
0001
0100
0010
1000
0010
0100
0001
,
1000
0000
0000
0001
0000
0010
0000
0001
0000
0100
0000
0010
0000
1000
0000
0010
,
0000
0100
0000
0001
0000
0010
0000
0100
0000
1000
0000
0001
0000
1000
0000
0100
,
0000
0010
0000
0001
0000
0100
0000
0010
0000
1000
0000
0001
0000
0100
0000
0010
,
0000
1000
0000
0001
0000
0000
1001
0000
0000
0000
0000
0000
0000
0000
0000
0000
,
0000
0000
0000
1001
,
1000
0010
0100
0000
0001
0000
0101
0000
,
0001
0100
1000
0000
0100
0000
0110
0000
,
0010
1000
0100
0000
1000
0000
1100
0000
,
1000
0100
0001
0000
0100
0000
0011
0000
,
0010
0001
0010
0000
0100
0000
1100
0000
,
1000
0100
0000
0001
0100
0000
1000
0010
,
1000
0010
0001
0010
0001
0010
2000
3020
,
0032
0023
2030
3020
0032
0003
1010
0000
,
1000
0010
0000
0100
0001
0000
0011
0000
,
0001
0010
0000
0100
1000
0000
1100
0000
,
1000
0100
0000
0010
0001
0000
0101
0000
,
0001
0100
0000
0010
1000
0000
1000
0100
,
0001
0000
0001
0100
1000
0000
1000
0010
,
0001
0000
0001
0010
1000
0000
1000
0100
,
0001
1000
0010
0001
1000
0010
0001
0010
,
0100
0001
1000
0100
0001
0100
1000
0010
,
0100
0001
0100
0010
1000
0010
0100
0001
,
1000
0100
0010
0001
1000
0001
0010
0100
,
1000
0010
0100
0001
0010
0001
0100
0010
,
1000
0100
1000
0010
0100
0001
1000
0100
,
0001
0100
1000
0100
0001
0100
0010
0001
,
0100
0001
0010
0001
0100
0001
1000
0010
,
0001
0010
1000
0010
0001
0010
0100
0001
,
0010
0001
0100
0001
0010
0001
1000
0100
,
0001
0100
1000
0010
0001
0010
1000
0100
,
0001
0100
1000
0010
0001
0010
0000
0000
,
0000
2002
0000
0000
,
0000
0000
0000
0000
,
0000
3003
0000
0000
;
