#VERSION:0.83;
#TITLE:Move Me;
#SUBTITLE:;
#ARTIST:Kohta Takahashi;
#TITLETRANSLIT:;
#SUBTITLETRANSLIT:;
#ARTISTTRANSLIT:;
#GENRE:Artcore;
#ORIGIN:;
#CREDIT:Torpak;
#BANNER:bn.png;
#BACKGROUND:bg.png;
#PREVIEWVID:;
#JACKET:jk.png;
#CDIMAGE:;
#DISCIMAGE:;
#LYRICSPATH:;
#CDTITLE:cd.png;
#MUSIC:song.mp3;
#OFFSET:-0.270000;
#SAMPLESTART:14.900000;
#SAMPLELENGTH:24.000000;
#SELECTABLE:YES;
#BPMS:0.000=82.500,
18.000=41.250,
20.000=165.000;
#STOPS:82.000=0.364,
142.500=1.091;
#DELAYS:;
#WARPS:;
#TIMESIGNATURES:0.000=4=4;
#TICKCOUNTS:0.000=4;
#COMBOS:0.000=1;
#SPEEDS:0.000=1.000=0.000=0;
#SCROLLS:0.000=1.000;
#FAKES:;
#LABELS:0.000=Song Start;
#BGCHANGES:;
#KEYSOUNDS:;
#ATTACKS:
;

//---------------dance-single - ----------------
#NOTEDATA:;
#CHARTNAME:;
#STEPSTYPE:dance-single;
#DESCRIPTION:;
#CHARTSTYLE:;
#DIFFICULTY:Hard;
#METER:10;
#RADARVALUES:0.361815,0.491835,0.154016,0.444935,0.077008,296.000000,278.000000,18.000000,52.000000,0.000000,0.000000,0.000000,0.000000,0.000000,0.361815,0.491835,0.154016,0.444935,0.077008,296.000000,278.000000,18.000000,52.000000,0.000000,0.000000,0.000000,0.000000,0.000000;
#CREDIT:;
#NOTES:
0000
0000
0000
0000
,
0000
0000
0000
0000
,
0020
0000
0000
0000
0000
0000
0230
0000
0000
0000
0000
0000
0300
0001
0010
0100
,
2000
0000
0000
0100
0000
0000
0002
0000
0000
0000
0000
0000
3003
0000
0000
0000
,
0002
0000
0000
0010
0000
0000
2003
0000
3002
0023
0230
2300
3002
0203
0320
2030
,
3002
0000
0100
0000
0000
0100
0003
0100
,
0010
0000
0010
0001
0200
0000
1000
0000
,
0320
1000
0230
0001
,
0320
0000
0001
0000
2030
0000
0100
0100
,
3002
0000
0010
0000
0000
0010
0000
0000
,
1000
0000
0103
0000
0000
1000
0100
1000
,
0010
0000
0000
0000
0000
0100
0010
0100
,
0001
0000
1000
0001
0000
1001
0000
0000
,
0010
0010
1010
0000
0000
0010
0100
0001
,
0010
0010
0011
0000
0000
1010
0000
0000
,
0100
0100
0000
0101
0000
1000
0010
0100
,
0010
0010
1001
0000
0000
0110
0000
0000
,
0010
0010
0110
0000
0000
1000
0001
1000
,
0001
1000
0100
0010
0000
0110
0000
0000
,
0001
1000
0000
1001
0000
1000
0100
0001
,
0010
0010
1000
0100
0001
0000
0000
0000
,
0010
0001
0000
0010
0000
1000
0000
0000
,
1001
0000
0000
1001
0000
0000
0000
0000
,
0010
1000
0000
0010
0000
0001
0000
0010
,
0000
1000
0000
0110
0000
0000
0000
0000
,
0010
0100
0000
1000
0000
0001
0000
0000
,
0110
0000
0000
1001
0000
0000
0000
0000
,
0010
0001
0000
1000
0000
0001
0000
0010
,
0000
0100
0000
1000
0000
0000
0100
0100
,
0020
1000
0000
0001
0000
1000
0000
0000
,
0230
0001
0000
1000
0000
0001
0000
0000
,
0320
1000
0000
0100
0000
0001
0000
0100
,
0000
1030
0000
0100
0000
0010
0000
0000
,
0200
0010
0000
0001
0000
0010
0000
0001
,
0000
0010
0000
1000
0000
0310
0000
0000
,
1000
0010
0000
0001
0000
0100
0000
0000
,
0002
0000
0000
0100
0000
0000
2000
0000
,
0000
0000
0000
0000
3000
0000
0013
0100
,
0020
0000
0000
0100
0000
0000
0002
0000
,
0000
0000
0000
0000
0003
0000
0031
1000
,
0020
0000
0000
0001
0000
0000
2000
0000
,
0000
0000
0000
0000
3000
0000
0130
0001
,
0020
0000
0000
0200
,
0000
0000
0000
0330
,
2000
0000
0010
0010
0000
0100
0000
0001
,
0000
3002
0203
0320
,
2030
0000
0000
3002
,
0000
0000
0000
0000
0003
0000
1000
0100
,
0002
0000
0010
0010
0000
0100
0000
1000
,
0000
2003
3020
0230
,
0302
0000
0100
0100
0000
0100
2000
0000
,
0000
0000
3003
0000
,
0010
0000
0000
0100
0000
0000
1010
0000
0000
0000
0100
0000
0001
0000
0000
0000
,
0010
0000
0000
0001
0000
0000
0100
0000
2020
0000
0000
0000
3000
0000
0000
0000
,
0230
0000
0000
0000
0300
0000
0001
0000
0000
1000
0000
0000
1000
0000
0000
0000
,
0010
0000
0000
0100
0000
0000
0011
0000
0000
0000
1000
0000
0100
0000
0000
0000
,
1000
0000
0000
1000
0000
0000
1000
0000
0020
0000
0000
0000
1030
0000
1000
0000
,
0020
0000
0030
1000
0000
0000
1000
0000
0020
0000
0000
0000
1030
0000
1000
0000
,
0010
0100
0010
0001
0010
0100
1000
0100
,
0010
0001
0001
0010
0001
0001
0010
0000
,
0100
0000
0001
0010
0000
0000
0100
0000
0001
0010
0000
0000
0100
0000
0000
0000
,
1000
0000
1000
0001
0000
0000
0010
0000
0010
1000
0000
0000
0010
0000
0000
0000
,
0001
0100
1000
0100
0010
1000
0010
0001
,
0010
0100
0010
1000
0200
0000
0000
0000
,
0300
0000
0010
0000
0010
0001
0000
1000
,
0000
0001
0000
1000
0000
0000
0000
0000
,
0000
0000
0010
0000
0010
1000
0000
0001
,
0000
1000
0000
0001
0000
0100
0000
0000
;
