#VERSION:0.83;
#TITLE:Moshi;
#SUBTITLE:;
#ARTIST:Pegboard Nerds & Tokyo Machine;
#TITLETRANSLIT:;
#SUBTITLETRANSLIT:;
#ARTISTTRANSLIT:;
#GENRE:;
#CREDIT:;
#MUSIC:Moshi.ogg;
#BANNER:Moshi.png;
#BACKGROUND:Moshi-bg.png;
#CDTITLE:;
#SAMPLESTART:61.873;
#SAMPLELENGTH:15.000;
#SELECTABLE:YES;
#OFFSET:0.002;
#BPMS:0.000=128.000
,19.000=256.000
,19.500=128.000
,101.500=256.000
,102.500=128.000
,106.000=256.000
,107.000=128.000
,110.500=256.000
,111.500=128.000
,115.000=256.000
,116.000=128.000
;
#STOPS:19.000=0.117;
#DISPLAYBPM:128.000;
#BGCHANGES:;
#FGCHANGES:;

//--------------- dance-single - Talkion ----------------
#NOTEDATA:;
#STEPSTYPE:dance-single;
#DESCRIPTION:Talkion;
#DIFFICULTY:Hard;
#METER:14;
#RADARVALUES:0,0,0,0,0;
#NOTES:
0000
0000
0000
0000
,
0000
0000
0000
0000
,
0000
0000
0000
0000
,
0000
0000
0000
0000
,
0000
0000
0000
0000
0000
0000
0020
0130
,
1001
0000
0001
0000
1000
0100
0010
0001
1000
0000
0010
0000
0100
0010
1000
0100
,
0010
0000
0002
0000
0100
0000
2003
0000
0100
0000
3001
0000
1000
0001
0100
0000
,
0010
2000
0001
3200
0010
2300
0001
3010
,
0100
0000
0001
1000
0100
0000
0M01
1000
0100
0000
1000
0000
0001
0100
0000
0000
,
1001
0000
1000
0000
0001
0010
0100
1000
0001
0000
0100
0000
0010
0100
0001
0010
,
0100
0000
2000
0000
0010
0000
3002
0000
0010
0000
1003
0000
0001
1000
0010
0000
,
0001
0020
1000
0230
0001
0320
1000
0130
,
0001
0000
1000
0001
0010
0000
10M0
0001
0010
0000
0001
0000
1000
0010
0000
0000
,
0100
0200
0000
0000
0310
0020
0000
0000
0130
0200
0000
0000
0310
0020
0000
0000
,
0130
0200
0000
0000
0310
0020
0000
0000
0130
0200
0000
0000
0310
0020
0000
0000
,
0M30
0M00
0000
0000
00M0
00M0
0000
0000
0M00
0M00
0000
0000
00M0
00M0
0000
0000
,
1001
0000
1001
0000
0100
0010
0000
0010
0000
0000
0000
0000
1001
0000
0000
0000
,
0012
0000
0000
0000
0000
0000
0000
0000
0000
0000
0000
0000
1003
0001
0100
0010
,
1000
0020
0030
0002
0000
0000
0000
0000
,
0013
2000
3000
0002
0003
0020
0030
0200
,
0000
0000
1300
0001
0010
0000
10M0
0001
0010
0000
0001
0000
1000
0010
0000
0000
,
2010
0000
0000
0000
0000
0000
0000
0000
0000
0000
0000
0000
3001
1000
0100
0010
,
0001
0020
0030
2000
0000
0000
0000
0000
,
3010
0002
0003
0200
0300
0020
0030
2000
,
0000
0000
3001
1000
0100
0000
0M01
1000
0100
0000
0010
0000
0001
1000
0001
0100
,
0010
0010
1000
20M1
0000
3100
0010
0001
,
1000
0010
0010
0100
M201
0000
0310
1000
,
0001
0010
0100
0100
1000
2M01
0000
3010
,
0100
0001
1000
0100
0100
0010
M021
0000
,
0130
0000
1000
0000
0001
0000
0100
0000
0010
0100
0010
0100
0010
0100
0010
0100
,
0001
0100
0001
0100
0001
0100
0001
0100
0001
1000
0001
1000
0001
1000
0001
1000
,
0100
1000
0100
1000
0100
1000
0100
1000
0004
0000
0000
0000
0000
0000
0000
0000
,
0000
0000
0000
0000
0000
0000
0000
0000
0103
0000
0100
0000
0010
1000
0000
1000
,
0001
0010
0100
0000
1100
0000
0000
0000
2001
0000
0000
0000
3010
0000
1000
0000
,
0001
0010
0000
001M
1000
0000
0001
0000
1000
0100
0000
M100
0001
0000
1000
0000
,
0001
0000
0000
0010
0000
0000
0000
0000
0000
001M
0000
0000
1000
0000
0000
0000
0000
0000
0010
0000
0100
0000
0001
0000
2000
0000
0000
0000
0000
0000
0000
0000
0000
0000
0000
0000
3100
0000
0000
0000
0000
0000
1000
0000
0000
0000
0000
0000
,
0002
0100
0000
1003
0001
0000
0100
0000
0002
0010
0000
1003
0001
0000
0010
0000
,
0002
0100
0000
1003
0001
0000
0100
0000
0120
0000
0000
0000
1030
0000
0001
0000
,
0010
0100
0000
01M0
0001
0000
1000
0000
0100
0010
0000
0M10
1000
0000
0001
0000
,
0010
0000
0000
0100
0000
0000
0000
0000
0000
01M0
0000
0000
0001
0000
0000
0000
0000
0000
1000
0000
0100
0000
0010
0000
0001
0000
0000
0000
0000
0000
2000
0000
0000
0000
0000
0000
0010
0000
0000
0000
0000
0000
3002
0000
0000
0000
0000
0000
,
0010
2003
0100
3002
0100
0000
1000
0000
,
0013
0000
0100
0000
1000
0001
0100
0000
0120
0000
0000
0000
1030
0010
0001
0010
,
0100
0000
0000
0001
1000
0100
0001
0100
0010
0000
0000
0001
1000
0010
0001
0010
,
0100
0000
0000
1000
0001
0000
0010
1000
0002
0000
0000
0000
0013
1000
0010
0100
,
1000
0000
0000
0001
0100
1000
0100
0010
1000
0000
0000
0001
0010
1000
0010
0100
,
1000
0000
0000
0100
1000
0000
0002
0000
0203
0000
0000
0000
0301
0100
1000
0100
,
0010
0000
0000
1000
0001
0010
1000
0010
0100
0000
0000
1000
0001
0100
1000
0100
,
0010
0000
0000
0001
1000
0000
0100
0001
1000
0000
0020
0000
0100
0000
2030
0000
,
0100
3020
0100
2030
0001
0001
0001
3001
,
1000
0000
0100
0000
0010
0001
1000
0001
0100
0000
0010
0000
1000
0010
0100
0001
,
1000
0100
0010
0000
0001
1000
0010
0100
0001
0000
2000
0000
0100
0000
3002
0000
,
0100
0000
1003
0000
0001
0010
0100
0000
0001
0000
0200
0000
1000
0000
0320
0000
,
0001
0000
0230
0000
1000
0000
0310
0000
0001
0000
1000
0010
0100
0000
1M00
0010
,
0100
0000
0001
0000
1000
0100
0000
0000
1100
0000
0100
0000
1000
0001
0100
0010
,
1000
0001
0100
0000
0010
1000
0001
0010
0100
0000
2000
0000
0010
0000
3002
0000
,
0010
0000
1003
0000
0001
0100
0010
0000
1000
0000
0001
0000
1100
0000
0001
0000
,
1100
0000
0000
0011
0000
0000
1002
0000
0000
0000
0103
0010
1000
0000
M100
0010
,
1000
0000
0001
0000
0010
0100
0000
0000
0220
0000
0000
0000
0000
0000
0000
0000
,
0000
0000
0330
0000
;

//--------------- dance-single - Talkion ----------------
#NOTEDATA:;
#STEPSTYPE:dance-single;
#DESCRIPTION:Talkion;
#DIFFICULTY:Challenge;
#METER:15;
#RADARVALUES:0,0,0,0,0;
#NOTES:
0000
0000
0000
0000
,
0000
0000
0000
0000
,
0000
0000
0000
0000
,
0000
0000
0000
0000
,
0000
0000
0000
0000
0000
0000
0200
0310
,
2001
0000
0000
0000
3100
0000
1000
0001
0100
0010
0001
0000
0010
0100
0001
0010
,
0200
0000
2300
0000
0000
0000
0001
0000
0000
0000
3010
0000
0100
0010
1000
0000
,
0001
0020
0000
1000
0000
0001
0000
0230
,
0000
0000
0310
0100
1000
0000
0010
0100
1000
0000
1M00
0000
0010
0100
0000
0000
,
1002
0000
0000
0000
0013
0000
0001
1000
0010
0100
1000
0000
0100
0010
1000
0100
,
0020
0000
0032
0000
0000
0000
1000
0000
0000
0000
0103
0000
0010
0100
0001
0000
,
1000
0200
0000
0302
0000
2003
0000
3020
,
0000
0000
0130
0010
0001
0000
0100
0010
0001
0000
00M1
0000
0100
0010
0000
0000
,
2002
0000
0000
0000
,
0000
0000
0000
0000
,
0000
0000
0000
0000
0000
0000
0000
3003
,
1001
0000
1001
0000
0010
0100
0000
0100
0000
0000
0000
0000
1001
0000
0000
0000
,
2100
0000
0000
0000
0000
0000
0000
0000
0000
0000
0000
0000
3001
1000
0010
0100
,
0001
2000
3000
0200
0000
0000
0000
0000
,
0310
2000
3000
0020
0030
0002
0003
2000
,
0000
0000
3010
0100
0001
0000
0010
0100
0001
0000
0M01
0000
1000
0001
0000
0000
,
0012
0000
0000
0000
0000
0000
0000
0000
0000
0000
0000
0000
1003
0001
0100
0010
,
1000
0002
0003
0020
0000
0000
0000
0000
,
1030
0002
0003
0200
0300
2000
3000
0020
,
0000
0000
0130
0010
1000
0000
0100
0010
1000
0000
10M0
0000
0001
1000
0010
0100
,
0001
0001
0001
1M02
0000
0013
0010
0010
,
0010
0100
0100
0100
21M0
0000
3001
0001
,
0001
0001
0100
0100
0100
012M
0000
1030
,
1000
1000
1000
0001
0001
0001
M021
0000
,
0130
0000
0100
0000
0100
0000
0100
0000
1000
0001
0100
0001
1000
0001
0100
0010
,
1000
0001
0010
0001
1000
0001
0010
0100
1000
0001
0100
0010
0100
0001
0100
0010
,
1000
0001
0010
0100
0010
0001
0010
0100
0004
0000
0000
0000
0000
0000
0000
0000
,
0000
0000
0000
0000
0000
0000
0000
0000
1003
0000
100M
0000
0010
0100
0010
1000
,
0001
0010
0100
0000
1100
0000
0000
0000
1002
0000
0000
0000
1103
0000
0001
0000
,
MMMM
0000
0000
0100
1000
0000
0001
0000
MMMM
0000
0000
0010
1000
0000
0001
0000
,
MMMM
0000
0000
0000
0000
0000
0000
0000
0000
0100
0000
0000
1000
0000
0000
0000
0000
0000
0001
0000
0100
0000
0010
0000
2000
0000
0000
0000
0000
0000
0000
0000
0000
0000
0000
0000
3011
0000
0000
0000
0000
0000
1000
0000
0000
0000
0000
0000
,
MMMM
0000
0000
0010
0001
0000
1000
0000
MMMM
0000
0000
0100
0001
0000
1000
0000
,
MMMM
0000
0000
0010
0001
0000
1000
0000
1002
0000
0000
0000
1103
0000
0010
0000
,
MMMM
0000
0000
0100
1000
0000
0010
0000
MMMM
0000
0000
0001
1000
0000
0010
0000
,
MMMM
0000
0000
0000
0000
0000
0000
0000
0000
0100
0000
0000
1000
0000
0000
0000
0000
0000
0001
0000
0100
0000
0010
0000
1000
0000
0000
0000
0000
0000
0002
0000
0000
0000
0000
0000
0010
0000
0000
0000
0000
0000
2003
0000
0000
0000
0000
0000
,
0010
3002
0100
2003
0100
0000
0001
0000
,
3010
0000
MMMM
0000
0010
0100
0010
0000
1002
0000
0000
0000
0013
0010
0010
0001
,
2000
3000
0000
0010
0100
0100
0100
0001
2000
3000
0000
0010
0100
0100
0100
0001
,
2000
3000
0000
1000
0100
0000
0010
0001
2001
0000
0000
0000
3010
0010
0010
1000
,
0002
0003
0000
0010
0100
0100
0100
1000
0002
0003
0000
0010
0100
0100
0100
1000
,
0002
0003
0000
0001
0100
0000
0010
0000
1020
0000
0000
0000
0130
0100
0100
0001
,
2000
3000
0000
0001
0010
0010
0010
0100
2000
3000
0000
0001
0010
0010
0010
0100
,
2000
3000
0000
1000
0001
0000
0100
0010
1000
0000
0002
0000
0100
0000
2003
0000
,
0100
3002
0010
2003
0010
0010
0010
3010
,
0101
0000
MMMM
0000
0100
0010
1000
0100
0010
0000
0001
0000
1000
0010
0100
1000
,
0100
0010
1000
0000
0001
1000
0100
0010
1000
0000
0010
0000
0001
0000
1000
0000
,
0010
0000
0001
0000
1000
0100
0010
0000
1000
0000
0001
0000
0010
0000
1000
0000
,
0001
0000
1000
0000
0010
0000
0001
0000
1000
0000
0010
0100
0001
0000
0010
0100
,
0001
0000
0M01
0000
1000
0010
0000
0010
0100
0000
0001
0000
1000
0100
0010
1000
,
0010
0100
1000
0000
0001
1000
0010
0100
1000
0000
0100
0000
0001
0000
1000
0000
,
0100
0000
0001
0000
1000
0010
0100
0000
2000
0000
0010
0000
0011
0000
0010
0000
,
3011
0000
0000
1100
0000
0000
0022
0000
0000
0033
0100
0010
1000
0000
0100
0010
,
1000
0000
10M0
0000
0001
0100
0000
0000
0220
0000
0000
0000
0000
0000
0000
0000
,
0000
0000
0000
0000
0000
0000
0000
0000
0000
0330
0000
0000
0000
0000
0000
0000
;
