#TITLE:More More More;
#SUBTITLE:;
#ARTIST:Dagny;
#TITLETRANSLIT:;
#SUBTITLETRANSLIT:;
#ARTISTTRANSLIT:;
#GENRE:;
#CREDIT:;
#BANNER:More More More.png;
#BACKGROUND:More More More-bg.png;
#LYRICSPATH:;
#CDTITLE:;
#MUSIC:More More More.ogg;
#OFFSET:1.828000;
#SAMPLESTART:46.167000;
#SAMPLELENGTH:15.000000;
#LASTBEATHINT:1.585476;
#SELECTABLE:YES;
#BPMS:0.000000=115.000000
;
#STOPS:
;
#BGCHANGES:;
#KEYSOUNDS:;
#ATTACKS:;

//---------------dance-single - ----------------
#NOTES:
     dance-single:
     :
     Hard:
     10:
     0.346678,0.385852,0.097070,0.157738,0.042468,200.000000,192.000000,8.000000,13.000000,0.000000,0.000000,0.346678,0.385852,0.097070,0.157738,0.042468,200.000000,192.000000,8.000000,13.000000,0.000000,0.000000:
// measure 0
0000
0000
0000
0000
,  // measure 1
0000
0000
0000
0000
,  // measure 2
0000
0000
0000
0000
,  // measure 3
0000
0000
0000
0000
,  // measure 4
0000
0000
0000
0000
,  // measure 5
0002
0010
0000
1000
,  // measure 6
0000
0000
0000
0000
0100
0000
0000
0000
0000
0000
0000
0103
0010
0000
1000
0000
,  // measure 7
1010
0000
0001
0000
0010
0010
0100
0000
,  // measure 8
1000
0100
0010
0001
0010
0000
0100
0000
,  // measure 9
1000
0100
0010
0000
1000
0010
0100
0000
,  // measure 10
1000
0100
0001
0100
1000
1000
0002
0000
,  // measure 11
0103
0000
0010
0000
1000
1000
0001
0000
,  // measure 12
0010
0100
1000
0100
0010
0000
0001
0000
,  // measure 13
0001
0100
0010
0000
0001
0010
0100
0000
,  // measure 14
0001
0000
0100
0000
1000
0000
0100
0000
0001
1000
0001
0000
1001
0000
0000
0000
,  // measure 15
2000
0100
0001
3010
,  // measure 16
0100
0001
0100
0000
0001
0010
0100
0000
,  // measure 17
0010
0100
1000
0000
0010
0100
0001
0000
,  // measure 18
2000
0000
3002
0000
0103
0010
1010
0000
,  // measure 19
0002
0100
1000
0013
,  // measure 20
0100
1000
0100
0000
1000
0100
0010
0000
,  // measure 21
0002
0103
2000
3100
,  // measure 22
0010
0000
0000
0000
0001
0000
0000
0000
0100
0000
0100
0000
0010
0000
1000
0010
,  // measure 23
1000
0000
0000
1000
0000
0000
1001
0000
0000
0000
0100
0000
0010
0000
0000
0000
,  // measure 24
0002
0000
1000
0000
0103
0010
1000
0000
,  // measure 25
0001
0000
0000
0001
0000
0000
1001
0000
0000
0000
0100
0000
0010
0000
0000
0000
,  // measure 26
1000
0001
0100
0001
1000
0010
0100
0000
,  // measure 27
0010
0000
0000
0010
0000
0000
1010
0000
0000
0000
0100
0000
0001
0000
0000
0000
,  // measure 28
2000
0000
3010
0010
0100
0000
1001
0000
,  // measure 29
0002
0010
1000
0103
,  // measure 30
0010
1000
0010
0000
0100
0001
1000
0000
,  // measure 31
0100
0010
0001
0010
0100
0000
0100
0000
,  // measure 32
1000
0100
0010
0001
0010
0000
0100
0000
,  // measure 33
0010
0001
0100
0010
1000
0000
0001
0000
,  // measure 34
0100
0000
0000
0100
0000
0000
0101
0000
0000
0000
1000
0000
0010
0000
0100
0000
,  // measure 35
0010
1000
0100
0010
0100
0000
1000
0000
,  // measure 36
0001
0100
0010
1000
0010
0000
0100
0000
,  // measure 37
0010
1000
0100
0010
0001
0000
1000
0010
,  // measure 38
0100
0001
0001
0100
0010
1000
0100
2000
,  // measure 39
0000
0002
0000
0000
0000
0000
3003
0000
;

//---------------dance-single - ----------------
#NOTES:
     dance-single:
     :
     Medium:
     6:
     0.213207,0.313505,0.169872,0.109203,0.000000,123.000000,109.000000,14.000000,9.000000,0.000000,0.000000,0.213207,0.313505,0.169872,0.109203,0.000000,123.000000,109.000000,14.000000,9.000000,0.000000,0.000000:
// measure 0
0000
0000
0000
0000
,  // measure 1
0000
0000
0000
0000
,  // measure 2
0000
0000
0000
0000
,  // measure 3
0000
0000
0000
0000
,  // measure 4
0000
0000
0000
0000
,  // measure 5
2002
0000
0000
0000
,  // measure 6
0000
0000
0000
3003
,  // measure 7
1000
0100
0010
0010
,  // measure 8
0001
0010
0100
1000
,  // measure 9
0001
0100
0010
0000
,  // measure 10
1000
0000
0100
0000
0010
0100
0010
0000
,  // measure 11
0001
0010
0100
0100
,  // measure 12
1000
0100
0010
0001
,  // measure 13
0100
0010
1000
0000
,  // measure 14
0100
0000
0010
0000
0001
1000
0001
0000
,  // measure 15
2000
0000
0000
0000
,  // measure 16
3000
0000
0010
0010
,  // measure 17
0002
0000
0000
0000
,  // measure 18
0103
0000
0100
0000
0010
0100
0010
0000
,  // measure 19
2000
0000
0000
0000
,  // measure 20
3000
0000
0100
0100
,  // measure 21
0002
0000
0000
0000
,  // measure 22
1003
0000
1000
0000
1000
0001
1000
0000
,  // measure 23
1100
1100
1100
0000
,  // measure 24
0100
0001
0010
0001
,  // measure 25
0101
0101
0101
0000
,  // measure 26
0010
0000
1000
0000
0001
1000
0001
0000
,  // measure 27
0011
0011
0011
0000
,  // measure 28
0100
1000
0010
1000
,  // measure 29
0020
0000
0000
0000
,  // measure 30
0130
0000
0100
0000
,  // measure 31
0001
0010
0100
0100
,  // measure 32
1000
0010
0100
0100
,  // measure 33
0001
0100
0010
0010
,  // measure 34
1010
1010
1010
0000
,  // measure 35
1000
0100
0010
0010
,  // measure 36
0001
0100
0010
0010
,  // measure 37
1000
0010
0100
0100
,  // measure 38
0001
0000
0001
0000
1000
0001
1000
0000
,  // measure 39
2002
0000
0000
3003
;

//---------------dance-single - ----------------
#NOTES:
     dance-single:
     :
     Easy:
     3:
     0.121337,0.144695,0.000000,0.072802,0.000000,70.000000,70.000000,0.000000,6.000000,0.000000,0.000000,0.121337,0.144695,0.000000,0.072802,0.000000,70.000000,70.000000,0.000000,6.000000,0.000000,0.000000:
// measure 0
0000
0000
0000
0000
,  // measure 1
0000
0000
0000
0000
,  // measure 2
0000
0000
0000
0000
,  // measure 3
0000
0000
0000
0000
,  // measure 4
0000
0000
0000
0000
,  // measure 5
2000
0000
0000
0000
,  // measure 6
0000
0000
0000
3000
,  // measure 7
0001
0000
0001
0000
,  // measure 8
0010
0010
0010
0000
,  // measure 9
1000
0000
0100
0000
,  // measure 10
0010
0010
0010
0000
,  // measure 11
0001
0000
1000
0000
,  // measure 12
0100
0100
0100
0000
,  // measure 13
1000
0000
0001
0000
,  // measure 14
0100
0100
0100
0000
,  // measure 15
0020
0000
0000
0000
,  // measure 16
0030
0000
0000
0000
,  // measure 17
0020
0000
0000
0000
,  // measure 18
0030
0000
0100
0100
,  // measure 19
0002
0000
0000
0000
,  // measure 20
0003
0000
0000
0000
,  // measure 21
2000
0000
0000
0000
,  // measure 22
3001
0000
1000
0000
,  // measure 23
1000
1000
1000
0000
,  // measure 24
0100
0000
0010
0000
,  // measure 25
0001
0001
0001
0000
,  // measure 26
0010
0000
0100
0000
,  // measure 27
1000
1000
1000
0000
,  // measure 28
0100
0000
0010
0000
,  // measure 29
0001
0001
0001
0000
,  // measure 30
0100
0000
0010
0000
,  // measure 31
1000
0000
0010
0000
,  // measure 32
0100
0001
0100
0000
,  // measure 33
0010
0000
1000
0000
,  // measure 34
0001
0001
0001
0000
,  // measure 35
0001
0000
0010
0000
,  // measure 36
0100
1000
0100
0000
,  // measure 37
0010
0000
0001
0000
,  // measure 38
1000
1000
1000
0000
,  // measure 39
0002
0000
0000
0003
;

//---------------dance-single - ----------------
#NOTES:
     dance-single:
     :
     Beginner:
     1:
     0.067602,0.094643,0.000000,0.000000,0.000000,39.000000,39.000000,0.000000,0.000000,0.000000,0.000000,0.067602,0.094643,0.000000,0.000000,0.000000,39.000000,39.000000,0.000000,0.000000,0.000000,0.000000:
// measure 0
0000
0000
0000
0000
,  // measure 1
0000
0000
0000
0000
,  // measure 2
0000
0000
0000
0000
,  // measure 3
0000
0000
0000
0000
,  // measure 4
0000
0000
0000
0000
,  // measure 5
0001
0000
0000
0000
,  // measure 6
0000
0000
0000
0000
,  // measure 7
0100
0000
0000
0000
,  // measure 8
0100
0000
0000
0000
,  // measure 9
0010
0000
0000
0000
,  // measure 10
0010
0000
0000
0000
,  // measure 11
1000
0000
0000
0000
,  // measure 12
1000
0000
0000
0000
,  // measure 13
0001
0000
0000
0000
,  // measure 14
0001
0000
0000
0000
,  // measure 15
0010
0000
0000
0000
,  // measure 16
0010
0000
0000
0000
,  // measure 17
0010
0000
0000
0000
,  // measure 18
0010
0000
0000
0000
,  // measure 19
0100
0000
0000
0000
,  // measure 20
0100
0000
0000
0000
,  // measure 21
0100
0000
0000
0000
,  // measure 22
1000
0000
0000
0000
,  // measure 23
0001
0000
0001
0000
,  // measure 24
0001
0000
0000
0000
,  // measure 25
1000
0000
1000
0000
,  // measure 26
1000
0000
0000
0000
,  // measure 27
0001
0000
0001
0000
,  // measure 28
0001
0000
0000
0000
,  // measure 29
1000
0000
1000
0000
,  // measure 30
1000
0000
0000
0000
,  // measure 31
0100
0000
0000
0000
,  // measure 32
0100
0000
0000
0000
,  // measure 33
0100
0000
0000
0000
,  // measure 34
1000
0000
1000
0000
,  // measure 35
1000
0000
0000
0000
,  // measure 36
0001
0000
0000
0000
,  // measure 37
0001
0000
0000
0000
,  // measure 38
1000
0000
0000
0000
,  // measure 39
1000
0000
0000
0000
;
