#TITLE:ミストレス・アンに花束を;
#SUBTITLE:;
#ARTIST:soejima takuma feat. 猫叉Master;
#TITLETRANSLIT:Mistress Ann ni hanataba o;
#SUBTITLETRANSLIT:;
#ARTISTTRANSLIT:soejima takuma feat. Nekomata Master;
#GENRE:;
#CREDIT:;
#BANNER:Mistress Ann ni hanataba o [vincentw].png;
#BACKGROUND:Mistress Ann ni hanataba o [vincentw]-bg.png;
#LYRICSPATH:;
#CDTITLE:cdtitle.png;
#MUSIC:Mistress Ann ni hanataba o [vincentw].ogg;
#OFFSET:2.769937;
#SAMPLESTART:74.576324;
#SAMPLELENGTH:12.444443;
#LASTBEATHINT:3.908290;
#SELECTABLE:YES;
#BPMS:0.000000=135.000000
,104.000000=202.500000
;
#STOPS:
;
#BGCHANGES:3.667=Mistress Ann ni hanataba o [vincentw].avi=1.000=1=0=0=StretchNoLoop==CrossFade==,
308.000=Mistress Ann ni hanataba o [vincentw]-bg.png=1.000=1=0=1===CrossFade==,
99999=-nosongbg-=1.000=0=0=0 // don't automatically add -songbackground-
;
#KEYSOUNDS:;
#ATTACKS:;

//---------------dance-single - ----------------
#NOTES:
     dance-single:
     :
     Beginner:
     3:
     0.151329,0.288730,0.084369,0.131241,0.000000,113.000000,104.000000,9.000000,14.000000,0.000000,0.000000,0.151329,0.288730,0.084369,0.131241,0.000000,113.000000,104.000000,9.000000,14.000000,0.000000,0.000000:
0000
0000
0000
0000
,
0000
0000
0000
0000
,
0000
0000
0000
0000
,
0000
0000
0000
0000
,
1000
0000
0000
0000
,
0001
0000
0000
0000
,
0010
0000
0000
0000
,
0100
0000
1000
0000
,
1000
0000
0001
0000
,
0001
0000
0100
0000
,
0200
0000
0000
0300
,
0010
0000
0010
0000
,
1000
0000
0001
0000
,
1000
0000
0001
0000
,
0020
0000
0030
0000
,
0200
0000
1300
0000
,
1000
0000
0010
0000
,
0010
0000
0100
0000
,
0200
0000
0000
0300
,
0001
0000
0001
0000
,
1000
0000
1001
0000
,
0001
1000
0001
0000
,
0100
0000
0110
0000
,
0010
0100
0010
0000
,
1000
0000
1001
0000
,
0001
0010
0001
0000
,
2000
0000
0000
0000
,
0000
0000
0000
0000
,
0000
3000
0000
0000
,
0001
0000
0000
0001
,
0000
0000
1000
0000
,
0000
1000
0000
0000
,
0001
0000
0000
1000
,
0000
0000
0200
0000
,
0000
0300
0000
0000
,
0010
0000
0000
0010
,
0000
0000
0100
0000
,
0000
0100
0000
0000
,
0010
0000
0000
0001
,
0000
0000
2000
0000
,
0000
3000
0000
0000
,
0000
0000
0000
1001
,
0000
0000
0000
0000
,
0000
0110
0000
0000
,
0000
0000
0000
1001
,
0000
0000
0001
0000
,
0000
1000
0000
0000
,
0001
0000
0000
1001
,
0000
0000
1000
0000
,
0000
1001
0000
0000
,
0010
0000
0000
0100
,
0000
0000
0220
0000
,
0000
0330
0000
0000
,
1000
0000
0000
0010
,
0000
0000
2000
0000
,
0000
3000
0000
0000
,
0002
0000
0000
0003
,
0000
0000
0200
0000
,
0000
0302
0000
0000
,
0103
0000
0000
0100
,
0000
0000
0001
0000
,
0000
1000
0000
0000
,
0100
0000
0000
0100
,
0000
0000
1000
1000
,
0000
0100
0000
0000
,
0010
0010
0000
0001
,
0000
0000
0001
0001
,
0000
0010
0000
0000
,
0100
0100
0000
1000
,
1000
0000
0001
0000
,
0000
1000
1000
0000
,
0001
0001
0000
0100
,
0000
0000
0010
0000
,
0000
0100
0010
0100
,
0020
0000
0000
0000
,
0000
0000
0000
0000
,
0000
0000
0000
0000
,
0030
0000
0000
0000
;

//---------------dance-single - ----------------
#NOTES:
     dance-single:
     :
     Easy:
     5:
     0.214271,0.288730,0.037497,0.168738,0.000000,160.000000,156.000000,4.000000,18.000000,0.000000,0.000000,0.214271,0.288730,0.037497,0.168738,0.000000,160.000000,156.000000,4.000000,18.000000,0.000000,0.000000:
0000
0000
0000
0000
,
0000
0000
0000
0000
,
0000
0000
0000
0000
,
0000
0000
0000
0000
,
1000
0000
0100
0000
,
1000
0000
0001
0000
,
0100
0000
0100
0000
,
0010
0000
0010
0000
,
1000
0000
0001
0000
,
1000
0000
0001
0000
,
0100
0100
0000
0000
,
0010
0010
0000
0000
,
1000
0000
0001
0000
,
1000
0000
0010
0000
,
0100
0100
0000
0001
,
0001
0000
1000
0100
,
1000
0000
0001
0100
,
0001
0000
1000
0010
,
0100
0001
0001
0000
,
1000
0100
0010
0001
,
2000
0000
3001
0000
,
0001
1000
0001
0001
,
0200
0000
0310
0000
,
0010
0100
0010
0010
,
2000
0000
3010
0000
,
0100
0001
0100
0100
,
0002
0000
0000
2003
,
0000
0000
3002
0000
,
0000
1003
0000
0000
,
1000
0000
0000
0010
,
0000
0000
1000
0000
,
0000
0010
0000
0000
,
0100
0000
0000
0001
,
0000
0000
0200
0000
,
0000
0301
0000
0001
,
0000
1000
0000
0010
,
0000
1000
0000
0001
,
0000
0010
0000
0001
,
0000
1000
0000
0001
,
0000
1000
0200
0000
,
0000
2300
0000
0000
,
3001
0000
0001
1000
,
0000
0000
1000
0000
,
1000
0001
0000
0000
,
0001
0000
0001
0100
,
0000
0100
0020
0000
,
0000
2030
0000
0000
,
3001
1000
0000
1001
,
0000
0000
0010
0100
,
0000
0110
0000
0000
,
1000
0010
0000
0100
,
0001
0000
2000
0000
,
0000
3002
0000
0000
,
1003
0000
1000
0100
,
0000
0100
0010
0000
,
0010
0001
0000
0000
,
0001
0000
0001
0100
,
0000
0100
0010
0000
,
0010
1000
0000
0000
,
1001
0000
0000
0001
,
0001
0000
1000
1000
,
0000
0020
0000
0000
,
0230
0000
0000
0310
,
0000
0000
1000
0010
,
0000
0010
1000
0000
,
0002
0000
0000
1000
0000
0000
0103
0000
,
0000
0000
0001
0010
,
0000
0010
0000
0001
,
2000
0010
0000
3100
,
0010
0000
0110
0000
,
0000
0010
0100
1000
,
0001
0000
0001
0100
,
0000
0010
0000
0000
1000
0000
0000
0000
,
0001
0100
1000
0100
,
0002
0000
0000
0000
,
0000
0000
0000
0000
,
0000
0000
0000
0000
,
0003
0000
0000
0000
;

//---------------dance-single - ----------------
#NOTES:
     dance-single:
     :
     Medium:
     10:
     0.381670,0.469186,0.149990,0.056246,0.042185,285.000000,269.000000,16.000000,6.000000,0.000000,0.000000,0.381670,0.469186,0.149990,0.056246,0.042185,285.000000,269.000000,16.000000,6.000000,0.000000,0.000000:
0000
0000
0000
0000
,
0000
0000
0000
0000
,
0000
0000
0000
0000
,
0000
0000
0000
0000
,
1001
0001
0100
0001
,
0010
0100
1000
0010
,
1000
0000
0000
0001
0000
0000
0010
0000
0000
0000
0000
0000
0001
0000
0000
0000
,
1000
0000
0001
0000
0010
0100
0010
0000
,
0001
0000
0000
1000
0000
0000
0010
0000
0100
0000
0010
0000
,
1000
0000
0100
0000
1000
0001
0100
0000
,
0001
0000
0010
0001
0100
0000
0001
0000
,
1000
0000
0010
1000
0100
0000
1000
0000
,
1001
0000
0001
0000
0010
0000
0001
0100
,
0010
0000
1000
0000
0010
0000
1000
0100
,
0010
0000
0000
0100
0000
0000
1000
0000
0000
0000
0000
0000
0001
0000
0000
0000
,
1000
0000
0010
0000
1000
0010
0001
0010
,
1000
0000
0000
0001
0000
0000
0010
0000
1000
0000
0010
0000
,
0001
0000
1000
0000
0001
1000
0010
0000
,
0100
0000
0010
1000
0001
0000
1000
0000
,
0001
0010
0100
1000
0001
0000
1000
0000
,
0001
0000
0000
0010
0000
0000
0000
0000
0011
0000
0000
0000
0001
0000
0000
0000
,
0100
0000
0010
1000
0001
0100
0100
0000
,
0001
0000
0000
1000
0000
0000
0000
0000
1001
0000
0000
0000
0001
0000
0000
0000
,
1000
0000
0001
0010
0100
0000
0110
0000
,
0001
0000
0000
0100
0000
0000
0000
0000
0101
0000
0000
0000
0001
0000
0000
0000
,
1000
0000
0010
0100
0001
1000
1000
0000
,
0001
1000
0001
0010
,
0100
0000
0010
0000
0002
0000
0000
2003
,
0000
3001
0000
0000
,
0001
0000
0000
0010
0000
0000
0100
0000
,
0000
1000
0000
0000
0001
0000
0000
0100
,
0000
0000
0010
0000
0000
1010
0000
0000
,
1000
0000
0000
0001
0000
0000
0010
0000
,
0000
0100
0000
0000
1000
0000
0001
0000
,
0010
0000
0100
0000
0000
0011
0000
0000
,
1000
0000
0000
0010
0000
0000
0001
0000
,
0000
0010
0000
0000
1000
0000
0000
0100
,
0000
0000
0001
0000
0000
0110
0000
0000
,
1000
0000
0000
0010
0000
0000
0001
0000
,
0000
0100
0000
0000
1000
0000
0000
0011
,
0000
0000
0001
0000
0000
1100
0000
0000
,
0000
0100
1000
0001
,
0010
0001
0000
0100
,
0001
1000
0010
1000
,
0000
0001
0010
0100
,
0010
0001
1000
0010
,
0100
0010
1000
0001
,
0000
1000
0010
0001
,
0010
1000
0000
0001
,
0010
1000
0010
0001
,
0000
1000
0010
0001
,
1000
0100
0002
0000
,
0000
2003
0000
0000
,
3010
0100
0001
0010
,
0100
0000
1000
0000
0010
0000
0000
0100
,
0000
0110
0000
0010
,
1000
0001
0000
1001
,
0000
0000
0001
0000
0010
0000
0100
0010
,
0000
0000
0100
0000
1000
0100
0000
0000
,
1100
0000
0000
1000
0000
0000
0001
0000
,
0010
0100
0010
1000
,
0010
0000
0001
0000
0000
1000
0000
0000
,
0001
0010
0001
1000
,
0000
0010
0000
0010
1000
0000
0010
0000
,
0001
1000
0100
0001
,
1000
0000
0000
0010
0000
0100
0001
0000
,
0000
0100
0000
0010
1000
0000
0001
0000
,
0100
0001
1000
0100
,
1000
0000
0001
0000
0010
0100
0000
0100
,
0000
0100
0000
0100
1000
0000
0001
0000
,
0100
0000
1000
0100
0001
0000
0010
0000
,
0001
0000
1000
0000
0001
0010
1000
0000
,
0010
0001
1000
0001
,
0010
0100
0011
1000
,
0220
0000
0000
0000
,
0000
0000
0000
0000
,
0000
0000
0000
0000
,
0330
0000
0000
0000
;

//---------------dance-single - ----------------
#NOTES:
     dance-single:
     :
     Hard:
     13:
     0.595941,0.757917,0.234359,0.431220,0.318728,445.000000,420.000000,25.000000,46.000000,6.000000,0.000000,0.595941,0.757917,0.234359,0.431220,0.318728,445.000000,420.000000,25.000000,46.000000,6.000000,0.000000:
// measure 0
0000
0000
0000
0000
,  // measure 1
0000
0000
0000
0000
,  // measure 2
0000
0000
0000
0000
,  // measure 3
0000
0000
0000
0000
,  // measure 4
1000
0000
0000
1000
0000
0000
0001
0000
0100
0000
0000
0100
0000
0000
0000
0000
,  // measure 5
0001
0000
0000
0001
0000
0000
1000
0000
0100
0000
0000
0100
1000
0000
0000
0000
,  // measure 6
0001
0000
0000
0010
0000
0000
1000
0000
0010
0000
0001
0000
0100
0000
0000
0000
,  // measure 7
0010
0000
0000
1000
0000
0000
0001
0010
0100
0000
0001
0000
0100
0000
1000
0000
,  // measure 8
0001
0000
0000
0000
0000
0000
0000
0000
0000
1000
0000
0000
0000
0000
0000
0000
0000
0000
0100
0000
0000
0000
0000
0000
1000
0000
0000
0000
0000
0000
0000
0000
0001
0000
0000
0000
0010
0000
0000
0000
0000
0000
0000
0000
0000
0000
0000
0000
,  // measure 9
0001
0000
0000
1000
0000
0000
0010
0000
1000
0000
0100
0010
0000
0000
1000
0000
,  // measure 10
0010
0000
0001
1000
0010
0000
0001
0000
0010
0000
0000
0100
0000
0000
0100
0000
,  // measure 11
0001
0000
1100
0000
0001
0011
0010
0100
,  // measure 12
1000
0000
0000
0000
0000
0000
0000
0000
0000
0001
0000
0000
0000
0000
0000
0000
0000
0000
1000
0000
0000
0000
0000
0000
0010
0000
0000
0000
0000
0000
0000
0000
0000
0100
0000
0000
0000
0000
0000
0000
0000
0000
0001
0000
0100
0000
0001
0000
,  // measure 13
0100
0000
0000
0000
0000
0000
0000
0000
0000
0010
0000
0000
0000
0000
0000
0000
0000
0000
1000
0000
0000
0000
0000
0000
0100
0000
0000
0000
0000
0000
0000
0000
0000
0100
0000
0000
0000
0000
0000
0000
0000
0000
1000
0000
0001
0000
1000
0000
,  // measure 14
0001
0000
0000
0010
0000
0000
1000
0000
0001
0000
0000
0100
0010
0000
0000
0000
,  // measure 15
0001
0000
0000
0100
0000
0000
0001
0010
0100
0000
0001
0000
0100
0000
1000
0000
,  // measure 16
0010
0000
0000
0000
0000
0000
0000
0000
0000
1000
0000
0000
0000
0000
0000
0000
0000
0000
1000
0000
0000
0000
0000
0000
0001
0000
0000
0000
0100
0000
0000
0000
0010
0000
0000
0000
0000
0000
0000
0000
1000
0000
0000
0000
0000
0000
0000
0000
,  // measure 17
0001
0000
0000
0010
0000
0000
0010
0000
0100
0000
1000
0001
0000
0000
0100
0000
,  // measure 18
0001
0000
0100
0010
0001
0000
0010
0000
1000
0000
0000
0001
0000
0000
0001
0000
,  // measure 19
0010
0000
0000
0000
1001
0000
0100
0000
0000
0010
0100
0000
1001
0000
0000
0000
,  // measure 20
1000
00M0
0100
0001
0000
1000
0010
0M00
0001
0000
1000
0010
0100
0001
0000
0001
,  // measure 21
1000
0000
0000
1000
0000
0000
1000
0000
0101
0000
0001
0000
1000
0000
0000
0000
,  // measure 22
0001
00M0
0100
1000
0000
0001
0010
0M00
1000
0000
0001
0010
0100
1000
0000
1000
,  // measure 23
0001
0000
0000
0001
0000
0000
0001
0000
1100
0000
0000
1000
0010
0000
0010
0000
,  // measure 24
1000
0M00
0010
0001
0000
1000
0100
0010
0001
0000
1000
0100
00M0
0001
0000
0001
,  // measure 25
0100
0000
0000
0010
0000
0000
0100
0000
0110
0000
1000
0000
0001
0000
0000
0000
,  // measure 26
1000
0000
0001
0010
1000
0010
0001
0000
,  // measure 27
1000
0010
0001
0010
1000
0000
0001
0100
,  // measure 28
0000
0010
2000
0000
0000
3000
0000
0000
,  // measure 29
0002
0203
0320
2030
,  // measure 30
3200
0320
1000
0032
,  // measure 31
2003
3200
2300
3020
,  // measure 32
0001
0230
2300
3002
,  // measure 33
0023
2030
3002
0023
,  // measure 34
2030
0000
3020
0000
0130
1000
0100
0000
,  // measure 35
0020
0032
0203
0302
,  // measure 36
2003
3200
0001
0320
,  // measure 37
0230
2300
3020
0230
,  // measure 38
1000
0320
0032
2003
,  // measure 39
3200
0000
0302
0000
1003
0000
0001
0201
,  // measure 40
0300
0000
0001
0000
1000
1200
0300
0000
,  // measure 41
0001
0000
1000
0010
1000
0000
0101
0000
,  // measure 42
0010
1000
0010
0000
1000
0000
0001
0010
,  // measure 43
0001
0000
1100
0000
0010
0001
0010
0000
,  // measure 44
0001
0000
0100
0010
0100
0000
1000
0000
,  // measure 45
0100
0010
0100
0000
0001
0000
0010
0200
,  // measure 46
0310
0000
0000
0000
1000
0000
0000
0000
0010
0000
0200
0000
0310
0000
0000
0010
,  // measure 47
0001
0000
1000
0001
0100
0010
0001
0010
,  // measure 48
0100
0001
1000
0000
0001
0000
1000
0001
,  // measure 49
0010
0100
0001
0100
0010
0001
1000
0000
,  // measure 50
0001
0000
1100
1000
0000
0010
0100
0000
,  // measure 51
0101
0001
0000
1000
0010
0000
0010
1000
,  // measure 52
0000
1000
0200
0000
0302
0000
0023
0000
,  // measure 53
1030
0000
0001
0100
0010
0000
1010
0000
,  // measure 54
1000
0100
0010
0000
0011
0000
0001
1000
,  // measure 55
0000
0000
0010
1000
0010
0000
0000
0000
0100
0000
0001
0000
0100
0000
0000
0000
,  // measure 56
0001
0000
0000
1000
0000
0000
0010
0000
0000
0000
0000
0000
0010
0000
0000
0000
1000
0000
0001
0000
0000
0000
0000
0000
,  // measure 57
1000
0000
0001
0010
0001
0000
1000
0000
0001
0000
0000
0000
0100
0000
0000
0000
,  // measure 58
0010
0100
0010
0000
1000
0000
0000
0000
0100
0000
0000
0000
0010
0100
0010
0000
,  // measure 59
0001
0000
0001
0100
0000
0100
0010
1000
,  // measure 60
0100
0001
1000
0100
0010
0100
0001
0000
,  // measure 61
1000
0010
0100
0000
0000
0101
0000
0000
,  // measure 62
1100
0000
0100
0000
1000
0000
0010
1000
,  // measure 63
0100
0010
0001
0100
0010
0000
1000
0001
,  // measure 64
1000
0000
0010
0000
0100
0001
0100
0000
,  // measure 65
0001
0000
0000
0000
0001
0000
0010
0000
0000
0100
0000
0000
1000
0000
0100
0000
,  // measure 66
1000
0000
0001
0100
0001
0000
1000
0000
,  // measure 67
0010
0000
0000
0000
0000
0000
0000
0000
0010
0000
0000
0000
0100
0000
0000
0000
0000
0000
0000
0000
0000
0000
0000
0000
0001
0000
0000
0000
0000
0000
0010
0000
0000
0001
0000
0000
0010
0000
0000
0000
0000
0000
0100
0000
0000
0000
0000
0000
,  // measure 68
1000
0001
0100
0000
0010
1010
0000
1100
,  // measure 69
0000
0101
0000
0001
0010
0000
0001
0000
,  // measure 70
1000
0010
0001
0100
0001
1000
0001
0010
,  // measure 71
1000
0100
0010
0000
0001
0100
0010
0000
,  // measure 72
1000
0100
0001
0000
0110
0000
0001
0100
,  // measure 73
0010
1010
0101
0011
,  // measure 74
2200
0000
0000
0000
,  // measure 75
0000
0000
0000
0000
,  // measure 76
0000
0000
0000
0000
,  // measure 77
3300
0000
0000
0000
;
