#TITLE:Miracle Moon (お月さまが中継局);
#SUBTITLE:;
#ARTIST:Togo Project featuring Sana;
#TITLETRANSLIT:Miracle Moon;
#SUBTITLETRANSLIT:;
#ARTISTTRANSLIT:Togo Project featuring Sana;
#GENRE:J-GARAGE POP;
#CREDIT:Graphics made by TonyAkita;
#MUSIC:Miracle Moon.ogg;
#BANNER:Miracle Moon.png;
#BACKGROUND:Miracle Moon-bg.png;
#JACKET:Miracle Moon-jacket.png;
#CDTITLE:;
#SAMPLESTART:32.663;
#SAMPLELENGTH:15.000;
#SELECTABLE:YES;
#OFFSET:1.058;
#BPMS:0.000=128.000;
#STOPS:;
#BGCHANGES:;
#FGCHANGES:;

//--------------- dance-single - forcednature ----------------
#NOTES:
     dance-single:
     forcednature:
     Beginner:
     3:
     0,0,0,0,0:
0000
0000
0000
0000
,
0000
0000
0000
0000
,
0000
0000
0000
0000
,
0000
0000
0000
0000
,
0001
0000
0000
0000
,
1000
0000
0000
0000
,
0010
0000
0100
0000
,
0001
0000
0000
0000
,
1000
0000
0100
0000
,
0010
0000
0000
0000
,
0000
0100
0000
1000
,
0000
0001
0000
0010
,
0000
0001
0000
1000
,
0000
0010
0000
0100
,
0000
0001
0000
0100
,
0000
0010
0000
1000
,
0000
0100
0000
0010
,
0000
0000
0000
0000
,
0001
1000
0000
0010
,
0000
0100
0000
0001
,
0000
1000
0000
0100
,
0000
1000
0000
0001
,
0000
0010
0000
0001
,
0000
1000
0000
0010
,
0100
0000
0000
0000
,
0002
0000
0003
0000
,
2000
0000
3000
0000
,
0002
0000
0003
0000
,
2000
0000
3000
0000
,
0100
0000
0000
0000
0100
0000
0000
0200
,
0000
0000
0000
0000
0000
0300
0000
0000
,
0010
0000
0000
0000
0010
0000
0000
0020
,
0000
0000
0000
0000
0000
0030
0000
0000
,
0001
0000
0000
0000
1000
0000
0000
0002
,
0000
0000
0000
0000
0000
0003
0000
0000
,
0100
0000
0010
0000
,
0100
0000
0000
0000
,
0001
0000
1000
0000
,
0001
0000
0000
0000
,
1000
0000
0001
0000
,
1000
0000
0000
0000
,
0010
0000
0100
0000
,
0010
0000
0000
0000
,
1000
0100
0000
0100
,
0000
0001
0000
0100
,
0000
0010
0000
1000
,
0000
0010
0000
0001
,
0000
1000
0000
0010
,
0000
0100
0000
0001
,
0000
0100
0000
0010
,
0000
0100
0000
0000
,
1001
0000
0100
0000
,
0100
0000
0010
0000
,
1001
0000
0000
0000
0100
0000
0000
0010
;

//--------------- dance-single - forcednature ----------------
#NOTES:
     dance-single:
     forcednature:
     Easy:
     5:
     0,0,0,0,0:
0000
0000
0000
0000
,
0000
0000
0000
0000
,
0000
0000
0000
0000
,
0000
0000
0000
0000
,
0010
0010
0100
0100
,
0010
0000
0000
0000
,
1000
0001
1000
0001
,
1000
0000
0000
0000
,
0001
0100
0010
1000
,
0001
0000
0000
0000
,
0010
0010
0100
0010
,
0001
1000
0001
0000
,
0100
0100
0010
0100
,
0001
1000
0001
0000
,
1000
1000
0100
0100
,
1000
0010
1000
0000
,
0001
0001
0100
0100
,
0000
0000
2002
0000
0000
0000
0000
0000
0000
3003
0000
0000
,
1001
0100
0100
0010
,
0000
1000
0000
0001
,
0010
0010
0100
0100
,
0000
0001
0000
1000
,
0001
0001
1000
1000
,
0000
0010
0000
0100
,
1000
0000
0000
0001
0000
0000
1000
0000
,
0001
0200
0000
0300
,
0010
0010
0000
1000
,
0100
0020
0000
0030
,
0100
0100
0000
0000
,
1000
0000
0001
0000
1000
0000
0001
2000
,
0000
0000
0000
0000
0000
3000
0000
0000
,
0001
0000
1000
0000
0001
0000
1000
0002
,
0000
0000
0000
0000
0000
0003
0000
0000
,
1000
0000
0001
0000
1000
0001
1000
0002
,
0000
0000
0000
0000
0000
0003
0000
0000
,
0100
0001
1000
0010
,
0000
0000
0000
0000
,
1000
0100
0010
0001
,
0000
0000
0000
0000
,
1000
0001
0100
0010
,
0100
0100
0000
0000
,
0001
1000
0100
0010
,
0100
0100
0000
0000
,
1000
0001
1000
0100
,
0000
0000
0000
0020
0000
0000
0000
0030
,
0001
1000
0001
0100
,
0000
0000
0000
0020
0000
0000
0000
0030
,
1000
0100
1000
0001
,
0200
0300
0200
0300
,
0001
1000
0001
0100
,
0000
0000
0000
0020
0000
0000
0030
0000
,
1001
0000
0000
0000
0000
0000
0000
0000
0001
0000
0000
1000
0000
0000
0001
0000
,
0000
0000
0100
0110
,
0001
0000
0000
0000
0000
0000
0000
0000
1000
0000
0000
0001
0000
0000
1000
0000
;

//--------------- dance-single - forcednature ----------------
#NOTES:
     dance-single:
     forcednature:
     Medium:
     7:
     0,0,0,0,0:
0000
0000
0000
0000
,
0000
0000
0000
0000
,
0000
0000
0000
0000
,
0000
0000
0000
0000
,
0000
0001
0000
0000
1000
0000
0010
0000
1000
0000
0000
0001
0000
0000
0100
0000
,
0000
0000
0100
0000
,
0000
0001
0000
0000
0010
0000
0100
0000
1000
0000
0000
0100
0000
0000
0010
0000
,
0000
0000
0010
0000
,
0000
0001
0000
0000
1000
0000
0001
0000
0100
0000
0000
0001
0000
0000
1000
0000
,
0000
0000
0100
0000
,
0010
0000
0000
0000
0100
0000
0000
1000
0000
0000
0001
0000
0000
0000
0000
0000
,
0100
0001
0010
0100
,
2000
0010
0001
3100
,
1000
0001
0100
0010
,
0100
0000
0000
0000
0001
0000
0000
1000
0000
0000
0010
0000
0100
0000
0000
0000
,
0001
0000
0000
0000
0010
0000
0000
0100
0000
0000
1000
0000
0001
0000
0000
0000
,
0010
0001
1000
0010
,
0000
0000
0000
0000
0200
0000
0000
0000
0000
0000
0000
0000
0000
0000
0000
0000
0000
0000
0000
0000
0000
0300
0000
0000
,
0001
0000
0000
0000
1000
0000
0000
0010
0000
0000
1000
0000
0001
0000
0000
0000
,
0010
0000
0000
0000
0100
0000
0000
1000
0000
0000
0001
0000
0100
0000
0000
0000
,
0001
0000
0000
0000
1000
0000
0000
0010
0000
0000
1000
0000
0001
0000
0000
0000
,
0010
0000
0000
0000
0001
0000
0000
0100
0000
0000
0010
0000
1000
0000
0000
0000
,
0100
0000
0000
0000
0010
0000
0000
0100
0000
0000
1000
0000
0001
0000
0000
0000
,
1000
0000
0000
0000
0010
0000
0000
1000
0000
0000
0001
0000
0000
0000
0000
0000
,
0110
0000
0000
1001
0000
0000
0110
0000
,
2000
0200
0000
3300
,
0010
0001
0100
0010
,
2000
0002
0000
3003
,
0100
0010
1000
0001
,
1000
0000
0100
0000
0001
0000
0100
0020
,
0000
0000
0000
0030
,
0001
0000
0100
0000
1000
0000
0100
0020
,
0000
0000
0000
0030
,
1000
0000
0100
0000
0010
0001
0010
0002
,
0000
0000
0000
0000
0000
0000
0000
0003
,
1001
0000
0000
0000
0001
0000
0000
0000
1000
0000
0000
0100
0000
0000
0010
0000
,
0000
0000
0000
0000
,
0100
0000
0000
0000
1000
0000
0000
0000
0001
0000
0000
0100
0000
0000
0010
0000
,
0000
0000
0000
0000
,
1000
0000
0000
0000
0001
0000
0000
0000
0010
0000
0000
0001
0000
0000
1000
0000
,
0010
0100
0001
1000
,
0100
0000
0000
0000
0010
0000
0000
0000
0100
0000
0000
1000
0000
0000
0001
0000
,
0010
0001
1000
0010
,
0100
0000
0000
0000
0001
0000
0000
0000
1000
0000
0000
0001
0000
0000
1000
0000
,
0100
0000
0010
0002
0000
0000
0000
0003
,
0100
0000
0000
0000
0001
0000
0000
0000
1000
0000
0000
0100
0000
0000
0010
0000
,
0001
0000
1000
0020
0000
0000
0000
0030
,
0100
0000
0000
0000
0001
0000
0000
0000
1000
0000
0000
0100
0000
0000
1000
0000
,
0010
0010
0100
0100
,
0001
0000
0000
0000
1000
0000
0000
0000
0100
0000
0000
0010
0000
0000
0001
0000
,
1000
0000
0000
0000
0010
0000
0200
0000
0000
0000
0000
0000
0000
0300
0000
0000
,
0110
0000
0000
0000
0000
0000
0000
0000
0001
0000
0000
1000
0000
0000
0001
0000
,
0000
0100
0110
0001
,
1000
0000
0000
0000
0100
0000
0000
0000
0010
0000
0000
0001
0000
0000
1000
0000
;

//--------------- dance-single - forcednature ----------------
#NOTES:
     dance-single:
     forcednature:
     Hard:
     11:
     0,0,0,0,0:
0000
0000
0000
0000
,
0000
0000
0000
0000
,
0000
0000
0000
0000
,
0000
0000
0000
0000
,
0000
0001
0000
0000
1000
0000
0010
0000
0001
0000
0000
0010
0000
0000
0100
0000
,
0001
1000
0100
0010
,
0000
0001
0000
0000
1000
0000
0010
0000
0100
0000
0000
0001
0000
0000
1000
0000
,
0100
0010
0100
1000
,
0000
0001
0000
0000
0100
0000
1000
0000
0100
0000
0000
0010
0000
0000
1000
0000
,
0100
0010
0001
0000
,
1000
0000
0000
0000
0010
0000
0000
1000
0000
0000
0001
0000
0100
0000
0000
0000
,
0001
0000
0010
0000
0100
0000
0000
1000
0000
0000
0010
0000
0100
0000
0001
0000
,
1000
0000
0000
0100
0000
0000
0010
0000
0000
0000
0001
0000
1000
0000
0000
0000
,
0010
0000
0000
0100
0000
0000
0001
0000
0000
0000
1000
0000
0100
0000
0000
0000
,
1000
0000
0010
0000
0100
0000
0000
0001
0000
0000
0010
0000
1000
0000
0000
0000
,
0010
0000
0100
0000
1000
0000
0000
0010
0000
0000
0100
0000
0001
0000
0100
0000
,
1000
0000
0000
0100
0000
0000
0010
0000
0000
0000
1000
0000
0001
0000
0000
0000
,
0000
0000
2000
0000
3002
0000
0203
0000
0320
0000
2030
0000
,
3001
0000
0000
0000
0010
0000
0000
0100
0000
0000
1000
0000
0010
0000
0000
0000
,
0100
0000
0001
0000
1000
0000
0000
0010
0000
0000
1000
0000
0001
0000
0000
0000
,
1000
0000
0000
0000
0010
0100
0000
0001
0000
1000
0000
0000
0100
0000
0010
0000
,
0001
0000
0000
0000
0100
0001
0000
1000
0000
0100
0010
0000
0000
0000
0000
0000
,
0001
0000
0010
0000
0100
0000
0000
1000
0000
0000
0001
0000
0100
0000
0000
0000
,
0001
0000
1000
0000
0100
0000
0000
0010
0000
0000
0001
0000
1000
0000
0010
0000
,
1000
0001
0000
0000
0000
0000
0100
0010
0000
0000
0000
0000
1000
0001
0000
0000
,
0101
2002
0000
3003
,
1000
0100
0010
0001
0100
1000
0100
0001
,
0010
2002
0000
3003
,
1000
0000
0010
0000
0001
0000
0010
0000
0100
0000
0001
0000
0000
1000
0000
0000
,
1100
0000
0110
0000
0011
0000
0001
2000
,
0010
0001
0100
3001
,
1100
0000
0110
0000
0011
0000
1000
0002
,
0010
1000
0100
1003
,
1001
0000
0102
0000
0010
1000
0100
0020
,
0000
0000
0000
0033
,
0000
0001
0000
0000
1000
0000
0010
0000
0100
0000
0000
0001
0000
0000
0010
0000
,
0100
1000
0001
0010
,
0000
0001
0000
0000
1000
0000
0010
0000
0100
0000
0000
1000
0000
0000
0100
0000
,
0010
0000
0000
0000
1000
0000
0000
0000
0001
0000
0000
0001
0000
0000
1000
0000
,
0000
0100
0000
0000
0010
0000
0001
0000
0100
0000
0000
1000
0000
0000
0100
0000
,
0010
0000
0000
0000
1000
0000
0000
0000
0001
0000
0000
0100
0000
0000
0001
0000
,
0000
1000
0000
0000
0100
0000
0010
0000
0001
0000
0000
1000
0000
0000
0010
0000
,
1000
0000
0000
0000
0001
0000
0000
0000
0010
0000
0000
0100
0000
0000
1000
0000
,
0000
1001
0000
0000
1000
0000
0010
0000
0100
0000
0000
0001
0000
0000
0010
0000
,
0100
0000
1000
1002
0000
0000
0010
0003
,
0000
0110
0000
0000
1000
0000
0100
0000
0001
0000
0000
0100
0000
0000
0010
0000
,
0001
0000
1000
1200
0000
0000
0001
0300
,
0000
1001
0000
0000
1000
0000
0100
0000
1000
0000
0000
0010
0000
0000
0100
0000
,
0002
1003
1001
0000
0002
1003
1001
0000
,
0000
0110
0000
0000
0001
0000
1000
0000
0100
0000
0000
0001
0000
0000
0100
0000
,
0010
0000
0001
2001
0000
0000
0010
3000
,
0000
0110
0000
0000
1000
0000
0001
0000
1100
0000
0000
0101
0000
0000
1001
0000
,
0000
0000
0010
0000
0100
0010
0000
0000
1001
0000
0000
0000
1100
0000
0000
0000
,
0000
0011
0000
0000
0001
0000
0100
0000
0110
0000
0000
1010
0000
0000
0101
0000
;

//--------------- dance-single - forcednature ----------------
#NOTES:
     dance-single:
     forcednature:
     Challenge:
     13:
     0,0,0,0,0:
0000
0000
0000
0000
,
0000
0000
0000
0000
,
0000
0000
0000
0000
,
0000
0000
0000
0000
,
0000
0001
0000
0000
0100
0000
0010
0000
1000
0000
0000
0001
0000
0000
1000
0000
,
0100
0000
0000
0000
0010
0000
0000
0000
0001
0100
0000
0001
0000
0100
0001
0000
,
1000
0010
0000
0000
0100
0000
0001
0000
0100
0000
0000
0010
1000
0000
0100
0000
,
0010
0000
0001
0000
0010
0000
0001
0000
1000
0100
0000
1000
0000
0100
1000
0000
,
0001
0100
0000
0000
0010
0000
1000
0000
0100
0000
0000
0010
0001
0000
1000
0000
,
0010
0000
0100
0000
0010
0000
0100
0000
0001
1000
0000
0001
0000
1000
0001
0000
,
1001
0000
0000
0000
0101
0000
0000
0100
0000
0000
0010
0000
1000
0001
0000
0000
,
1000
0000
0100
0000
0010
0100
0000
1000
0000
0000
0001
0000
0100
0001
0000
1000
,
0010
0000
0000
1000
0000
0000
0100
0000
0000
0000
0010
0000
0001
1000
0000
0000
,
0100
0000
0000
1000
0000
0000
0010
0000
0000
0000
0100
0000
0001
0010
0000
0000
,
0001
0000
1000
0000
0010
0100
0000
0001
0000
0000
1000
0000
0100
0010
0000
0000
,
0001
0000
1000
0000
0001
1000
0000
0100
0000
0000
1000
0000
0001
0100
0000
0010
,
1000
0000
0000
0001
0000
0000
0100
0000
0000
0000
1000
0000
0100
0001
0000
0000
,
0000
0000
0110
0000
1010
0000
0101
0000
1001
0000
0011
0000
,
1100
0000
0000
0000
0001
0000
0000
0100
0000
0000
0001
0000
0010
0001
0000
0000
,
1000
0000
0010
0000
0100
0001
0000
1000
0000
0000
0100
0000
1000
0000
0010
0100
,
0000
0000
0000
0000
0001
0100
0000
0010
0000
1000
0000
0000
0100
0000
0010
0000
,
0001
0000
0000
0000
1000
0010
0000
0001
0000
0010
0100
0000
0001
1000
0000
0000
,
0100
0000
0010
0000
0100
1000
0000
0001
0000
0000
0010
0000
0001
1000
0000
0000
,
0010
0000
0100
0000
0001
1000
0000
0100
0000
0000
0010
0000
0100
1000
0000
0001
,
0010
0001
0000
0000
0000
0000
1000
0001
0000
1000
0000
0000
0010
0100
0000
0000
,
1001
0101
0022
0033
,
1000
0000
0100
0000
1000
0000
0010
0000
0000
0000
0001
0000
0000
0010
0000
0000
,
0101
1001
0220
0330
,
0001
0000
0010
0000
1000
0000
0010
0000
0100
0000
1000
0000
0000
0001
0000
0000
,
0011
0000
0110
0000
1100
0000
1000
1001
,
0001
0010
1000
0010
0000
0100
1000
0000
,
1010
0000
0110
0000
0101
0000
0001
1001
,
1000
0000
0001
0100
0000
0001
0010
0100
,
1000
0000
1010
0000
0001
0100
0010
2000
,
0000
0000
0000
0200
0000
0000
0000
3300
,
1000
0001
0000
0000
0100
0000
0010
0000
0101
0000
0000
0110
0000
0000
1010
0000
,
1000
0000
0000
0000
0001
0000
0000
0000
1000
0100
0000
0001
0000
0100
1000
0000
,
0010
0100
0000
0000
0001
0000
1000
0000
1100
0000
0000
0110
0000
0000
0011
0000
,
0001
0000
0000
0000
1000
0000
0000
0000
0001
0100
0001
0100
0000
0010
1000
0000
,
0100
0010
0000
0000
0001
0000
0100
0000
1010
0000
0000
0101
0000
0000
1001
0000
,
1000
0010
1000
0000
0001
0100
0001
0000
0010
0100
0000
1000
0000
0010
0001
0000
,
0010
0100
0000
0000
0001
0000
1000
0000
0110
0000
0000
1100
0000
0000
0011
0000
,
1000
0001
1000
0000
0001
0100
0001
0000
0010
1000
0000
0010
0000
0100
1000
0000
,
0001
0100
0000
0000
0110
0000
1000
0000
0001
0000
0000
1000
0010
0000
0100
0000
,
0010
1000
0100
0000
0010
0001
0100
0000
0010
1000
0000
0010
0000
0001
0010
0000
,
1000
0001
0000
0000
0011
0000
0001
0000
1000
0000
0000
0010
0001
0000
0010
0000
,
1000
0100
0010
0000
0001
0010
0100
0000
1000
0100
0000
0001
0000
0100
0010
0000
,
0001
0100
0000
0000
0110
0000
0001
0000
1000
0000
0000
0001
0010
0000
0001
0000
,
0100
0010
1000
0000
0100
0010
0001
0000
1000
0001
0000
0100
0000
1000
0100
0000
,
0010
1000
0000
0000
0011
0000
1000
0000
0001
0000
0000
1000
0100
0000
0010
0000
,
0001
0100
1000
0000
0100
0001
0020
0000
0000
0000
0000
0000
0200
0000
0330
0000
,
1000
0001
0000
0000
0101
0000
1001
0000
1010
0000
0000
1001
0000
0000
0101
0000
,
0000
0000
0110
0000
1000
0001
1000
0000
0001
0000
0000
0000
0110
0000
0000
0000
,
0000
0011
0000
0000
0110
0000
1100
0000
0110
0000
0000
1001
0000
0000
0110
0000
;

//--------------- dance-double - forcednature ----------------
#NOTES:
     dance-double:
     forcednature:
     Easy:
     5:
     0,0,0,0,0:
00000000
00000000
00000000
00000000
,
00000000
00000000
00000000
00000000
,
00000000
00000000
00000000
00000000
,
00000000
00000000
00000000
00000000
,
00001000
00001000
00010000
00010000
,
00001000
00000000
00000000
00000000
,
01000000
00010000
01000000
00010000
,
01000000
00000000
00000000
00000000
,
00000100
00001000
00000100
00001000
,
00000100
00000000
00000000
00000000
,
00010000
00010000
00001000
00010000
,
00000100
00001000
00000100
00000000
,
00010000
00010000
00001000
00100000
,
00010000
10000000
00010000
00000000
,
10000000
10000000
01000000
01000000
,
00100000
00001000
00010000
00000000
,
00000010
00000010
00000100
00000100
,
00000000
00000000
00002002
00000000
00000000
00000000
00000000
00000000
00000000
00003003
00000000
00000000
,
00001001
00000100
00000100
00000010
,
00000000
00010000
00000000
00001000
,
00100000
00100000
01000000
01000000
,
00000000
10000000
00000000
00010000
,
00100000
00100000
00001000
00001000
,
00000000
00010000
00000000
00000100
,
00001000
00000000
00000000
00000001
00000000
00000000
00001000
00000000
,
00000100
00020000
00000000
00030000
,
00001000
00001000
00000000
01000000
,
00010000
00200000
00000000
00300000
,
01000000
01000000
00000000
00000000
,
00010000
00000000
00001000
00000000
00010000
00000000
00001000
00020000
,
00000000
00000000
00000000
00000000
00000000
00030000
00000000
00000000
,
00001000
00000000
00010000
00000000
00001000
00000000
00010000
00002000
,
00000000
00000000
00000000
00000000
00000000
00003000
00000000
00000000
,
00010000
00000000
00001000
00000000
00010000
00001000
00010000
00002000
,
00000000
00000000
00000000
00000000
00000000
00003000
00000000
00000000
,
00010000
00000100
00001000
00000010
,
00000000
00000000
00000000
00000000
,
00010000
00001000
01000000
00100000
,
00000000
00000000
00000000
00000000
,
10000000
00010000
00100000
00001000
,
00010000
00010000
00000000
00000000
,
00000100
00001000
00000001
00000010
,
00000100
00000100
00000000
00000000
,
00010000
00001000
01000000
00010000
,
00000000
00000000
00000000
00200000
00000000
00000000
00000000
00300000
,
01000000
10000000
00010000
00100000
,
00000000
00000000
00000000
00002000
00000000
00000000
00000000
00003000
,
00010000
00000100
00000010
00000001
,
00000200
00000300
00000200
00000300
,
00000010
00010000
00001000
01000000
,
00000000
00000000
00000000
00002000
00000000
00000000
00003000
00000000
,
00011000
00000000
00000000
00000000
00000000
00000000
00000000
00000000
00010000
00000000
00000000
00001000
00000000
00000000
00010000
00000000
,
00000000
00000000
00000100
00000110
,
00010000
00000000
00000000
00000000
00000000
00000000
00000000
00000000
00001000
00000000
00000000
00010000
00000000
00000000
00001000
00000000
;

//--------------- dance-double - forcednature ----------------
#NOTES:
     dance-double:
     forcednature:
     Medium:
     7:
     0,0,0,0,0:
00000000
00000000
00000000
00000000
,
00000000
00000000
00000000
00000000
,
00000000
00000000
00000000
00000000
,
00000000
00000000
00000000
00000000
,
00000000
00001000
00000000
00000000
00010000
00000000
00000100
00000000
00001000
00000000
00000000
00000001
00000000
00000000
00000100
00000000
,
00000000
00000000
00000010
00000000
,
00000000
00001000
00000000
00000000
00000100
00000000
00010000
00000000
00001000
00000000
00000000
00100000
00000000
00000000
01000000
00000000
,
00000000
00000000
10000000
00000000
,
00000000
00010000
00000000
00000000
01000000
00000000
00001000
00000000
00010000
00000000
00000000
00000100
00000000
00000000
00001000
00000000
,
00000000
00000000
00000010
00000000
,
00000100
00000000
00000000
00000000
00000001
00000000
00000000
00000100
00000000
00000000
00000010
00000000
00000000
00000000
00000000
00000000
,
00010000
00001000
00100000
00010000
,
20000000
00100000
01000000
30010000
,
00100000
00001000
00010000
00000100
,
00001000
00000000
00000000
00000000
00000010
00000000
00000000
00001000
00000000
00000000
00000100
00000000
00000010
00000000
00000000
00000000
,
00000001
00000000
00000000
00000000
00000100
00000000
00000000
00000010
00000000
00000000
00001000
00000000
00000100
00000000
00000000
00000000
,
00010000
00001000
00100000
01000000
,
00000000
00000000
00000000
00000000
20000000
00000000
00000000
00000000
00000000
00000000
00000000
00000000
00000000
00000000
00000000
00000000
00000000
00000000
00000000
00000000
00000000
30000000
00000000
00000000
,
00010000
00000000
00000000
00000000
01000000
00000000
00000000
00001000
00000000
00000000
00010000
00000000
00000010
00000000
00000000
00000000
,
00001000
00000000
00000000
00000000
00000100
00000000
00000000
00000010
00000000
00000000
00000001
00000000
00000100
00000000
00000000
00000000
,
00000010
00000000
00000000
00000000
00001000
00000000
00000000
00000100
00000000
00000000
00010000
00000000
00001000
00000000
00000000
00000000
,
00100000
00000000
00000000
00000000
00010000
00000000
00000000
10000000
00000000
00000000
00100000
00000000
10000000
00000000
00000000
00000000
,
00010000
00000000
00000000
00000000
01000000
00000000
00000000
00100000
00000000
00000000
01000000
00000000
00010000
00000000
00000000
00000000
,
00100000
00000000
00000000
00000000
00001000
00000000
00000000
00010000
00000000
00000000
00000100
00000000
00000000
00000000
00000000
00000000
,
00011000
00000000
00000000
00101000
00000000
00000000
01010000
00000000
,
00002000
00020000
00000000
00033000
,
00000100
00001000
00000010
00000100
,
00000002
00002000
00000000
00003003
,
00001000
00000100
00010000
00001000
,
01000000
00000000
00100000
00000000
10000000
00000000
00010000
02000000
,
00000000
00000000
00000000
03000000
,
00010000
00000000
00100000
00000000
00001000
00000000
00010000
00000200
,
00000000
00000000
00000000
00000300
,
00001000
00000000
00000001
00000000
00000100
00000010
00000100
00000020
,
00000000
00000000
00000000
00000030
,
00001001
00000000
00000000
00000000
00001000
00000000
00000000
00000000
00000100
00000000
00000000
00010000
00000000
00000000
00001000
00000000
,
00000000
00000000
00000000
00000000
,
01000000
00000000
00000000
00000000
00100000
00000000
00000000
00000000
10000000
00000000
00000000
00010000
00000000
00000000
00100000
00000000
,
00000000
00000000
00000000
00000000
,
01000000
00000000
00000000
00000000
00100000
00000000
00000000
00000000
00001000
00000000
00000000
00010000
00000000
00000000
00000010
00000000
,
00000100
00000001
00000100
00000010
,
00001000
00000000
00000000
00000000
00000100
00000000
00000000
00000000
00010000
00000000
00000000
00001000
00000000
00000000
00100000
00000000
,
00010000
10000000
00100000
00100000
,
01000000
00000000
00000000
00000000
00010000
00000000
00000000
00000000
00100000
00000000
00000000
00001000
00000000
00000000
00010000
00000000
,
00000100
00000000
00001000
00000002
00000000
00000000
00000000
00000003
,
00001000
00000000
00000000
00000000
00000100
00000000
00000000
00000000
00010000
00000000
00000000
00001000
00000000
00000000
00100000
00000000
,
00010000
00000000
10000000
02000000
00000000
00000000
00000000
03000000
,
00100000
00000000
00000000
00000000
00010000
00000000
00000000
00000000
01000000
00000000
00000000
00001000
00000000
00000000
00010000
00000000
,
00000010
00000100
00000010
00000100
,
00000001
00000000
00000000
00000000
00001000
00000000
00000000
00000000
00000010
00000000
00000000
00010000
00000000
00000000
00001000
00000000
,
01000000
00000000
00000000
00000000
00010000
00000000
20000000
00000000
00000000
00000000
00000000
00000000
00000000
30000000
00000000
00000000
,
10010000
00000000
00000000
00000000
00000000
00000000
00000000
00000000
00010000
00000000
00000000
00100000
00000000
00000000
00001000
00000000
,
00000000
00010000
00011000
00000010
,
00001000
00000000
00000000
00000000
00000100
00000000
00000000
00000000
00010000
00000000
00000000
00001000
00000000
00000000
00100000
00000000
;

//--------------- dance-double - forcednature ----------------
#NOTES:
     dance-double:
     forcednature:
     Hard:
     11:
     0,0,0,0,0:
00000000
00000000
00000000
00000000
,
00000000
00000000
00000000
00000000
,
00000000
00000000
00000000
00000000
,
00000000
00000000
00000000
00000000
,
00000000
00001000
00000000
00000000
00010000
00000000
00100000
00000000
10000000
00000000
00000000
01000000
00000000
00000000
10000000
00000000
,
00100000
01000000
00010000
00100000
,
00000000
00001000
00000000
00000000
00010000
00000000
00000100
00000000
00000010
00000000
00000000
00001000
00000000
00000000
00010000
00000000
,
00000010
00000100
00000001
00001000
,
00000000
00000100
00000000
00000000
00010000
00000000
00001000
00000000
00100000
00000000
00000000
01000000
00000000
00000000
00010000
00000000
,
01000000
10000000
00100000
00000000
,
01000000
00000000
00000000
00000000
00010000
00000000
00000000
01000000
00000000
00000000
00100000
00000000
00010000
00000000
00000000
00000000
,
00001000
00000000
00000010
00000000
00001000
00000000
00000000
00010000
00000000
00000000
00001000
00000000
00000100
00000000
00000001
00000000
,
00000010
00000000
00000000
00000100
00000000
00000000
00001000
00000000
00000000
00000000
00000010
00000000
00010000
00000000
00000000
00000000
,
00001000
00000000
00000000
00100000
00000000
00000000
00010000
00000000
00000000
00000000
10000000
00000000
00100000
00000000
00000000
00000000
,
01000000
00000000
10000000
00000000
01000000
00000000
00000000
00010000
00000000
00000000
00100000
00000000
01000000
00000000
00000000
00000000
,
00100000
00000000
00001000
00000000
00010000
00000000
00000000
00000010
00000000
00000000
00000100
00000000
00001000
00000000
00010000
00000000
,
00001000
00000000
00000000
00000010
00000000
00000000
00001000
00000000
00000000
00000000
00010000
00000000
01000000
00000000
00000000
00000000
,
00000000
00000000
00020000
00000000
00032000
00000000
00003200
00000000
00000320
00000000
00002030
00000000
,
00003100
00000000
00000000
00000000
00000010
00000000
00000000
00000001
00000000
00000000
00000010
00000000
00000100
00000000
00000000
00000000
,
00001000
00000000
00000100
00000000
00010000
00000000
00000000
00001000
00000000
00000000
01000000
00000000
00010000
00000000
00000000
00000000
,
10000000
00000000
00000000
00000000
00100000
10000000
00000000
00010000
00000000
01000000
00000000
00000000
00010000
00000000
00100000
00000000
,
00001000
00000000
00000000
00000000
00010000
00000100
00000000
00001000
00000000
00000010
00000100
00000000
00000000
00000000
00000000
00000000
,
00000001
00000000
00000100
00000000
00000001
00000000
00000000
00000010
00000000
00000000
00000100
00000000
00010000
00000000
00000000
00000000
,
00001000
00000000
00100000
00000000
00010000
00000000
00000000
10000000
00000000
00000000
00100000
00000000
00010000
00000000
00001000
00000000
,
00010000
01000000
00000000
00000000
00000000
00000000
00010000
00001000
00000000
00000000
00000000
00000000
00010000
00100000
00000000
00000000
,
00011000
00002200
00000000
00003300
,
00000001
00000100
00001000
00000100
00000010
00010000
00001000
00100000
,
01000000
20020000
00000000
30030000
,
00010000
00000000
00100000
00000000
00001000
00000000
00010000
00000000
00000010
00000000
00001000
00000000
00000000
00000100
00000000
00000000
,
00000110
00000000
00001100
00000000
00011000
00000000
01000000
00020000
,
00100000
10000000
01000000
00130000
,
00011000
00000000
00001100
00000000
00001001
00000000
00001000
00000020
,
00001000
00000100
00000001
00000130
,
00000101
00000000
00002001
00000000
00000100
00000001
00000010
00000200
,
00000000
00000000
00000000
00003300
,
00000000
00010000
00000000
00000000
00001000
00000000
00100000
00000000
01000000
00000000
00000000
10000000
00000000
00000000
00100000
00000000
,
00010000
00001000
00010000
00001000
,
00000000
00000010
00000000
00000000
00000001
00000000
00000100
00000000
00001000
00000000
00000000
00000100
00000000
00000000
00000010
00000000
,
00010000
00000000
00000000
00000000
00001000
00000000
00000000
00000000
00100000
00000000
00000000
00100000
00000000
00000000
01000000
00000000
,
00000000
10000000
00000000
00000000
00100000
00000000
00010000
00000000
00001000
00000000
00000000
00000100
00000000
00000000
00000001
00000000
,
00000010
00000000
00000000
00000000
00000010
00000000
00000000
00000000
00000100
00000000
00000000
00010000
00000000
00000000
00000100
00000000
,
00000000
00010000
00000000
00000000
00001000
00000000
01000000
00000000
00010000
00000000
00000000
10000000
00000000
00000000
00100000
00000000
,
00010000
00000000
00000000
00000000
00001000
00000000
00000000
00000000
00010000
00000000
00000000
01000000
00000000
00000000
10000000
00000000
,
00000000
10010000
00000000
00000000
10000000
00000000
00010000
00000000
01000000
00000000
00000000
00100000
00000000
00000000
00010000
00000000
,
00001000
00000000
00000010
00000210
00000000
00000000
00001000
00000300
,
00000000
00001001
00000000
00000000
00000001
00000000
00001000
00000000
00000100
00000000
00000000
00000010
00000000
00000000
00001000
00000000
,
00010000
00000000
00100000
02100000
00000000
00000000
00010000
03000000
,
00000000
10010000
00000000
00000000
00010000
00000000
00100000
00000000
00001000
00000000
00000000
00010000
00000000
00000000
00000100
00000000
,
00002000
00003001
00001001
00000000
00002000
00003001
00001001
00000000
,
00000000
00001001
00000000
00000000
00000001
00000000
00000100
00000000
00000010
00000000
00000000
00010000
00000000
00000000
00001000
00000000
,
00100000
00000000
01000000
10020000
00000000
00000000
00100000
00030000
,
00000000
00011000
00000000
00000000
00010000
00000000
00000100
00000000
00001100
00000000
00000000
00001001
00000000
00000000
00000101
00000000
,
00000000
00000000
00000010
00000000
00000100
00000010
00000000
00000000
00001001
00000000
00000000
00000000
00001100
00000000
00000000
00000000
,
00000000
00011000
00000000
00000000
00100000
00000000
00010000
00000000
01010000
00000000
00000000
10100000
00000000
00000000
10010000
00000000
;

//--------------- dance-double - forcednature ----------------
#NOTES:
     dance-double:
     forcednature:
     Challenge:
     13:
     0,0,0,0,0:
00000000
00000000
00000000
00000000
,
00000000
00000000
00000000
00000000
,
00000000
00000000
00000000
00000000
,
00000000
00000000
00000000
00000000
,
00000000
00010000
00000000
00000000
00001000
00000000
00000100
00000000
00000010
00000000
00000000
00001000
00000000
00000000
00000100
00000000
,
00000010
00000000
00000000
00000000
00000001
00000000
00000000
00000000
00001000
00000100
00000000
00001000
00000000
00000100
00001000
00000000
,
00000010
00010000
00000000
00000000
00001000
00000000
00100000
00000000
01000000
00000000
00000000
10000000
00100000
00000000
00010000
00000000
,
00001000
00000000
00000100
00000000
00001000
00000000
00010000
00000000
01000000
10000000
00000000
00100000
00000000
01000000
00010000
00000000
,
00100000
01000000
00000000
00000000
10000000
00000000
00010000
00000000
00100000
00000000
00000000
00001000
00010000
00000000
00000010
00000000
,
00000100
00000000
00001000
00000000
00000100
00000000
00000001
00000000
00000010
00000100
00000000
00000010
00000000
00000100
00000010
00000000
,
00001001
00000000
00000000
00000000
00001100
00000000
00000000
00010000
00000000
00000000
00001000
00000000
00100000
00010000
00000000
00000000
,
10000000
00000000
00010000
00000000
00100000
01000000
00000000
10000000
00000000
00000000
00010000
00000000
01000000
00001000
00000000
00010000
,
00001000
00000000
00000000
00000010
00000000
00000000
00000100
00000000
00000000
00000000
00001000
00000000
00000001
00000100
00000000
00000000
,
00000010
00000000
00000000
00010000
00000000
00000000
00001000
00000000
00000000
00000000
00100000
00000000
01000000
00100000
00000000
00000000
,
00010000
00000000
10000000
00000000
00100000
00010000
00000000
00001000
00000000
00000000
00010000
00000000
00000100
00001000
00000000
00000000
,
00000010
00000000
00000100
00000000
00000001
00001000
00000000
00000100
00000000
00000000
00000001
00000000
00000100
00000010
00000000
00000100
,
00010000
00000000
00000000
00001000
00000000
00000000
01000000
00000000
00000000
00000000
00100000
00000000
10000000
01000000
00000000
00000000
,
00000000
00000000
11000000
00000000
01010000
00000000
00011000
00000000
00001100
00000000
00000101
00000000
,
00001001
00000000
00000000
00000000
00001000
00000000
00000000
00000100
00000000
00000000
00010000
00000000
00001000
00100000
00000000
00000000
,
01000000
00000000
10000000
00000000
00100000
00010000
00000000
00001000
00000000
00000000
00000100
00000000
00000010
00000000
00001000
00000100
,
00000000
00000000
00000000
00000000
00000010
00000001
00000000
00000100
00000000
00000010
00000000
00000000
00001000
00000000
00000100
00000000
,
00010000
00000000
00000000
00000000
01000000
10000000
00000000
00010000
00000000
00100000
00001000
00000000
00010000
00000100
00000000
00000000
,
00001000
00000000
00000001
00000000
00000100
00001000
00000000
00010000
00000000
00000000
01000000
00000000
10000000
00010000
00000000
00000000
,
00100000
00000000
00001000
00000000
00010000
00000010
00000000
00001000
00000000
00000000
00000100
00000000
00000010
00000001
00000000
00001000
,
00000100
00001000
00000000
00000000
00000000
00000000
00010000
00100000
00000000
10000000
00000000
00000000
00100000
01000000
00000000
00000000
,
10010000
01010000
00022000
00033000
,
00001000
00000000
00000100
00000000
00000010
00000000
00001000
00000000
00000000
00000000
00000100
00000000
00000000
00010000
00000000
00000000
,
01100000
10010000
02002000
03003000
,
00001000
00000000
00010000
00000000
00000100
00000000
00000010
00000000
00000001
00000000
00000100
00000000
00000000
00001000
00000000
00000000
,
00011000
00000000
01100000
00000000
11000000
00000000
10000000
10010000
,
00010000
00100000
00001000
00000010
00000000
00000001
00001000
00000000
,
00000101
00000000
00000110
00000000
00001010
00000000
00010000
00011000
,
00001000
00000000
00010000
01000000
00000000
10000000
00010000
00100000
,
00001000
00000000
00000110
00000000
00000001
00000100
00001000
00020000
,
00000000
00000000
00000000
02000000
00000000
00000000
00000000
03030000
,
00010000
00001000
00000000
00000000
01000000
00000000
00100000
00000000
11000000
00000000
00000000
00110000
00000000
00000000
00101000
00000000
,
00001000
00000000
00000000
00000000
00010000
00000000
00000000
00000000
00000010
00001000
00000000
00000001
00000000
00000010
00001000
00000000
,
00010000
00000100
00000000
00000000
00010000
00000000
00001000
00000000
00110000
00000000
00000000
01100000
00000000
00000000
10010000
00000000
,
00010000
00000000
00000000
00000000
00100000
00000000
00000000
00000000
00001000
00010000
00001000
00010000
00000000
00000100
00000010
00000000
,
00000001
00000100
00000000
00000000
00000010
00000000
00001000
00000000
00001100
00000000
00000000
00010100
00000000
00000000
00101000
00000000
,
10000000
01000000
10000000
00000000
00010000
00100000
00010000
00000000
01000000
00001000
00000000
00010000
00000000
00000100
00001000
00000000
,
00000001
00000100
00000000
00000000
00001000
00000000
00010000
00000000
01100000
00000000
00000000
10010000
00000000
00000000
00101000
00000000
,
00001000
00010000
00001000
00000000
00000010
00000100
00000010
00000000
00000001
00000100
00000000
00001000
00000000
00010000
01000000
00000000
,
10000000
00010000
00000000
00000000
01100000
00000000
10000000
00000000
00010000
00000000
00000000
00100000
00001000
00000000
00010000
00000000
,
00000100
00001000
00000010
00000000
00000100
00000001
00000010
00000000
00000100
00010000
00000000
00001000
00000000
01000000
00100000
00000000
,
10000000
00010000
00000000
00000000
01100000
00000000
00010000
00000000
00100000
00000000
00000000
00001000
00010000
00000000
00000100
00000000
,
00001000
00000001
00000100
00000000
00001000
00010000
01000000
00000000
10000000
00010000
00000000
01000000
00000000
00100000
00010000
00000000
,
00001000
00000010
00000000
00000000
00000110
00000000
00000001
00000000
00000100
00000000
00000000
00001000
00010000
00000000
01000000
00000000
,
10000000
00010000
01000000
00000000
00100000
00010000
00001000
00000000
00000010
00000100
00000000
00001000
00000000
00000001
00000100
00000000
,
00001000
00010000
00000000
00000000
00101000
00000000
00001000
00000000
00010000
00000000
00000000
01000000
10000000
00000000
00100000
00000000
,
00010000
00001000
00000100
00000000
00000001
00000010
00002000
00000000
00000000
00000000
00000000
00000000
00020000
00000000
00033000
00000000
,
00001000
00100000
00000000
00000000
00110000
00000000
00011000
00000000
00001100
00000000
00000000
00001001
00000000
00000000
00010010
00000000
,
00000000
00000000
01001000
00000000
01000000
00010000
01000000
00000000
10000000
00000000
00000000
00000000
01010000
00000000
00000000
00000000
,
00000000
00011000
00000000
00000000
00001100
00000000
00000011
00000000
00000101
00000000
00000000
00001010
00000000
00000000
00011000
00000000
;
