#TITLE:Meow;
#SUBTITLE:;
#ARTIST:Anamanaguchi;
#TITLETRANSLIT:;
#SUBTITLETRANSLIT:;
#ARTISTTRANSLIT:;
#GENRE:;
#CREDIT:;
#BANNER:banner.png;
#BACKGROUND:background.png;
#LYRICSPATH:;
#CDTITLE:;
#MUSIC:Meow.ogg;
#OFFSET:-0.344000;
#SAMPLESTART:76.953499;
#SAMPLELENGTH:16.762703;
#SELECTABLE:YES;
#BPMS:0.000000=200.445007
;
#STOPS:
;
#BGCHANGES:;
#KEYSOUNDS:;
#ATTACKS:;

//---------------dance-single - ----------------
#NOTES:
     dance-single:
     :
     Hard:
     15:
     0.666919,0.945732,0.415341,0.224284,0.107989,562.000000,512.000000,50.000000,27.000000,0.000000,0.000000,0.666919,0.945732,0.415341,0.224284,0.107989,562.000000,512.000000,50.000000,27.000000,0.000000,0.000000:
0000
0000
0000
0000
,
0000
0000
0000
0000
,
0000
0000
0000
0000
,
0000
0000
0000
0000
,
0000
0000
0000
0000
,
0000
0000
0000
0000
,
0000
0000
0000
0000
,
0000
0000
0000
0000
,
1000
0000
0000
0010
0100
0100
0010
0000
,
0000
0100
0001
0001
1000
0000
0010
0000
,
1000
0000
0010
1000
0010
1000
0000
0001
,
0100
0100
0100
0001
0010
0000
0100
0000
,
0010
0000
0000
0001
1000
1000
0010
0000
,
0000
0100
0001
0001
0010
0000
0100
0000
,
0010
0000
0100
0010
0100
0010
0000
0001
,
0100
0100
0100
0001
1000
0000
0001
0000
,
1000
0010
0100
0010
1000
0100
0010
0001
,
1000
0001
0100
0001
1000
0100
0010
0001
,
1000
0001
0010
0001
1000
0001
0000
1000
,
0010
0010
0010
1000
0001
0000
1000
0000
,
0001
0010
0100
0010
0001
0100
0010
0100
,
0001
1000
0100
1000
0001
0010
0001
1000
,
0010
0000
0100
0001
0010
0100
0000
0010
,
0001
0001
0001
1000
0001
0000
1000
0001
,
0020
0000
0230
0000
,
2300
0000
3020
0000
,
0130
0001
1000
0002
0000
0000
0000
1003
,
0100
0001
0100
1000
0010
0100
0001
1000
,
0002
0000
0203
0000
,
0302
0000
0023
0000
,
0130
0010
0100
2000
0000
0000
0000
0000
,
3010
0100
0010
0100
0001
0000
1000
0001
,
0011
0010
0110
0100
,
1100
1000
1001
0001
,
0100
0001
0010
0100
1000
0000
1100
0000
,
1000
0010
0100
0001
1000
0010
1000
0001
,
1001
1000
1010
1000
,
0110
0100
0101
0001
,
0010
0001
1000
0100
0010
0000
0100
0000
,
1000
0001
0100
0001
0010
0100
1000
0001
,
1001
1000
1010
0010
,
0110
0100
0101
0001
,
0010
0001
1000
0100
0010
0000
0110
0000
,
0100
0010
0001
1000
0010
0100
0001
1000
,
1100
0100
0110
0010
,
0011
0001
1001
0001
,
0100
0001
0010
0200
0010
0000
0010
0000
,
0310
0000
0000
0000
0000
0000
0100
1000
,
0001
1001
1000
1100
,
0010
0110
0100
0011
,
0010
0001
0100
0020
0000
0000
0000
0000
,
0000
0130
0001
0001
1000
0000
0001
1000
,
0010
1010
1000
1100
,
1000
1001
0001
0101
,
1000
0010
1000
0200
0000
0000
0000
0000
,
0000
0310
0100
0100
1000
0000
0001
1000
,
0010
1000
0100
1000
,
0001
0100
0001
0010
,
0100
1000
0001
0200
0000
0000
0000
0000
,
0000
0310
1000
1000
0001
0000
1000
0001
,
0010
0000
0100
0000
,
1000
0000
0001
0000
,
0100
0010
2000
0002
0000
0000
0000
0000
,
0000
0000
0000
3003
,
1020
0000
1000
0000
0130
0000
0010
1000
,
1100
0110
0011
0110
,
0100
1000
1010
0000
0011
0000
1001
0000
,
0001
0100
1000
0100
0001
0010
0100
0000
,
0021
0000
0001
0000
0130
0000
0010
0001
,
0011
1010
1001
1100
,
1001
0000
1000
0200
0000
0000
2300
0000
,
3010
0000
0100
0000
0001
0000
0010
0000
0100
1000
0100
1000
0100
0000
0000
0000
,
0021
0000
0100
0000
0031
0000
0010
0100
,
1100
1010
1001
0011
,
0110
0000
0100
0020
0000
0000
0000
0000
,
0031
0010
1000
0010
0100
0010
0001
1000
,
2100
3001
0201
0310
,
2010
3001
0021
0130
,
0001
1000
0001
1000
0001
1000
0001
1000
0001
1000
0001
1000
0001
1000
0001
1000
,
0001
0000
0000
0000
,
1000
1000
0001
1000
1000
0001
1000
0001
,
1000
0000
1000
0000
0001
0000
1000
0000
1000
0000
0001
0000
0100
0010
0100
0010
,
0100
0100
0001
0100
0100
0001
0100
0001
,
0100
0000
0100
0000
0001
0000
0100
0000
0100
0000
0001
0000
1000
0010
1000
0010
,
1000
1000
0100
1000
1000
0100
1000
0100
,
1000
0000
1000
0000
0100
0000
1000
0000
1000
0000
0100
0000
0010
0001
0010
0001
,
0010
0010
0100
0010
0010
0100
0010
0100
,
0010
0000
0010
0000
0100
0000
0010
0000
0010
0000
0100
0000
1000
0001
1000
0001
,
1000
1000
0001
0100
0100
0001
0010
0100
,
1000
0000
1000
0000
0100
0000
0010
0000
0010
0000
0001
0000
1000
0010
1000
0010
,
0100
0100
0001
0010
0010
0100
0010
0001
,
1000
0000
1000
0000
0001
0000
0010
0000
0010
0000
0100
0000
0010
0001
0010
0001
,
0010
0010
0001
0100
0100
0010
1000
0100
,
0010
0000
0010
0000
0100
0000
1000
0000
1000
0000
0001
0000
1000
0010
1000
0010
,
1000
1000
0001
0010
0010
0100
1000
0001
,
0100
0000
0100
0000
0001
0000
0010
0000
0010
0000
0100
0000
1000
0001
1000
0001
,
0200
0000
0000
0000
,
0000
0000
0000
0000
,
0000
0000
0000
0000
,
0300
0000
0000
0000
;

//---------------dance-single - ----------------
#NOTES:
     dance-single:
     :
     Medium:
     11:
     0.499596,0.699019,0.315659,0.465182,0.000000,421.000000,383.000000,38.000000,56.000000,0.000000,0.000000,0.499596,0.699019,0.315659,0.465182,0.000000,421.000000,383.000000,38.000000,56.000000,0.000000,0.000000:
0000
0000
0000
0000
,
0000
0000
0000
0000
,
0000
0000
0000
0000
,
0000
0000
0000
0000
,
0000
0000
0000
0000
,
0000
0000
0000
0000
,
0000
0000
0000
0000
,
0000
0000
0000
0000
,
1010
0000
0000
0001
0100
0001
0100
0000
,
0000
0010
1000
0010
1000
0000
0001
0000
,
0001
0000
1000
0001
1000
0001
0000
0001
,
0010
0100
1000
0100
0010
0000
0100
0000
,
1000
0000
0000
0010
0100
0010
0100
0000
,
0000
0001
1000
0001
1000
0000
0100
0000
,
0100
0000
0010
0001
0010
0001
0000
0010
,
0100
1000
0001
0100
0010
0000
0100
0000
,
0001
0100
0010
0000
0100
0010
1000
0000
,
0100
0010
0001
0000
1000
0001
0100
0000
,
0010
0000
0100
0001
0100
0001
0000
0100
,
0010
1000
0001
0010
0100
0000
0010
0000
,
0001
0010
0100
0000
0010
0001
1000
0000
,
0100
1000
0010
0000
0100
0010
1000
0000
,
0001
0000
1000
0010
1000
0010
0000
0100
,
0001
0010
0100
1000
0100
0000
0010
0001
,
2000
0000
3200
0000
,
0320
0000
0230
0000
,
0310
0001
0100
0020
0000
0000
0000
0000
,
0000
0000
0000
0000
0000
0000
0130
0010
,
2000
0000
3002
0000
,
2003
0000
3200
0000
,
0310
0100
1000
0020
0000
0000
0000
0000
,
1030
0001
1000
0001
1000
0000
0100
1000
,
0020
1030
0200
0310
,
0002
0103
0020
1030
,
0001
1000
0100
0010
0100
0000
1000
0000
,
0001
0100
0010
1000
0001
0100
0010
1000
,
0002
0013
0200
1300
,
0020
0130
0002
1003
,
0001
0010
0100
0010
0001
0000
1000
0000
,
0001
0100
0010
0100
0001
0000
1000
0100
,
0020
0130
2000
3010
,
0200
0301
0020
0031
,
0010
0100
1000
0001
0100
0000
0001
0000
,
1000
0100
0010
0001
1000
0100
0010
0001
,
2000
3010
0200
0310
,
0002
0103
0020
1030
,
0001
0000
1000
0010
0100
0000
1001
0000
,
0110
0000
0000
0000
0000
0000
0100
0001
,
0020
0000
0230
0000
,
2300
0000
3002
0000
,
1003
0001
0100
0020
0000
0000
0000
0000
,
0000
1030
0001
1000
0001
0000
0100
0010
,
2000
0000
3002
0000
,
0023
0000
0032
0000
,
0103
0001
1000
0200
0000
0000
0000
0000
,
0300
0010
0100
0010
0100
0000
0010
0100
,
2000
0000
3200
0000
,
2300
0000
3020
0000
,
0130
0010
1000
0002
0000
0000
0000
0000
,
0000
0000
0000
0000
0003
0000
1000
0001
,
0200
0000
0302
0000
,
0023
0000
0230
0000
,
2000
0000
0000
0000
,
0000
0000
0000
3300
,
0012
0000
0000
0000
0000
0000
0013
0100
,
1000
0100
1000
0010
,
0100
0000
0001
0100
0000
0010
1000
0000
,
0200
0310
0002
1003
,
1020
0000
0000
0000
0000
0000
0130
0001
,
1000
0100
1000
0001
,
0010
0000
0001
0010
0000
0001
1000
0000
,
0100
0000
0010
0000
0001
1000
1001
0000
,
0201
0000
0000
0000
0000
0000
0310
1000
,
0100
1000
0001
0100
,
0001
0000
0010
0100
0000
0010
0001
0000
,
1000
0001
1000
0001
1000
0000
0001
0100
,
0020
1030
0200
0310
,
0002
0013
2000
3100
,
0010
0001
0100
0010
1000
0100
0010
0001
,
1000
0100
0001
0100
1000
0010
0100
0000
,
0101
0000
0000
0011
0000
0000
1001
0000
,
1100
0000
0000
1010
0000
0000
1001
0000
,
0101
0000
0000
0011
0000
0000
1001
0000
,
1100
0000
0000
1010
0000
0000
1001
0000
,
0101
0000
0000
0110
0000
0000
1010
0000
,
1100
0000
0000
0110
0000
0000
0011
0000
,
1001
0000
0000
0101
0000
0000
1010
0000
,
1001
0000
0000
0011
0000
0000
0110
0000
,
1001
0000
0010
0001
0000
0001
0100
0000
,
0110
0000
0010
1000
0000
1000
0100
0000
,
0110
0000
0100
1000
0000
1000
0001
0000
,
1001
0000
0001
0100
0000
0010
1000
0000
,
1001
0000
1000
0100
0000
0010
0001
0000
,
0011
0000
0010
0001
0000
0001
0100
0000
,
0101
0000
0001
0100
0000
0100
0010
0000
,
0100
0000
0010
1000
0000
0001
0010
0100
,
0020
0000
0000
0000
,
0000
0000
0000
0000
,
0000
0000
0000
0000
,
0030
0000
0000
0000
;

//---------------dance-single - ----------------
#NOTES:
     dance-single:
     :
     Easy:
     7:
     0.307352,0.398727,0.066455,0.149523,0.000000,259.000000,251.000000,8.000000,18.000000,0.000000,0.000000,0.307352,0.398727,0.066455,0.149523,0.000000,259.000000,251.000000,8.000000,18.000000,0.000000,0.000000:
0000
0000
0000
0000
,
0000
0000
0000
0000
,
0000
0000
0000
0000
,
0000
0000
0000
0000
,
0000
0000
0000
0000
,
0000
0000
0000
0000
,
0000
0000
0000
0000
,
0000
0000
0000
0000
,
1000
0000
0001
0001
,
0000
1000
1000
0001
,
0100
0010
1000
0010
,
0100
0100
0100
0010
,
1000
0000
0001
0001
,
0000
1000
1000
0001
,
1000
0010
1000
0100
,
0010
0010
0010
0100
,
0010
0001
0100
0001
,
1000
0100
1000
0001
,
1000
1000
0001
0001
,
0100
0010
0100
0010
,
1000
0001
0100
0001
,
1000
0100
1000
0001
,
1000
1000
0001
0001
,
0100
0001
0010
0100
,
0010
0000
0001
0000
,
0100
0000
0010
0000
,
0100
0010
1000
0002
0000
0000
0000
0000
,
0000
0000
0000
0000
0000
0000
1003
0001
,
1000
0000
0001
0000
,
0100
0000
0001
0000
,
0010
0100
1000
0020
0000
0000
0000
0000
,
0130
0000
0100
0000
0100
0000
0010
1000
,
0001
0000
1000
0000
,
0100
0000
1000
0000
,
0010
1000
0010
0200
0000
0000
0000
0000
,
0000
0000
0000
0000
0300
0000
0001
0010
,
0001
0000
0010
0000
,
0100
0000
0010
0000
,
0001
1000
0001
0020
0000
0000
0000
0000
,
0000
0000
0000
0000
0030
0000
0001
1000
,
0001
0000
0010
0000
,
0001
0000
0100
0000
,
0010
0100
0001
2000
0000
0000
0000
0000
,
0000
0000
0000
0000
3000
0000
0100
1000
,
0010
0000
0100
0000
,
0001
0000
1000
0000
,
0001
0010
0100
2000
0000
0000
0000
0000
,
3000
0000
0000
0001
,
1000
0000
0010
0000
,
0100
0000
0001
0000
,
1000
0001
1000
0000
,
0000
0001
0001
1000
,
0001
0000
0010
0000
,
0001
0000
0100
0000
,
0010
1000
0010
0000
,
0000
0100
0100
0010
,
1000
0000
0100
0000
,
0010
0000
0001
0000
,
0010
0001
0200
0000
,
0000
0000
0300
0010
,
1000
0000
0001
0000
,
0100
0000
0010
0000
,
2000
0000
0000
0000
,
3000
0000
0000
0000
,
0001
0000
0000
2000
,
3010
1000
0100
0010
,
0100
1000
0100
1000
,
0000
0001
0100
0010
,
2000
0000
3000
0002
,
0013
0001
0100
0001
,
1000
0100
0001
0100
,
1000
0010
0001
0010
,
0200
0000
0300
0020
,
1030
0001
0010
0100
,
0010
0001
1000
0001
,
0100
0001
0010
0100
,
0020
0000
0032
0000
,
0203
0000
0320
0000
,
2030
0000
0000
0000
,
3001
0000
0000
0000
,
1000
0000
0000
1000
0000
0000
1000
0000
,
0001
0000
0000
0001
0000
0000
0001
0000
,
0100
0000
0000
0100
0000
0000
0100
0000
,
0010
0000
0000
0010
0000
0000
0010
0000
,
1000
0000
0000
0010
0000
0000
1000
0000
,
0001
0000
0000
0100
0000
0000
0001
0000
,
0010
0000
0000
0001
0000
0000
0010
0000
,
0100
1000
0000
0100
,
1001
0000
0000
1000
0000
0000
0010
0000
,
0101
0000
0000
0001
0000
0000
0010
0000
,
1100
0000
0000
0100
0000
0000
0010
0000
,
0011
0000
0000
0001
0000
0000
1000
0000
,
1010
0000
0000
1000
0000
0000
0010
0000
,
0110
0000
0000
0100
0000
0000
0001
0000
,
0011
0000
0000
0001
0000
0000
0100
0000
,
0001
0000
0000
1000
0000
0000
0010
0000
,
1001
0000
0000
0000
;

//---------------dance-single - ----------------
#NOTES:
     dance-single:
     :
     Beginner:
     4:
     0.148336,0.239236,0.008307,0.033227,0.000000,125.000000,124.000000,1.000000,4.000000,0.000000,0.000000,0.148336,0.239236,0.008307,0.033227,0.000000,125.000000,124.000000,1.000000,4.000000,0.000000,0.000000:
// measure 0
0000
0000
0000
0000
,  // measure 1
0000
0000
0000
0000
,  // measure 2
0000
0000
0000
0000
,  // measure 3
0000
0000
0000
0000
,  // measure 4
0000
0000
0000
0000
,  // measure 5
0000
0000
0000
0000
,  // measure 6
0000
0000
0000
0000
,  // measure 7
0000
0000
0000
0000
,  // measure 8
0100
0000
0000
0000
,  // measure 9
0100
0000
0000
0000
,  // measure 10
0010
0000
0010
0000
,  // measure 11
1000
1000
1000
0000
,  // measure 12
0001
0000
0000
0000
,  // measure 13
1000
0000
0000
0000
,  // measure 14
0010
0000
0010
0000
,  // measure 15
0100
0100
0100
0000
,  // measure 16
0001
0000
0000
0010
,  // measure 17
0000
0000
0001
0000
,  // measure 18
1000
0000
0001
0000
,  // measure 19
0100
0100
0100
0000
,  // measure 20
0001
0000
0000
1000
,  // measure 21
0000
0000
0010
0000
,  // measure 22
1000
0000
1000
0000
,  // measure 23
0001
0001
0001
0000
,  // measure 24
1000
0000
0100
0000
,  // measure 25
0010
0000
0001
0000
,  // measure 26
1000
0000
0000
0000
,  // measure 27
0000
0000
0000
0000
,  // measure 28
0001
0000
0010
0000
,  // measure 29
0100
0000
1000
0000
,  // measure 30
0001
0000
0000
0000
,  // measure 31
0100
0000
0000
0010
,  // measure 32
1000
0000
0001
0000
,  // measure 33
0010
0000
0100
0000
,  // measure 34
0010
0000
0000
0000
,  // measure 35
0000
0000
0000
0100
,  // measure 36
1000
0000
0010
0000
,  // measure 37
0100
0000
0001
0000
,  // measure 38
1000
0000
0000
0000
,  // measure 39
0000
0000
0000
0001
,  // measure 40
0010
0000
0001
0000
,  // measure 41
1000
0000
0100
0000
,  // measure 42
0010
0000
0000
0000
,  // measure 43
0000
0000
0000
0100
,  // measure 44
0010
0000
0001
0000
,  // measure 45
1000
0000
0010
0000
,  // measure 46
1000
0000
0000
0000
,  // measure 47
0001
0000
0000
0000
,  // measure 48
1000
0000
0100
0000
,  // measure 49
0100
0000
0100
0000
,  // measure 50
1000
0000
0000
0000
,  // measure 51
0000
0000
0000
0000
,  // measure 52
0001
0000
0010
0000
,  // measure 53
0010
0000
0010
0000
,  // measure 54
0001
0000
0000
0000
,  // measure 55
0000
0000
0000
0000
,  // measure 56
0000
1000
0000
1000
,  // measure 57
0000
1000
0000
1000
,  // measure 58
0000
1000
0000
1000
,  // measure 59
0000
1000
1000
0000
,  // measure 60
0001
0000
0000
0000
,  // measure 61
1000
0000
0000
0000
,  // measure 62
0010
0000
0000
0000
,  // measure 63
0100
0000
0000
0000
,  // measure 64
1001
0000
0000
0000
,  // measure 65
0001
0000
1000
0000
,  // measure 66
0010
0000
0000
0000
,  // measure 67
1000
0000
0000
0000
,  // measure 68
0100
0000
0000
0000
,  // measure 69
1000
0000
0001
0000
,  // measure 70
0100
0000
0000
0000
,  // measure 71
0010
0000
0100
0000
,  // measure 72
0001
0000
0000
0000
,  // measure 73
1000
0000
0001
0000
,  // measure 74
0100
0000
0000
0000
,  // measure 75
0010
0000
0000
1000
,  // measure 76
0001
0000
0100
0000
,  // measure 77
0010
0000
1000
0000
,  // measure 78
0100
0000
0000
0000
,  // measure 79
0010
0000
0000
0000
,  // measure 80
0100
0000
0000
0000
,  // measure 81
1000
0000
0000
0000
,  // measure 82
0020
0000
0000
0000
,  // measure 83
0000
0000
0000
0030
,  // measure 84
0100
0000
0000
0000
,  // measure 85
0001
0000
0000
0000
,  // measure 86
2000
0000
0000
0000
,  // measure 87
0000
0000
0000
3000
,  // measure 88
0001
0000
0000
0000
,  // measure 89
1000
0000
0000
0000
,  // measure 90
0020
0000
0000
0000
,  // measure 91
0000
0000
0000
0030
,  // measure 92
0100
0000
0000
0000
,  // measure 93
0001
0000
0000
0000
,  // measure 94
0020
0000
0000
0000
,  // measure 95
0000
0000
0000
0030
,  // measure 96
0100
0000
0000
0000
;
