#VERSION:0.83;
#TITLE:Medusa;
#SUBTITLE:;
#ARTIST:Aiobahn feat. Cozi Zuehlsdorff;
#TITLETRANSLIT:;
#SUBTITLETRANSLIT:;
#ARTISTTRANSLIT:;
#GENRE:;
#ORIGIN:;
#CREDIT:;
#BANNER:medusa_bn.png;
#BACKGROUND:medusa_bg.png;
#PREVIEWVID:;
#JACKET:medusa_jacket.png;
#CDIMAGE:;
#DISCIMAGE:;
#LYRICSPATH:;
#CDTITLE:cdtitle.png;
#MUSIC:medusa.ogg;
#OFFSET:0.476191;
#SAMPLESTART:47.142857;
#SAMPLELENGTH:15.238098;
#SELECTABLE:YES;
#BPMS:0.000=126.000;
#STOPS:;
#DELAYS:;
#WARPS:;
#TIMESIGNATURES:0.000=4=4;
#TICKCOUNTS:0.000=4;
#COMBOS:0.000=1;
#SPEEDS:0.000=1.000=0.000=0;
#SCROLLS:0.000=1.000;
#FAKES:;
#LABELS:0.000=Song Start;
#BGCHANGES:;
#KEYSOUNDS:;
#ATTACKS:
;

//---------------dance-single - ----------------
#NOTEDATA:;
#CHARTNAME:;
#STEPSTYPE:dance-single;
#DESCRIPTION:;
#CHARTSTYLE:;
#DIFFICULTY:Hard;
#METER:12;
#RADARVALUES:0.364940,0.633474,0.372328,0.786025,0.134452,247.000000,211.000000,36.000000,76.000000,0.000000,0.000000,0.000000,0.000000,0.000000,0.364940,0.633474,0.372328,0.786025,0.134452,247.000000,211.000000,36.000000,76.000000,0.000000,0.000000,0.000000,0.000000,0.000000;
#CREDIT:DigitalBasic;
#OFFSET:0.476191;
#BPMS:0.000000=125.999992
;
#STOPS:;
#DELAYS:;
#WARPS:;
#TIMESIGNATURES:0.000000=4=4
;
#TICKCOUNTS:0.000000=4
;
#COMBOS:0.000000=1
;
#SPEEDS:0.000000=1.000000=0.000000=0
,83.000000=1.250000=0.250000=0
,83.250000=0.750000=0.250000=0
,83.500000=1.250000=0.250000=0
,83.750000=0.900000=0.250000=0
,84.000000=2.000000=12.000000=0
,96.000000=1.000000=0.000000=0
,165.000000=2.000000=0.080000=0
,165.125000=1.000000=0.500000=0
,167.000000=2.000000=0.080000=0
,167.125000=1.000000=0.500000=0
,169.000000=1.250000=0.080000=0
,169.125000=1.000000=0.500000=0
,170.000000=1.250000=0.080000=0
,170.125000=1.000000=0.500000=0
,171.000000=1.250000=0.080000=0
,171.125000=1.000000=0.500000=0
,173.000000=2.000000=0.080000=0
,173.125000=1.000000=0.500000=0
,175.000000=2.000000=0.080000=0
,175.125000=1.000000=0.500000=0
,177.000000=1.250000=0.080000=0
,177.125000=1.000000=0.500000=0
,178.000000=1.250000=0.080000=0
,178.125000=1.000000=0.500000=0
,179.000000=1.250000=0.080000=0
,179.125000=1.000000=0.500000=0
,181.000000=2.000000=0.080000=0
,181.125000=1.000000=0.500000=0
,183.000000=2.000000=0.080000=0
,183.125000=1.000000=0.500000=0
,185.000000=1.250000=0.080000=0
,185.125000=1.000000=0.500000=0
,186.000000=1.250000=0.080000=0
,186.125000=1.000000=0.500000=0
,187.000000=1.250000=0.080000=0
,187.125000=1.000000=0.500000=0
,189.000000=2.000000=0.080000=0
,189.125000=1.000000=0.500000=0
,191.000000=2.000000=0.080000=0
,191.125000=1.000000=0.500000=0
,193.000000=1.250000=0.080000=0
,193.125000=1.000000=0.500000=0
,194.000000=1.250000=0.080000=0
,194.125000=1.000000=0.500000=0
,195.000000=1.250000=0.080000=0
,195.125000=1.000000=0.500000=0
;
#SCROLLS:0.000000=1.000000
,96.000000=10.000000
,98.000000=0.000000
,98.750000=3.000000
,99.000000=0.000000
,99.750000=3.000000
,100.000000=0.500000
,100.250000=0.250000
,101.000000=3.000000
,101.250000=2.000000
,101.500000=1.000000
,101.750000=0.500000
,102.000000=0.250000
,103.000000=3.000000
,103.250000=2.000000
,103.500000=1.000000
,103.750000=0.500000
,104.000000=0.250000
,104.500000=1.000000
,108.000000=0.500000
,108.250000=0.250000
,109.000000=3.000000
,109.250000=2.000000
,109.500000=1.000000
,109.750000=0.500000
,110.000000=0.250000
,111.000000=3.000000
,111.250000=2.000000
,111.500000=1.000000
,111.750000=0.500000
,112.000000=0.250000
,112.500000=1.000000
,116.000000=0.500000
,116.250000=0.250000
,117.000000=3.000000
,117.250000=2.000000
,117.500000=1.000000
,117.750000=0.500000
,118.000000=0.250000
,119.000000=3.000000
,119.250000=2.000000
,119.500000=1.000000
,119.750000=0.500000
,120.000000=0.250000
,120.500000=1.000000
,124.000000=0.500000
,124.250000=0.250000
,125.000000=3.000000
,125.250000=2.000000
,125.500000=1.000000
,125.750000=0.500000
,126.000000=0.250000
,127.000000=3.000000
,127.250000=2.000000
,127.500000=1.000000
,127.750000=0.500000
,128.000000=0.250000
,128.500000=1.000000
,132.000000=0.500000
,132.250000=0.250000
,133.000000=3.000000
,133.250000=2.000000
,133.500000=1.000000
,133.750000=0.500000
,134.000000=0.250000
,135.000000=3.000000
,135.250000=2.000000
,135.500000=1.000000
,135.750000=0.500000
,136.000000=0.250000
,136.500000=1.000000
,140.000000=0.500000
,140.250000=0.250000
,141.000000=3.000000
,141.250000=2.000000
,141.500000=1.000000
,141.750000=0.500000
,142.000000=0.250000
,143.000000=3.000000
,143.250000=2.000000
,143.500000=1.000000
,143.750000=0.500000
,144.000000=0.250000
,144.500000=1.000000
,148.000000=0.500000
,148.250000=0.250000
,149.000000=3.000000
,149.250000=2.000000
,149.500000=1.000000
,149.750000=0.500000
,150.000000=0.250000
,151.000000=3.000000
,151.250000=2.000000
,151.500000=1.000000
,151.750000=0.500000
,152.000000=0.250000
,152.500000=1.000000
,156.000000=0.500000
,156.250000=0.250000
,157.000000=3.000000
,157.250000=2.000000
,157.500000=1.000000
,157.750000=0.500000
,158.000000=0.250000
,159.000000=3.000000
,159.250000=2.000000
,159.500000=1.000000
,159.750000=0.500000
,160.000000=0.250000
,160.500000=1.000000
;
#FAKES:;
#LABELS:0.000000=Song Start
;
#NOTES:
0000
0000
0000
0000
,
0000
0000
0000
0000
,
0000
0000
0000
0000
,
0000
0000
0000
0000
,
0000
0000
0000
0000
,
0000
0000
0000
0000
0001
0000
0000
0000
0010
0000
0000
0000
0001
0000
0000
0000
0100
0000
0000
0000
0000
0000
0000
0010
0000
0000
0000
0000
0000
0000
0000
0000
,
0000
0000
1000
0000
0100
0000
1000
0000
0010
0000
0000
0000
0010
0000
0000
0100
,
0000
0000
0000
0000
0000
0000
0000
0001
0000
1000
0000
0000
1000
0000
0000
0200
,
0000
0000
0300
0000
,
0000
1000
0100
0001
,
0100
0000
0010
0100
0000
0000
0010
0000
0100
0000
0000
0000
0000
0000
0000
0000
,
0000
1000
0010
0001
,
0010
0000
0100
0010
0100
0000
0001
0000
1000
0000
0000
0000
0000
0000
0000
0000
,
0000
0001
0010
1000
,
0010
0000
0100
0010
0000
0000
0001
0000
1000
0000
0000
0000
1000
0000
0100
0000
,
0010
0000
0010
0001
0000
0010
0000
0020
,
0000
0030
0000
0000
0000
0000
0000
0000
,
0001
0000
0001
0000
0001
0100
0001
0000
,
1000
0100
1000
0010
0100
0010
1000
0000
,
0100
0000
0100
0010
0100
0010
0001
0000
,
0010
0001
0010
0100
0010
0100
0020
0000
,
0130
0010
0100
0010
0100
0010
0100
0010
,
0100
0010
0100
0010
0100
0010
0100
0010
,
0100
0010
0100
0010
0100
0010
0100
0010
0100
0010
0100
0010
0100
0010
0100
0010
,
0100
0000
0000
0000
,
0000
0000
2200
3300
0000
0000
0022
0033
,
0000
0000
0000
0000
0001
0000
0100
0000
0001
0000
0000
1000
0000
0000
0100
0000
,
0000
0000
0220
0330
0000
0000
2002
3003
,
0000
0000
0001
0000
1000
0000
0100
0000
1000
0000
0000
0010
0000
0000
0100
0000
,
0000
0000
0202
0303
0000
0000
2020
3030
,
0000
0000
0010
0000
1000
0000
0010
0000
0100
0000
0000
0001
0000
0000
0000
0000
,
0000
0000
2020
3030
0000
0000
0202
0303
,
0000
0000
0000
0000
0001
0000
1000
0000
0010
0000
0000
0100
0000
0000
0000
0000
,
0001
0000
0202
0303
0000
0000
2200
3300
,
0000
0000
1000
0000
0100
0000
0001
0000
0100
0000
0010
0100
0000
0100
0010
0000
,
1000
0000
2200
3300
0000
0000
0202
0303
,
0000
0000
0001
0000
0100
0000
1000
0000
0100
0000
0010
0100
0000
0100
0010
0000
,
0001
0000
0022
0033
0000
0000
2020
3030
,
0000
0000
1000
0000
0010
0000
0100
0000
1000
0000
0010
1000
0000
1000
0010
0000
,
1000
0000
2020
3030
0000
0000
0022
0033
,
0000
0001
0010
0100
0002
0000
1003
0000
,
0100
0000
2200
3300
0010
0100
0202
0303
,
1000
0000
0022
0033
2002
3003
0022
0033
,
0001
0000
0202
0303
0010
0100
2200
3300
,
0001
0000
2200
3300
2002
3003
2200
3300
,
1000
0000
0022
0033
0100
0010
2020
3030
,
0001
0000
0202
0303
2200
3300
0220
0330
,
1000
0000
2020
3030
0100
0010
0022
0033
,
1000
0000
2200
3300
0202
0303
0220
0330
,
0010
0000
0000
0000
;

//---------------dance-single - ----------------
#NOTEDATA:;
#CHARTNAME:;
#STEPSTYPE:dance-single;
#DESCRIPTION:;
#CHARTSTYLE:;
#DIFFICULTY:Easy;
#METER:5;
#RADARVALUES:0.254128,0.329407,0.268903,0.051712,0.000000,172.000000,146.000000,26.000000,5.000000,0.000000,0.000000,0.000000,0.000000,0.000000,0.254128,0.329407,0.268903,0.051712,0.000000,172.000000,146.000000,26.000000,5.000000,0.000000,0.000000,0.000000,0.000000,0.000000;
#CREDIT:DigitalBasic;
#NOTES:
0000
0000
0000
0000
,
0000
0000
0000
0000
,
0000
0000
0000
0000
,
0000
0000
0000
0000
,
0000
0000
0000
0000
,
0002
0000
0003
0000
,
0200
0000
0300
0000
,
0020
0000
0030
0000
,
0200
0000
0300
0000
,
0000
1000
0000
0100
,
0000
1000
0000
0010
,
0000
0100
0000
0001
,
0000
0000
0010
0000
0000
0001
0001
0000
,
0000
1000
0000
0010
,
0000
0100
0000
0001
,
0000
1000
0000
0001
,
0000
0010
0000
0100
,
1000
0001
1000
0001
,
1000
0001
1000
0001
,
0010
0100
0010
0100
,
0010
0100
0010
0100
,
1000
0100
0010
0001
,
0010
0100
1000
0010
,
0100
0000
0000
0010
0000
0000
0100
0000
,
0000
0000
1001
1001
,
1000
1100
0001
0101
,
1000
0010
1000
0010
,
0100
0101
1000
1100
,
0100
0010
0001
0100
,
0001
0011
1000
1100
,
0100
1000
0010
1000
,
0001
0101
1000
1010
,
1000
0001
0002
0000
,
0013
0110
1000
1001
,
1000
0100
0001
0010
,
0100
0101
1000
1100
,
0001
0100
1000
0010
,
0100
1010
0001
0101
,
0001
0010
0100
0001
,
0010
0110
1000
1100
,
1000
0100
0010
1000
,
0100
1100
0100
1100
,
1000
0001
0001
0001
,
0100
0101
0100
0101
,
0001
1000
1000
1000
,
0010
1010
0010
1010
,
0010
0100
0100
0100
,
0001
0011
0010
0011
,
0010
0100
0100
0100
,
0010
0000
0000
0000
;

//---------------dance-single - ----------------
#NOTEDATA:;
#CHARTNAME:;
#STEPSTYPE:dance-single;
#DESCRIPTION:;
#CHARTSTYLE:;
#DIFFICULTY:Medium;
#METER:9;
#RADARVALUES:0.322093,0.465927,0.134452,0.268903,0.036199,218.000000,205.000000,13.000000,26.000000,0.000000,0.000000,0.000000,0.000000,2.000000,0.322093,0.465927,0.134452,0.268903,0.036199,218.000000,205.000000,13.000000,26.000000,0.000000,0.000000,0.000000,0.000000,2.000000;
#CREDIT:DigitalBasic;
#OFFSET:0.476191;
#BPMS:0.000000=125.999992
;
#STOPS:;
#DELAYS:;
#WARPS:99.000000=16.000000
;
#TIMESIGNATURES:0.000000=4=4
;
#TICKCOUNTS:0.000000=4
;
#COMBOS:0.000000=1
;
#SPEEDS:0.000000=1.000000=0.000000=0
,98.000000=8.000000=0.900000=0
,115.000000=1.000000=0.250000=0
;
#SCROLLS:0.000000=1.000000
,98.000000=0.000000
,99.000000=1.000000
,115.000000=0.000000
,115.500000=1.000000
;
#FAKES:;
#LABELS:0.000000=Song Start
;
#NOTES:
// measure 0
0000
0000
0000
0000
,  // measure 1
0000
0000
0000
0000
,  // measure 2
0000
0000
0000
0000
,  // measure 3
0000
0000
0000
0000
,  // measure 4
0000
0000
0000
0000
,  // measure 5
2000
0100
3001
0000
,  // measure 6
0002
0000
0000
0000
0010
0000
0000
0000
1003
0000
0000
0000
0000
0000
0000
0100
,  // measure 7
0000
0000
0000
0000
0000
0000
0000
0000
0000
1000
0000
0000
0000
0000
0000
0010
,  // measure 8
0000
0000
0000
0000
,  // measure 9
1000
0100
1000
0100
,  // measure 10
0010
0001
0010
0000
0001
0000
0000
0000
,  // measure 11
0001
0100
0010
0100
,  // measure 12
0010
1000
0010
0000
1000
0001
0001
0000
,  // measure 13
0010
0100
0010
0001
,  // measure 14
1000
0100
1000
0001
1000
0000
0010
0000
,  // measure 15
0000
0000
0010
0000
0000
0100
0000
0100
,  // measure 16
0000
0000
0000
0000
,  // measure 17
0001
0010
0001
0100
,  // measure 18
0001
0000
0010
0000
0100
0010
0100
0000
,  // measure 19
1000
0100
1000
0010
,  // measure 20
1000
0000
0100
0000
0010
0100
0010
0000
,  // measure 21
0001
0010
0001
0010
0100
1000
0100
1000
,  // measure 22
0010
1000
0010
1000
0001
0100
0001
0100
,  // measure 23
0010
0000
0000
0010
0000
0000
0010
0000
,  // measure 24
1001
0000
0000
0000
,  // measure 25
1001
0000
0000
0000
,  // measure 26
0000
0000
0000
0000
,  // measure 27
0000
0000
0000
0000
,  // measure 28
0000
0000
0000
0000
,  // measure 29
0001
0002
0013
0020
,  // measure 30
0130
0000
0000
0000
1000
0000
0000
0000
0001
0000
0000
1000
0000
0000
0001
0000
,  // measure 31
1000
2000
3010
0020
,  // measure 32
0130
0000
0000
0000
0010
0000
0000
0000
1000
0000
0000
0001
0000
0000
0100
0000
,  // measure 33
0010
0020
0130
0200
,  // measure 34
0301
0000
0000
0000
0010
0000
0100
0000
0010
0000
0000
0001
0000
0000
0000
0000
,  // measure 35
0010
0020
0130
0200
,  // measure 36
1300
0000
0000
0000
1000
0000
0001
0000
1000
0000
0000
0010
0000
0000
0000
0000
,  // measure 37
0100
0001
0202
0303
1000
0000
2200
3300
,  // measure 38
1000
0100
0010
0100
1000
0010
0100
0001
,  // measure 39
1000
0010
2020
3030
0001
0000
0022
0033
,  // measure 40
0001
0100
0010
0100
0001
0010
0100
0010
,  // measure 41
0001
0010
0022
0033
1000
0000
2020
3030
,  // measure 42
1000
0100
0010
1000
0010
0100
1000
0001
,  // measure 43
1000
0010
2020
3030
0001
0000
0022
0033
,  // measure 44
0001
0100
0010
0001
0010
0000
0100
0000
,  // measure 45
0010
0000
0101
0000
0001
0010
1000
0000
,  // measure 46
0010
0001
1000
0000
1000
0000
1000
0000
,  // measure 47
0100
0000
0011
0000
0001
0100
1000
0000
,  // measure 48
0100
0001
1000
0000
1000
0000
1000
0000
,  // measure 49
0100
0000
1010
0000
1000
0100
0001
0000
,  // measure 50
0100
1000
0001
0000
0001
0000
0001
0000
,  // measure 51
0010
0000
1100
0000
1000
0010
0001
0000
,  // measure 52
0010
1000
0001
0000
0001
0000
0001
0000
,  // measure 53
1000
0000
0000
0000
;
