#TITLE:Mare Maris;
#SUBTITLE:;
#ARTIST:M2U;
#TITLETRANSLIT:;
#SUBTITLETRANSLIT:;
#ARTISTTRANSLIT:;
#GENRE:;
#CREDIT:;
#BANNER:mare maris.png;
#BACKGROUND:mare maris-bg.png;
#LYRICSPATH:;
#CDTITLE:cdtitle.png;
#MUSIC:Mare Maris.ogg;
#OFFSET:-0.733000;
#SAMPLESTART:37.256001;
#SAMPLELENGTH:12.704000;
#SELECTABLE:YES;
#BPMS:0.000000=151.138000
;
#STOPS:
;
#BGCHANGES:;
#KEYSOUNDS:;
#ATTACKS:;

//---------------dance-single - MEGAtive----------------
#NOTES:
     dance-single:
     :
     Easy:
     8:
     0.530525,0.534361,0.544572,0.030254,0.030254,491.000000,419.000000,72.000000,4.000000,0.000000,0.000000,0.530525,0.534361,0.544572,0.030254,0.030254,491.000000,419.000000,72.000000,4.000000,0.000000,0.000000:
0000
0000
0000
0000
,
0000
0000
0000
0000
,
0000
0000
0000
0000
,
0000
0000
0000
0000
,
1001
0000
0010
0001
0000
0001
0100
0000
,
1001
0000
0100
1000
0000
1000
0010
0000
,
1001
0000
0100
2002
0000
0000
3003
0000
,
1010
0000
1000
0001
0000
0001
0010
0000
,
1001
0000
1000
0010
0000
1000
0001
0000
,
0011
0000
0001
1000
0000
1000
0010
0000
,
1001
0000
0001
0010
0000
0001
1000
0000
,
1100
0000
1000
0001
0000
0001
0100
0000
,
1001
0000
1000
0100
0000
1000
0001
0000
,
0101
0000
0001
1000
0000
1000
0100
0000
,
1001
0000
0001
0100
0000
0001
1000
0000
,
1001
0101
1100
1010
,
0011
0101
1100
0110
,
1001
1100
0101
0011
,
1010
1100
0101
0110
,
1001
1010
0011
0101
,
1100
1010
0011
0110
,
1001
0011
1010
1100
,
0101
0011
1010
0110
,
0001
0010
0100
1000
0010
0100
0001
0000
,
1000
0010
0100
0001
0010
0100
1000
0000
,
0001
0010
0100
1000
0010
0100
0001
0000
,
1000
0010
0100
0001
0010
0100
1000
0000
,
0001
0100
0010
1000
0100
0010
0001
0000
,
1000
0100
0010
0001
0100
0010
1000
0000
,
0001
0100
0010
1000
0100
0010
0001
0000
,
1000
0000
0010
0100
0001
1000
0100
0000
,
1000
0010
0100
0001
0010
0100
1000
0000
,
0001
0010
0100
1000
0010
0100
0001
0000
,
1000
0010
0100
0001
0010
0100
1000
0000
,
0001
0010
0100
1000
0010
0100
0001
0000
,
1000
0100
0010
0001
0100
0010
1000
0000
,
0001
0100
0010
1000
0100
0010
0001
0000
,
1000
0100
0010
0001
0100
0010
1000
0000
,
0001
0000
1000
0010
0100
0010
0100
0000
,
0001
0001
0001
0001
,
0001
0001
0001
0001
,
1000
1000
1000
1000
,
1000
1000
1000
1000
,
0001
1000
0001
1000
0001
1000
0001
1000
,
0100
0010
0100
0010
0100
0010
0100
0010
,
0001
0001
1000
1000
0010
0010
0100
0100
,
0001
0000
0000
0000
,
1001
0110
0001
0010
,
0100
1000
1010
0101
,
1001
0000
0000
0000
0100
0000
0000
0000
1000
0000
0000
0001
0000
0000
0100
0000
,
0000
0010
1000
0000
0011
0000
1100
0000
,
1001
0000
0000
0000
0110
0000
0000
0000
1000
0000
0000
0100
0000
0000
0010
0000
,
0000
0001
0000
0000
1000
0000
0000
0000
0101
0000
0000
0000
1010
0000
0000
0000
,
1001
0000
0000
0000
0010
0000
0000
0000
0001
0000
0000
1000
0000
0000
0010
0000
,
0000
0100
0001
0000
1100
0000
0011
0000
,
1001
0110
0001
0010
,
0100
1000
1010
0101
,
1001
0000
0000
0000
0100
0000
0000
0000
1000
0000
0000
0001
0000
0000
0100
0000
,
0000
0010
1000
0000
0011
0000
1100
0000
,
1001
0000
0000
0000
0110
0000
0000
0000
1000
0000
0000
0100
0000
0000
0010
0000
,
0000
0001
0000
0000
1000
0000
0000
0000
0101
0000
0000
0000
1010
0000
0000
0000
,
1001
0000
0000
0000
0010
0000
0000
0000
0001
0000
0000
1000
0000
0000
0010
0000
,
0000
0200
0000
0301
2000
0000
3000
0000
,
1000
0100
0010
0001
0100
0010
1000
0000
,
0001
0100
0010
1000
0100
0010
0001
0000
,
1000
0100
0010
0001
0100
0010
1000
0000
,
0001
0100
0010
1000
0100
0010
0001
0000
,
1000
0010
0100
0001
0010
0100
1000
0000
,
0001
0010
0100
1000
0010
0100
0001
0000
,
1000
0010
0100
0001
0010
0100
1000
0000
,
0001
0010
0100
1000
0010
0100
0001
0000
,
1000
0100
0010
0001
0100
0010
1000
0100
,
1000
0010
0100
0001
0010
0100
1000
0010
,
1000
0100
0010
0001
0100
0010
1000
0100
,
1000
0010
0100
0001
0010
0100
1000
0000
,
0001
0100
0010
1000
0100
0010
0001
0100
,
0001
0010
0100
1000
0010
0100
0001
0010
,
0001
0100
0010
1000
0100
0010
0001
0100
,
0001
0110
1001
0000
;

//---------------dance-single - MEGAtive----------------
#NOTES:
     dance-single:
     :
     Medium:
     12:
     0.595355,0.623421,0.340357,0.143706,0.060508,551.000000,506.000000,45.000000,19.000000,0.000000,0.000000,0.595355,0.623421,0.340357,0.143706,0.060508,551.000000,506.000000,45.000000,19.000000,0.000000,0.000000:
0000
0000
0000
0000
,
0000
0000
0000
0000
,
0000
0000
0000
0000
,
0000
0000
0000
0000
,
1000
0001
0100
0002
0000
0013
0100
1000
,
0001
1000
0010
2000
0000
3100
0010
0000
,
0001
1000
0010
2000
0000
3000
0000
0000
,
1000
0100
0010
0001
0000
0100
0010
1000
,
0001
0010
0100
1000
0000
0001
0001
1000
,
0001
0100
0010
1000
0000
0100
0010
0001
,
1000
0010
0100
0001
1000
0001
1000
0000
,
1000
0100
0010
0001
0000
0100
0010
1000
,
0001
0010
0100
1000
0000
0001
0001
1000
,
0001
0100
0010
1000
0000
0100
0010
0001
,
1000
0010
0100
0001
1000
0001
0010
0000
,
1001
0000
0001
1000
0001
0100
0010
1000
,
0001
0100
0010
1000
0001
0010
0100
1000
,
0001
0000
0001
1000
0001
0010
0100
1000
,
0001
0010
0100
1000
0001
0100
0010
0000
,
1000
0000
1000
0001
1000
0010
0100
0001
,
1000
0010
0100
0001
1000
0100
0010
0001
,
1000
0000
1000
0001
1000
0100
0010
0001
,
1000
0000
0010
1000
0001
0010
0100
0000
,
1000
0001
1000
1010
0010
0100
0001
1000
,
0100
0010
0001
0011
0010
0001
0100
0010
,
1000
0001
1000
1100
0100
0010
0001
1000
,
0001
0100
0010
1010
1000
0100
0010
0000
,
0001
1000
0001
0101
0100
0010
1000
0001
,
0010
0100
1000
1100
0100
1000
0010
0100
,
0001
1000
0001
0011
0010
0100
1000
0001
,
1000
0000
0010
1000
0001
0010
0100
0000
,
1000
0001
1000
1100
0100
0010
0001
1000
,
0010
0100
0001
0101
0100
0001
0010
0100
,
1000
0001
1000
1010
0010
0100
0001
1000
,
0001
0010
0100
1100
1000
0010
0100
0000
,
0001
1000
0001
0011
0010
0100
1000
0001
,
0100
0010
1000
1010
0010
1000
0100
0010
,
0001
1000
0001
0101
0100
0010
1000
0001
,
1000
0000
0100
0010
0001
1000
0001
0000
,
1000
1000
1000
1000
,
1000
1000
1000
1000
,
0001
0001
0001
0001
,
0001
0001
0001
0001
,
1000
0001
0100
0010
1000
0001
0100
0010
,
1000
0001
0010
0100
1000
0001
0010
0100
,
1000
0000
1000
0000
0001
0000
0001
0000
0100
0000
0010
0100
0010
0000
1000
0001
,
1000
0000
0000
0000
,
1001
0000
0110
0000
0001
0010
0100
1000
,
0100
0010
0001
1000
0002
0000
2000
3003
,
1001
0000
1000
0010
0100
0001
0100
0010
,
1000
0001
1000
0100
0020
0000
0002
0033
,
1001
0000
0110
0000
1000
0100
0010
0001
,
0010
0100
1000
0001
2000
0000
0002
3003
,
1001
0000
0000
0000
0001
0000
0100
0000
0010
0000
0000
1000
0000
0000
0001
0000
,
0000
0010
0100
1000
0002
0000
2000
3003
,
1001
0000
0110
0000
0001
0100
0010
1000
,
0100
0010
0001
1000
0002
0000
2000
3003
,
1001
0000
0000
0000
1000
0000
0100
0000
0010
0000
0000
0001
0000
0000
1000
0000
,
0000
0010
0100
0001
2000
0000
0002
3003
,
1001
0000
0000
0000
0110
0000
0000
0000
1000
0000
0000
0100
0000
0000
0010
0000
,
0000
0001
0000
0000
1000
0000
0001
0000
2000
0000
0000
0000
0002
0000
3003
0000
,
1001
0000
0001
0100
0010
1000
0100
0010
,
0000
0000
0002
0000
0000
0000
1003
0010
0200
0000
0000
0000
0000
0000
0300
0000
,
0001
1000
0100
1100
1000
0001
0101
0000
,
1000
0001
0010
0011
0001
1000
1010
0000
,
0001
1000
0010
1010
1000
0001
0011
0000
,
1000
0001
0100
0101
0001
1000
1100
0000
,
1000
0001
0010
0011
0001
1000
1010
0000
,
0001
1000
0100
1100
1000
0001
0101
0000
,
1000
0001
0100
0101
0001
1000
1100
0000
,
0001
0000
1000
0000
0000
0010
0100
0010
0100
0000
0001
0000
0011
0000
0000
0000
,
1001
0000
1000
0010
1000
0000
0001
0000
1000
0000
0100
0000
0010
0000
0000
0000
,
0001
0000
0001
0010
0001
0000
1000
0000
0001
0000
0100
0000
0010
0000
0000
0000
,
1000
0000
1000
0100
1000
0000
0001
0000
1000
0000
0010
0000
0100
0000
0000
0000
,
0001
0000
0001
0100
0001
0000
1000
0000
0001
0000
0010
0000
0100
0000
0000
0000
,
1000
0000
0001
1000
0001
0000
0010
0000
0100
0000
1000
0000
0100
0000
0010
0000
,
0001
0000
1000
0001
1000
0000
0010
0000
0100
0000
0001
0000
0100
0000
0010
0000
,
1000
0000
0001
1000
0001
0000
0010
0000
0100
0000
1000
0000
0010
0000
0100
0000
,
0001
0110
1001
0000
;

//---------------dance-single - MEGAtive----------------
#NOTES:
     dance-single:
     :
     Hard:
     14:
     0.696922,0.684969,0.355484,0.264722,0.506754,645.000000,598.000000,47.000000,35.000000,0.000000,0.000000,0.696922,0.684969,0.355484,0.264722,0.506754,645.000000,598.000000,47.000000,35.000000,0.000000,0.000000:
0000
0000
0000
0000
,
0000
0000
0000
0000
,
0000
0000
0000
0000
,
0000
0000
0000
0000
,
1000
0010
0100
0002
0000
0013
0100
1000
,
0001
0100
0010
2000
0000
3100
0010
0001
,
1000
0100
0010
0002
0000
0000
0003
0000
,
1000
0010
0100
0001
0010
0100
1000
0001
,
1000
0000
0010
0000
0100
0000
0001
0000
0000
0000
1000
0001
1000
0001
1000
0001
,
1000
0100
0010
0001
0100
0010
1000
0001
,
1000
0100
0010
0001
0100
0000
1001
0000
,
0001
0100
0010
1000
0100
0010
0001
1000
,
0001
0000
0100
0000
0010
0000
1000
0000
0000
0000
0001
1000
0001
1000
0001
1000
,
0001
0010
0100
1000
0010
0100
0001
1000
,
0001
0000
0010
0000
0100
0000
1000
0001
1000
0001
1000
0001
0010
0000
0000
0000
,
1001
0000
0000
0000
0001
0000
1000
0100
1000
0000
0001
0100
0001
0000
0001
0010
,
0001
0000
1000
0010
1000
0000
0001
1000
0001
0000
0000
0000
0110
0000
1000
0000
,
0001
0000
0000
0000
0010
0000
0100
1000
0100
0000
0010
0001
0010
0000
0001
0100
,
0001
0000
1000
0010
1000
0000
0100
0010
0100
0010
0100
0000
1000
0000
0001
0000
,
1000
0000
0000
0000
1000
0000
0001
0010
0001
0000
1000
0010
1000
0000
1000
0100
,
1000
0000
0001
0100
0001
0000
1000
0001
1000
0000
0000
0000
0110
0000
0001
0000
,
1000
0000
0000
0000
0100
0000
0010
0001
0010
0000
0100
1000
0100
0000
1000
0010
,
1000
0000
0000
0000
0110
0000
0000
0000
0100
0010
0100
0010
1000
0000
0000
0000
,
0001
0000
0010
0100
0010
0000
1001
0000
0000
0000
0100
0010
0100
0000
0001
0000
,
1000
0000
0100
0010
0100
0000
1001
0000
0000
0000
0010
0000
1001
0000
0000
0000
,
1000
0000
0100
0010
0100
0000
1001
0000
0000
0000
0010
0100
0010
0000
1000
0000
,
0001
0000
0010
0100
0010
0000
1001
0000
0000
0000
0100
0000
1001
0000
0000
0000
,
1000
0000
0001
0010
0001
0000
1001
0000
0000
0000
0010
0000
1001
0000
0000
0000
,
0001
0000
1000
0100
1000
0000
1001
0000
0000
0000
0100
0000
1001
0000
0000
0000
,
1000
0000
0001
0100
0001
0000
1001
0000
0000
0000
0100
0000
1001
0000
0000
0000
,
0001
0000
0000
0000
1001
0000
1000
0010
0100
0000
0010
0000
1001
0000
0000
0000
,
1000
0000
0100
0010
0100
0000
1001
0000
0000
0000
0010
0100
0010
0000
1000
0000
,
0001
0000
0010
0100
0010
0000
1001
0000
0000
0000
0100
0000
1001
0000
0000
0000
,
0001
0000
0010
0100
0010
0000
1001
0000
0000
0000
0100
0010
0100
0000
0001
0000
,
1000
0000
0100
0010
0100
0000
1001
0000
0000
0000
0010
0000
1001
0000
0000
0000
,
0001
0000
1000
0100
1000
0000
1001
0000
0000
0000
0100
0000
1001
0000
0000
0000
,
1000
0000
0001
0010
0001
0000
1001
0000
0000
0000
0010
0000
1001
0000
0000
0000
,
0001
0000
1000
0010
1000
0000
1001
0000
0000
0000
0010
0000
1001
0000
0000
0000
,
1000
0000
0000
0000
1001
0000
0001
0010
0100
0000
0010
0000
1001
0000
0000
0000
,
1000
1000
1000
1000
,
0010
0010
0010
0010
,
0100
0100
0100
0100
,
0001
0001
0001
0001
,
1000
0100
0010
0001
1000
0010
0100
0001
,
1000
0100
0010
0001
1000
0010
0100
0001
,
1000
0000
1000
0000
0001
0000
0001
0000
1000
0010
1000
0010
0100
0001
0100
0001
,
1000
0000
0000
0000
,
1001
0000
0000
0000
0110
0000
0000
0000
0000
1000
0100
0010
0000
0010
0100
1000
,
0000
0001
0100
0010
0000
0010
0100
0001
2000
0000
0000
0000
0002
0000
3003
0000
,
1001
0000
0000
0000
1000
0000
0100
0000
0010
0000
0001
0100
0000
0100
0001
0000
,
0010
0100
1000
0010
0200
0000
0020
0330
,
1001
0000
0000
0000
0110
0000
0000
1000
0000
0001
0010
0100
0000
0100
0010
0001
,
0000
1000
0010
0100
0010
0100
0001
1000
0002
0000
0000
0000
2000
0000
3003
0000
,
1001
0000
0000
0000
0010
0000
1000
0001
0010
0000
0010
0100
0000
0100
1000
0001
,
0000
0110
1001
0000
0020
0000
0200
0330
,
1001
0000
0000
0000
0110
0000
0000
0000
0000
1000
0010
0100
0000
0100
0010
1000
,
0000
0001
0010
0100
0000
0100
0010
0001
2000
0000
0000
0000
0002
0000
3003
0000
,
1001
0000
0000
0000
1000
0000
0010
0000
0100
0000
0001
0010
0000
0010
0001
0000
,
0100
0010
1000
0100
0020
0000
0200
0330
,
1001
0000
0000
0000
0110
0000
0000
1000
0000
0001
0100
0010
0000
0010
0100
0001
,
0000
1000
0100
0010
0100
0010
0001
1000
0002
0000
0000
0000
2000
0000
3003
0000
,
1001
0000
0000
0000
0100
0000
1000
0001
0100
0000
0100
0010
0000
0010
1000
0001
,
0000
0000
0020
0000
0000
0000
0130
2000
0002
0000
3003
0000
0000
0000
0000
0000
,
1000
0000
0001
0010
0001
0000
0002
0000
0000
0000
0103
0010
0100
0000
0001
0000
,
1000
0000
0100
1000
0100
0000
0200
0000
0000
0000
0310
0001
1000
0000
0001
0000
,
1000
0000
0001
0100
0001
0000
0002
0000
0000
0000
0013
0100
0010
0000
0001
0000
,
1000
0000
0010
1000
0010
0000
0020
0000
0000
0000
0130
0001
1000
0000
0000
0000
,
0001
0000
1000
0100
1000
0000
2000
0000
0000
0000
3010
0100
0010
0000
1000
0000
,
0001
0000
0010
0001
0010
0000
0020
0000
0000
0000
0130
1000
0001
0000
1000
0000
,
0001
0000
1000
0010
1000
0000
2000
0000
0000
0000
3100
0010
0100
0000
1000
0000
,
0001
0000
0100
0000
0000
0010
1000
0001
1000
0000
0100
0000
0010
0000
0000
0000
,
0001
0000
0100
0010
0100
0000
0002
0000
0010
0000
1003
0010
1000
0000
0001
0000
,
1000
0000
0100
0010
0100
0000
2000
0000
0010
0000
3001
0010
0001
0000
1000
0000
,
0001
0000
0010
0100
0010
0000
0002
0000
0100
0000
1003
0100
1000
0000
0001
0000
,
1000
0000
0010
0100
0010
0000
2000
0000
0100
0000
3001
0100
0001
0000
1000
0000
,
0001
0000
0010
0100
0010
0000
0002
0000
0100
0000
1003
0100
1000
0000
0001
0000
,
1000
0000
0010
0100
0010
0000
2000
0000
0100
0000
3001
0100
0001
0000
1000
0000
,
0001
0000
0100
0010
0100
0000
0002
0000
0010
0000
1003
0010
1000
0000
0001
1000
,
0001
0000
0000
0000
1000
0100
0010
0001
2000
0000
0000
0000
3000
0000
0000
0000
;

//---------------dance-single - MEGAtive----------------
#NOTES:
     dance-single:
     :
     Challenge:
     16:
     0.798489,0.774313,0.431119,0.226905,0.627770,739.000000,682.000000,57.000000,30.000000,0.000000,0.000000,0.798489,0.774313,0.431119,0.226905,0.627770,739.000000,682.000000,57.000000,30.000000,0.000000,0.000000:
// measure 0
0000
0000
0000
0000
,  // measure 1
0000
0000
0000
0000
,  // measure 2
0000
0000
0000
0000
,  // measure 3
0000
0000
0000
0000
,  // measure 4
0001
0000
1000
0010
1000
0000
2000
0000
0000
0000
3001
0000
0010
0000
0100
0000
,  // measure 5
1000
0000
0001
0010
0001
0000
0002
0000
0000
0000
1003
0000
0010
0000
0100
0000
,  // measure 6
0001
0000
0010
0100
0010
0000
2002
0000
0000
0000
0000
0000
3003
0000
0000
0000
,  // measure 7
1000
0010
0100
0001
0010
0100
1000
0001
,  // measure 8
0100
0000
0010
0000
1000
0000
0100
0000
0000
0000
0100
1000
0001
1000
0001
0000
,  // measure 9
1000
0100
0010
0001
0100
0010
1000
0100
,  // measure 10
0010
0000
0001
0000
1000
0000
0010
0100
0010
0000
0000
0000
1001
0000
0000
0000
,  // measure 11
0001
0100
0010
1000
0100
0010
0001
1000
,  // measure 12
0010
0000
0100
0000
0001
0000
0010
0000
0000
0000
0010
0001
1000
0001
1000
0000
,  // measure 13
0001
0010
0100
1000
0010
0100
0001
0010
,  // measure 14
0100
0000
1000
0000
0001
0000
0100
0010
0100
0010
1000
0001
1000
0000
0000
0000
,  // measure 15
2001
0000
0010
0000
3001
0000
1000
0100
0010
0000
0001
0100
0010
0000
1000
0001
,  // measure 16
0010
0000
0100
1000
0001
0000
0100
0010
1000
0001
1000
0000
0100
0010
0001
0010
,  // measure 17
0002
0000
1000
0000
0013
0000
0001
1000
0010
0000
0100
0001
1000
0000
0100
0010
,  // measure 18
0001
0000
0100
0010
1000
0000
0100
0010
0001
0010
0001
0000
1000
0000
0010
0000
,  // measure 19
2001
0000
0010
0000
3001
0000
1000
0100
0010
0000
0001
0100
0010
0000
1000
0001
,  // measure 20
0010
0000
0100
1000
0001
0100
0010
0100
0001
0010
0100
0000
1000
0000
0001
0010
,  // measure 21
0002
0000
1000
0000
0013
0000
0001
1000
0010
0000
0100
0001
1000
0000
0100
0010
,  // measure 22
0001
0000
0100
0000
0001
0000
1000
0100
0010
0001
1000
0000
0001
0000
0000
0000
,  // measure 23
1001
0000
0100
0010
0100
0000
1001
0000
0010
0000
0100
0000
0001
0000
1000
0000
,  // measure 24
0110
0000
0001
1000
0001
0000
0110
0000
1000
0000
0100
0000
0010
0000
0000
0000
,  // measure 25
1001
0000
0010
0100
0010
0000
1001
0000
0100
0000
0010
0000
1000
0000
0001
0000
,  // measure 26
0110
0000
1000
0001
1000
0000
0110
0000
0001
0000
0010
0000
0100
0000
1000
0001
,  // measure 27
1000
0000
0010
0100
0010
0000
1001
0000
0010
0000
0100
0000
1000
0000
0001
0000
,  // measure 28
0110
0000
1000
0001
1000
0000
0110
0000
0001
0000
0100
0000
0010
0000
0000
0000
,  // measure 29
1001
0000
0010
0100
0010
0000
1001
0000
0100
0000
0010
0000
1000
0000
0001
0000
,  // measure 30
0110
0000
0000
0000
0100
0000
0100
0010
0100
0000
0010
0000
1000
0000
0100
0000
,  // measure 31
1001
0000
0100
0010
0100
0000
1001
0000
0010
0000
0100
0000
0001
0000
1000
0000
,  // measure 32
0110
0000
0001
1000
0001
0000
0110
0000
1000
0000
0100
0000
0010
0000
0000
0000
,  // measure 33
1001
0000
0010
0100
0010
0000
1001
0000
0100
0000
0010
0000
1000
0000
0001
0000
,  // measure 34
0110
0000
1000
0001
1000
0000
0110
0000
0001
0000
0010
0000
0100
0000
1000
0001
,  // measure 35
1000
0000
0010
0100
0010
0000
1001
0000
0010
0000
0100
0000
1000
0000
0001
0000
,  // measure 36
0110
0000
1000
0001
1000
0000
0110
0000
0001
0000
0100
0000
0010
0000
0000
0000
,  // measure 37
1001
0000
0010
0100
0010
0000
1001
0000
0100
0000
0010
0000
1000
0000
0001
0000
,  // measure 38
0110
0000
0000
0000
0100
0000
0100
0010
0100
0000
0010
0000
1000
0000
0100
0000
,  // measure 39
1001
0100
0100
0100
,  // measure 40
0100
0000
0100
0000
0100
0000
0100
1000
,  // measure 41
0001
0010
0010
0010
,  // measure 42
0010
0000
0010
0000
0010
0000
0010
1000
,  // measure 43
0100
0010
0100
1000
0010
0100
0010
1000
,  // measure 44
0100
0010
0100
1000
0010
0100
0010
1000
,  // measure 45
0001
0000
0010
0000
0100
0000
0010
0000
0100
1000
0001
1000
0001
0100
0010
1000
,  // measure 46
0001
0000
0000
0000
,  // measure 47
0101
0000
0000
0000
1100
0000
0000
0000
0001
0100
1000
0100
0000
0100
0001
0010
,  // measure 48
0000
0010
0001
0100
0000
0100
0010
1000
0200
0000
0010
0000
2000
0000
3300
0000
,  // measure 49
1010
0000
0000
0000
1000
0100
0010
0000
0010
0001
0100
0001
0000
0001
1000
0000
,  // measure 50
0200
0000
0310
0001
1000
0000
0010
0000
0200
0000
0000
0000
0020
0000
0330
0000
,  // measure 51
1010
0000
0000
0000
0011
0000
0000
0000
1000
0010
0001
0010
0000
0010
1000
0100
,  // measure 52
0000
0100
1000
0010
0100
0010
0100
0001
0020
0000
0100
0000
0002
0000
0033
0000
,  // measure 53
0101
0000
0000
0000
0001
0010
0100
0010
0100
1000
0001
0100
0000
0100
0020
0000
,  // measure 54
0030
1000
0100
1000
0001
0000
0010
0000
0200
0000
0000
0000
0020
0000
0330
0000
,  // measure 55
1100
0000
0000
0000
0101
0000
0000
0000
0001
0010
1000
0010
0000
0010
0001
1000
,  // measure 56
0000
1000
0010
0100
0000
0100
0001
0010
0200
0000
1000
0000
0020
0000
0330
0000
,  // measure 57
1100
0000
0000
0000
1000
0010
0100
0010
1000
0000
1000
0001
0000
0001
0020
0000
,  // measure 58
0000
0130
1000
0000
0001
0100
0010
0100
0020
0000
0000
0000
2000
0000
3030
0000
,  // measure 59
1100
0000
0000
0000
1000
0100
0010
0001
0000
0001
0100
0000
0100
0001
0010
0100
,  // measure 60
0000
0100
1000
0010
0000
0010
0100
0001
0020
0000
0100
0000
0002
0000
0033
0000
,  // measure 61
0101
0000
0000
0000
0001
0100
0010
1000
0001
0000
0001
0010
0100
0000
1000
0010
,  // measure 62
0000
0000
0200
0000
0000
0310
1000
0001
0020
0000
0200
0000
0330
0000
0000
0000
,  // measure 63
1000
0000
0010
0100
0010
0100
0010
0000
1000
0000
0001
0100
0001
0100
0001
0000
,  // measure 64
0010
0000
0100
1000
0100
1000
0100
0000
1000
0000
0010
0100
0010
0100
0010
0000
,  // measure 65
1000
0000
0001
0010
0001
0010
0001
0000
0100
0000
0010
1000
0020
0000
1030
0001
,  // measure 66
0100
0000
0010
1000
0100
1000
0010
0000
0100
0000
0001
0010
0001
0000
1000
0000
,  // measure 67
0001
0000
1000
0100
1000
0001
1000
0000
0010
0000
0100
0010
0001
0010
0100
0000
,  // measure 68
0001
0000
0010
0100
0010
0001
0010
0000
0100
0000
1000
0100
1000
0010
1000
0000
,  // measure 69
0001
0000
0100
0010
0100
1000
0100
0000
0010
0000
1000
0001
1000
0010
1000
0000
,  // measure 70
0001
0000
0100
0000
0010
0001
0010
1000
0001
0010
0100
1000
0001
0000
0000
0000
,  // measure 71
1000
0000
0010
0100
0010
0000
1001
0000
0010
0000
0100
0000
1100
0000
0001
0100
,  // measure 72
0001
0000
0010
0100
0010
0000
1001
0000
1000
0000
0100
0000
0110
0000
0010
0001
,  // measure 73
1000
0000
0010
0100
0010
0000
1001
0000
0100
0000
0001
0000
0011
0000
1000
0100
,  // measure 74
1000
0000
0010
0100
0010
0000
1001
0000
0001
0000
0010
0000
0110
0000
0100
1000
,  // measure 75
0001
0000
0100
0010
0100
0000
1001
0000
0100
0000
0010
0000
0011
0000
1000
0010
,  // measure 76
1000
0000
0100
0010
0100
0000
1001
0000
0001
0000
0010
0000
0110
0000
0100
1000
,  // measure 77
0001
0000
0100
0010
0100
0000
1001
0000
0010
0000
1000
0000
0100
1000
0001
0010
,  // measure 78
0001
0000
1000
0000
0100
0010
0001
1000
0020
0000
0000
0000
0030
0000
0000
0000
;
